#TITLE:좋아;
#SUBTITLE:;
#ARTIST:JONGHYUN;
#TITLETRANSLIT:She Is;
#SUBTITLETRANSLIT:;
#ARTISTTRANSLIT:;
#GENRE:K-POP;
#CREDIT:;
#BANNER:[VIP1 Oni Mode] - She Is.png;
#BACKGROUND:[VIP1 Oni Mode] - She Is-bg.png;
#LYRICSPATH:;
#CDTITLE:CDTitle.png;
#MUSIC:[VIP1 Oni Mode] - She Is.ogg;
#OFFSET:-0.000000;
#SAMPLESTART:47.987907;
#SAMPLELENGTH:16.000000;
#LASTBEATHINT:255.469864;
#SELECTABLE:YES;
#BPMS:0.000000=120.000000
,159.000000=480.000000
,160.000000=120.000000
,191.000000=480.000000
,192.000000=120.000000
;
#STOPS:159.000000=0.375000,
191.000000=0.375000
;
#DISPLAYBPM:120.000;
#BGCHANGES:-0.000=[VIP1 Oni Mode] - She Is.avi=1.000=0=0=0=StretchNoLoop====,
256.000=[VIP1 Oni Mode] - She Is-bg.png=1.000=0=0=1=====,
99999=-nosongbg-=1.000=0=0=0 // don't automatically add -songbackground-
;
#KEYSOUNDS:;
#ATTACKS:;

//---------------dance-single - ----------------
#NOTES:
     dance-single:
     :
     Hard:
     9:
     0.508644,0.569681,0.332830,1.238438,0.394752,460.000000,417.000000,43.000000,160.000000,10.000000,0.000000,0.508644,0.569681,0.332830,1.238438,0.394752,460.000000,417.000000,43.000000,160.000000,10.000000,0.000000:
// measure 0
0000
0000
0000
0000
,  // measure 1
0000
0000
0000
0000
,  // measure 2
0000
0000
0000
0000
,  // measure 3
0000
0000
0000
0000
,  // measure 4
1002
0000
1003
0002
0200
0303
1001
0000
,  // measure 5
0110
0110
0000
2000
3001
0000
0022
0033
,  // measure 6
2100
0000
3000
0002
0103
0010
2000
3000
,  // measure 7
2020
0000
0000
3030
,  // measure 8
0102
0000
0000
0000
2000
3000
0000
0000
1003
0000
0001
0000
0001
0000
0000
0000
,  // measure 9
1002
0000
0000
0000
0000
0000
0103
0010
0100
0000
0010
1000
0000
1000
0100
0000
,  // measure 10
0210
0000
0000
0000
0020
0030
0000
0000
0310
0000
0001
0000
1000
0010
1000
0000
,  // measure 11
1020
0000
0000
0000
0030
0000
1000
0001
1000
0001
0000
0100
0000
0001
1000
0000
,  // measure 12
1002
0000
0000
0000
0000
0000
0000
0000
0000
0000
0000
0000
2000
0000
0000
3000
0000
0000
0000
0000
0000
0000
0000
0000
1003
0000
0000
0000
0000
0000
0100
0000
0000
0000
1000
0000
0100
0000
0000
0000
1000
0000
0100
0000
0000
0000
0000
0000
,  // measure 13
0020
0000
0032
0003
1000
0010
0001
0020
,  // measure 14
2030
0000
3000
0000
0001
0100
1000
0200
,  // measure 15
0320
0000
1000
2000
0000
0000
3030
0000
,  // measure 16
1002
0000
0000
0000
0000
0000
2003
0000
0100
0000
0000
3100
0000
0000
0200
0000
,  // measure 17
0010
0000
0000
0310
1000
0010
0001
0010
,  // measure 18
0002
0000
1000
2003
0000
3100
0000
0020
,  // measure 19
0000
0000
0230
0000
0000
0000
00M0
0000
00M0
0000
00M0
0000
43M0
3000
4000
3000
,  // measure 20
1002
0000
0000
0000
1003
0000
0002
0000
1000
0000
0003
1000
0001
0000
0200
0000
,  // measure 21
0010
0000
0310
2000
3200
2300
3020
0230
,  // measure 22
0302
0000
0010
0023
0000
0130
0000
2000
,  // measure 23
0000
3010
0001
0100
1000
0001
2002
3003
,  // measure 24
0210
0000
0000
0000
0302
0003
1002
0000
0000
0000
1003
0000
0010
1000
0010
0000
,  // measure 25
2010
0000
0000
0000
3010
0000
0100
0010
0100
0000
0100
0001
0000
0001
1000
0000
,  // measure 26
1002
0000
0000
0000
0023
0030
0021
0000
0000
0000
0100
0000
0130
1000
0001
0000
,  // measure 27
1002
0000
0000
0000
0003
0000
1000
0100
1000
0100
0000
0010
0000
0001
0100
0000
,  // measure 28
0120
0000
0000
0000
2030
3000
2010
0000
0000
0000
3001
0000
0100
0010
0100
0000
,  // measure 29
0120
0000
0000
0000
0130
0000
0001
0010
0001
0000
0100
0010
0000
1000
0002
0000
,  // measure 30
1000
0000
0000
0000
2003
3000
0010
1000
0010
0100
0000
0001
0000
1000
0200
0000
,  // measure 31
0010
0000
0000
0000
2000
3000
1300
0010
1000
0001
0000
0010
0000
0001
1000
0000
,  // measure 32
1002
0000
0000
0000
0000
0000
2000
0000
0000
0000
0000
0000
3003
0000
0000
0000
0000
0000
0000
0000
0000
0001
0000
0000
1000
0000
0000
0000
0100
0000
0000
0000
0100
0000
0000
0000
1000
0000
0000
0000
0010
0000
0000
0000
0010
0000
0000
0000
,  // measure 33
0100
0001
0100
0010
1000
0010
1000
0100
1000
0002
0010
0013
,  // measure 34
0002
0000
0000
1003
0001
1000
0001
0010
0001
1000
0100
M1M0
,  // measure 35
0001
0000
0010
0000
0M1M
0000
1000
0000
0100
0000
1000
0000
0001
0000
0010
0000
0100
0000
2000
0000
0000
0001
0000
0000
,  // measure 36
3002
0000
0000
0203
0000
0000
0320
0000
0000
2030
0000
0000
3002
0000
0000
0000
,  // measure 37
1003
0010
0001
0010
0100
2000
0000
0000
,  // measure 38
3200
0000
0000
0302
0000
0000
2003
0000
0000
0000
3200
0000
0320
0000
0000
0000
,  // measure 39
0032
0000
0000
MM03
,  // measure 40
2000
0000
3001
0100
0000
0200
0301
2000
,  // measure 41
3200
0010
0320
0000
0032
0203
0320
2030
,  // measure 42
3200
0000
0000
0000
1300
0000
0010
0000
0000
0000
0020
0000
0031
0000
0010
1000
,  // measure 43
0020
0000
0130
0001
0200
0000
0002
0000
0300
0000
1003
0000
1001
0000
1000
0000
,  // measure 44
1200
0000
0000
0000
0320
0030
0010
0000
0000
0000
0002
0000
1003
0000
0200
0000
,  // measure 45
2300
0001
3002
0000
0023
0032
0203
0320
,  // measure 46
1030
0000
0002
0000
0013
0000
2000
0000
3010
0000
0002
0000
0103
0000
0020
0030
,  // measure 47
0220
0000
0000
0330
,  // measure 48
1002
0000
0000
0000
2003
3000
2001
0000
0000
0000
3001
0000
0100
0001
0100
0000
,  // measure 49
0102
0000
0000
0000
0013
0000
0100
0010
0100
0000
0100
1000
0000
1000
0001
0000
,  // measure 50
2001
0000
0000
0000
3200
0300
1200
0000
0000
0000
0010
0000
0310
0001
1000
0000
,  // measure 51
2001
0000
0000
0000
3000
0000
0001
0010
0001
0010
0000
0100
0000
1000
0010
0000
,  // measure 52
0210
0000
0000
0000
0302
0003
0102
0000
0000
0000
1003
0000
0010
0100
0010
0000
,  // measure 53
0210
0000
0000
0000
0310
0000
1000
0100
1000
0000
0010
0100
0000
0001
2000
0000
,  // measure 54
0001
0000
0000
0000
3002
0003
0100
0001
0100
0010
0000
1000
0000
0001
0020
0000
,  // measure 55
0100
0000
0000
0000
0002
0003
0031
0100
0001
1000
0000
0100
0000
1000
0002
0000
,  // measure 56
0013
0000
1002
1003
0010
0100
1000
0200
,  // measure 57
0302
0000
0010
0000
0023
0000
0130
1000
0200
0000
1300
0010
0000
0010
0200
0000
,  // measure 58
0301
0000
0000
0000
0022
0033
2000
0000
3100
0000
1000
0000
0010
0000
1000
0000
,  // measure 59
0002
0000
0010
0000
0023
0000
0031
0100
0001
0200
0000
0320
0000
1030
0002
0003
,  // measure 60
0002
0003
0000
0000
2200
3300
0020
0000
0031
0000
0010
0000
1000
0000
0020
0000
,  // measure 61
0032
0000
0000
0000
2003
0000
3010
0001
0020
0000
1030
0200
0000
1300
0002
0000
,  // measure 62
0013
0000
0000
0000
0022
0033
0001
1000
0100
2000
0000
3020
0000
0130
0020
0030
,  // measure 63
1010
0000
0000
0000
0202
0303
1000
0100
1000
0020
0000
0032
0000
0013
2000
0000
,  // measure 64
3000
0000
0000
0000
;

//---------------dance-single - ----------------
#NOTES:
     dance-single:
     :
     Medium:
     5:
     0.299658,0.321365,0.123844,0.549557,0.000000,271.000000,255.000000,16.000000,71.000000,0.000000,0.000000,0.299658,0.321365,0.123844,0.549557,0.000000,271.000000,255.000000,16.000000,71.000000,0.000000,0.000000:
// measure 0
0000
0000
0000
0000
,  // measure 1
0000
0000
0000
0000
,  // measure 2
0000
0000
0000
0000
,  // measure 3
0000
0000
0000
0000
,  // measure 4
2001
0000
0000
3001
0000
0000
0100
0000
,  // measure 5
0020
0030
0000
0010
0000
0000
1000
0000
,  // measure 6
1002
0000
0000
1003
0000
0000
0001
0000
,  // measure 7
0202
0000
0000
0303
,  // measure 8
0020
0000
0030
0000
0000
1000
1000
0000
,  // measure 9
0001
0000
0000
0100
0100
0000
0010
0000
,  // measure 10
2000
0000
3000
0000
0000
0001
0001
0001
,  // measure 11
2000
0000
0000
0010
3010
0000
0100
0000
,  // measure 12
0020
0000
0030
0000
0000
1000
1000
1000
,  // measure 13
0002
0000
0013
0000
0100
0010
0100
0100
,  // measure 14
0020
0000
0030
0000
0001
1000
0001
0001
,  // measure 15
2000
0000
0010
0020
0000
0000
3030
0000
,  // measure 16
0120
0000
1030
0100
,  // measure 17
0020
0000
0000
0030
0001
0000
0100
0000
,  // measure 18
1000
0000
0100
0001
0000
1000
0000
0020
,  // measure 19
0000
0200
0000
0000
0000
0000
0330
0000
,  // measure 20
2000
0001
0001
3001
,  // measure 21
0020
0100
0100
0130
,  // measure 22
2000
0001
0001
3001
,  // measure 23
0100
0010
0100
0010
0100
0010
1000
0000
,  // measure 24
2002
0000
3003
0000
0001
0000
0100
0010
,  // measure 25
1000
0000
0001
0000
1000
0010
0100
0000
,  // measure 26
0220
0000
0330
0000
0010
0000
0100
0001
,  // measure 27
0020
0000
0000
0031
0001
1000
0001
0000
,  // measure 28
2002
0000
3003
0000
0001
0000
0100
0010
,  // measure 29
0200
0000
0301
0000
0010
0100
0010
0000
,  // measure 30
0002
0000
1003
0000
0010
0100
0010
0000
,  // measure 31
2000
0000
3001
0000
0010
0100
0010
0000
,  // measure 32
0220
0330
1000
0010
,  // measure 33
0001
0100
1000
0001
,  // measure 34
1002
1000
1003
0100
,  // measure 35
0001
0010
1000
0001
,  // measure 36
0200
0320
2030
3002
,  // measure 37
0013
0100
0010
0100
0010
0002
0000
0000
,  // measure 38
1003
0010
0100
0001
,  // measure 39
2000
0000
0000
3000
,  // measure 40
0200
0000
0000
0310
0000
0010
0000
0001
,  // measure 41
0002
0000
0023
0000
0130
1000
0100
1000
,  // measure 42
0200
0000
0000
0310
0000
0010
0000
0001
,  // measure 43
0002
1000
0000
1000
0000
0100
0103
0000
,  // measure 44
0220
0000
0330
0010
0000
1000
0000
0100
,  // measure 45
0020
0000
0032
0000
0103
0010
0100
0010
,  // measure 46
0100
0001
0000
1000
0000
0010
0000
0010
,  // measure 47
0220
0000
0000
0330
,  // measure 48
2002
0000
3003
0000
1000
0000
0100
1000
,  // measure 49
0001
0000
0010
0000
0010
0001
1000
0000
,  // measure 50
2002
0000
3003
0000
0001
0000
0010
0100
,  // measure 51
2000
0000
0000
0010
3010
0100
0001
0000
,  // measure 52
2002
0000
3003
0000
0001
0000
0100
0001
,  // measure 53
0020
0000
1030
0000
0010
0001
0100
0000
,  // measure 54
0020
0000
0130
0000
0010
1000
0100
0000
,  // measure 55
0020
0000
0130
0000
0010
0001
0100
0000
,  // measure 56
0010
0000
1002
0000
1003
0000
1000
0100
,  // measure 57
2000
0000
3020
0000
0130
0001
0100
0001
,  // measure 58
0200
0000
0310
0000
1000
0000
0001
0010
,  // measure 59
0200
0000
0320
0000
0031
1000
0001
1000
,  // measure 60
0002
0000
0103
0000
0010
0000
1000
0100
,  // measure 61
0020
0000
0230
0000
1300
0010
1000
0010
,  // measure 62
2000
0000
3001
0100
0000
0010
0000
2000
,  // measure 63
0000
0000
3010
0100
0000
0001
0000
1001
;

//---------------dance-single - ----------------
#NOTES:
     dance-single:
     :
     Easy:
     2:
     0.185766,0.246720,0.038701,0.387012,0.000000,168.000000,163.000000,5.000000,50.000000,0.000000,0.000000,0.185766,0.246720,0.038701,0.387012,0.000000,168.000000,163.000000,5.000000,50.000000,0.000000,0.000000:
// measure 0
0000
0000
0000
0000
,  // measure 1
0000
0000
0000
0000
,  // measure 2
0000
0000
0000
0000
,  // measure 3
0000
0000
0000
0000
,  // measure 4
1001
0000
0000
0001
,  // measure 5
0100
0000
0100
0010
,  // measure 6
1000
0000
0000
0001
,  // measure 7
2002
0000
0000
3003
,  // measure 8
0020
0030
0000
0100
,  // measure 9
0100
0000
0001
0010
,  // measure 10
2000
3000
0000
0010
,  // measure 11
0010
0000
0001
0100
,  // measure 12
2000
3000
0000
0100
,  // measure 13
0100
0000
0010
0010
,  // measure 14
1000
0000
0100
0100
,  // measure 15
0020
0000
0000
0030
,  // measure 16
0002
0000
0103
0000
,  // measure 17
0020
0000
1030
0000
,  // measure 18
0100
0000
0010
0000
,  // measure 19
0001
0000
0001
0000
,  // measure 20
1000
1000
1000
1000
,  // measure 21
0010
0010
0010
0010
,  // measure 22
0100
0100
0100
0100
,  // measure 23
0001
0001
0001
1001
,  // measure 24
0020
0030
0000
0001
,  // measure 25
0100
0000
0010
1000
,  // measure 26
0020
0030
0000
1000
,  // measure 27
0001
0000
1000
0001
,  // measure 28
0020
0030
0000
0001
,  // measure 29
1000
0000
0100
0100
,  // measure 30
0020
0030
0100
0100
,  // measure 31
0020
0030
0100
0100
,  // measure 32
0020
0000
0031
0100
,  // measure 33
0010
1000
0100
0010
,  // measure 34
0002
1000
1003
0010
,  // measure 35
0100
0001
0010
0100
,  // measure 36
1000
1000
0010
0010
,  // measure 37
0100
0100
0001
0001
,  // measure 38
0010
0001
0100
0010
,  // measure 39
0200
0000
0000
0300
,  // measure 40
0020
1000
0000
1030
,  // measure 41
0200
0000
0010
0310
,  // measure 42
0002
0000
1000
1003
,  // measure 43
2000
0000
0010
3010
,  // measure 44
0220
0000
0330
0000
,  // measure 45
0020
2030
3002
0023
,  // measure 46
0230
0000
1000
1300
,  // measure 47
2002
0000
0000
3003
,  // measure 48
0020
0030
0000
1000
,  // measure 49
2000
3000
0001
0100
,  // measure 50
0020
0030
0000
0100
,  // measure 51
0100
0000
0001
1000
,  // measure 52
0020
0030
0000
1000
,  // measure 53
0100
0000
0010
0001
,  // measure 54
0020
0030
0100
1000
,  // measure 55
0020
0030
0100
0001
,  // measure 56
0020
0030
0000
0000
,  // measure 57
0002
2003
3020
0230
,  // measure 58
0302
0003
0000
0000
,  // measure 59
2000
3002
0203
0320
,  // measure 60
2030
3000
0000
0000
,  // measure 61
0002
0023
0230
2300
,  // measure 62
3010
0000
0100
0001
,  // measure 63
1000
0000
0100
1000
;
