#TITLE:Sayonara Planet Wars;
#SUBTITLE:;
#ARTIST:黒魔;
#TITLETRANSLIT:;
#SUBTITLETRANSLIT:;
#ARTISTTRANSLIT:Chroma;
#GENRE:Chiptune;
#CREDIT:tikal.;
#MUSIC:[VIP1 Oni Mode] - Sayonara Planet Wars.ogg;
#BANNER:[VIP1 Oni Mode] - Sayonara Planet Wars.png;
#BACKGROUND:[VIP1 Oni Mode] - Sayonara Planet Wars-bg.png;
#CDTITLE:cdtitle.png;
#SAMPLESTART:102.589;
#SAMPLELENGTH:17.143;
#SELECTABLE:YES;
#OFFSET:-2.143;
#BPMS:0.000=224.000;
#STOPS:;
#BGCHANGES:;
#FGCHANGES:;

//--------------- dance-single - tikal. ----------------
#NOTES:
     dance-single:
     tikal.:
     Hard:
     10:
     0.027664,0.069808,0.006916,0,0.013832,28,27,1,0,0,0,0.027664,0.069808,0.006916,0,0.013832,28,27,1,0,0,0:
0000
0000
0000
0000
,
0000
0000
0000
0000
,
0000
0000
0000
0000
,
0000
0000
0000
0000
,
0000
0000
0000
0000
,
0000
0000
0000
0000
,
0000
0000
0000
0000
,
0000
0000
0000
0000
,
1000
0000
0000
0100
1100
0000
0100
0010
,
0000
0100
0010
0000
0001
1000
0001
0010
,
0001
0000
0000
0001
0010
0000
0000
0010
0100
0000
0000
0100
1000
0000
0000
1000
,
0001
1000
0001
1000
0100
0100
0010
0010
,
0001
0000
0000
0100
0101
0000
0100
0010
,
0000
0100
0010
0000
1000
0001
1000
0010
,
1000
1000
0100
0100
0010
0010
0001
0001
,
0100
0000
0100
0000
0010
0000
0010
0000
2000
0000
0000
0000
3002
0000
0000
0003
,
1002
0000
0000
0000
0000
0000
0103
0200
,
0000
0000
0000
0000
0000
0310
1000
0001
,
2001
0000
0000
3200
0000
0310
0100
2000
,
0000
0000
3001
0000
0100
0000
0010
0000
2000
0000
0000
0000
0000
0000
0000
3000
,
2001
0000
0000
0000
0000
0000
3100
0200
,
0000
0000
0000
0000
0000
0310
0001
1000
,
1002
0000
0103
0020
0000
0130
0002
2000
,
0000
0000
0000
3003
,
0001
0000
0010
0100
1000
0000
0100
1000
,
0001
0000
1000
0001
0100
0000
0010
0000
,
1000
0000
0000
0001
0000
0000
2002
0000
,
0000
0000
0000
0000
3003
0001
0010
0100
,
1000
0000
0010
0100
0001
0000
0100
0001
,
1000
0000
0001
1000
0100
0000
0010
0000
,
0001
0000
0000
1000
0000
0000
2002
0000
,
0000
0000
0000
3003
,
2000
0000
0000
3002
0000
0000
0103
0000
0100
0000
0100
0000
,
0001
0010
0100
1000
,
0001
0000
0010
0000
0100
1000
0001
1000
,
0100
0010
0001
1000
,
0100
0010
0001
1000
,
0200
0000
0000
0000
1300
0001
0100
0010
,
1000
0010
0100
0001
,
1000
0100
0010
0001
,
2000
0000
0000
0000
0000
0000
0000
0000
3001
0000
0000
0001
0000
0000
0001
0000
,
1000
0010
0100
0001
,
1000
0000
0010
0000
0100
0001
1000
0001
,
0100
0010
1000
0001
,
0100
0010
1000
0001
,
0100
0000
0010
0000
1000
0001
0010
0000
,
0100
0000
1000
0001
0100
0000
0010
0000
,
2000
0000
3002
0000
,
0203
0000
0000
0300
0120
0000
0000
0000
,
1030
0000
1100
0000
,
0001
0000
0101
0000
,
1000
0000
1020
0230
,
0302
0000
0203
0320
2030
0000
3002
0000
,
1003
0000
1010
0000
,
0001
0000
0011
0020
,
0230
2300
3020
0230
0000
2300
3200
0000
,
0302
0023
0230
0302
0000
0203
2300
0000
,
3001
0000
0000
0100
0000
0000
0001
0000
0100
0000
0000
0000
0100
0000
0010
0000
,
1000
0000
0000
0100
0000
0000
1000
0000
0100
0000
0000
0000
0100
0000
0010
0000
,
0001
0000
0000
0001
1000
0000
0000
1000
0001
0000
0000
0001
1000
0000
0000
1000
,
0010
0000
0000
0010
0100
0000
0000
0100
0010
0000
0010
0000
0000
0000
2001
0000
,
0000
0000
3100
0010
0001
1000
0100
0010
,
0001
1000
0100
0010
0100
1000
0000
1002
,
0000
0000
0103
0010
1000
0001
0100
0010
,
1000
0001
0100
0010
0100
0001
0000
2001
,
0000
0000
3010
0100
0001
1000
0010
0100
,
0010
1000
0001
0100
0010
1000
0000
1002
,
0000
0000
0013
0100
1000
0001
0010
0100
,
0010
0001
1000
0100
0010
0001
0000
2001
,
0000
0000
3010
0001
0010
0100
0010
1000
,
0010
0100
0010
0001
0010
0100
0010
1000
,
0100
0010
0100
0001
0100
0010
0100
1000
,
0100
0010
0100
0001
0100
0010
0100
1000
,
0001
0100
0010
1000
0001
0100
0010
1000
,
0001
0010
0100
1000
0001
0010
0100
1000
,
0001
0001
0100
0100
0010
0010
1000
1000
,
0100
0100
0010
0010
0002
0000
0000
0000
,
0000
0000
0000
0000
0000
0000
0000
0000
2003
0000
0000
0000
3002
0000
0000
0003
,
2001
0000
0000
0000
0000
0000
3010
0020
,
0000
0000
0000
0000
0000
0130
0001
1000
,
0002
0000
0000
0023
0000
0130
0010
0002
,
0000
0000
1003
0000
0010
0000
0100
0000
0002
0000
0000
0000
0000
0000
0000
0003
,
1002
0000
0000
0000
0000
0000
0013
0020
,
0000
0000
0000
0000
0000
0130
1000
0001
,
2000
0000
3010
0200
0000
0310
2000
0002
,
0000
0000
3003
0000
,
0220
0000
0000
0000
0000
0330
1001
2002
,
0000
0000
0000
0000
3003
1000
0010
0100
,
0101
0000
0001
2000
0000
3001
0100
0120
,
0000
1030
0001
1000
0200
0000
0000
0000
,
1300
0000
0000
1000
0100
0000
0000
0100
0010
0000
0000
0010
0001
0000
0000
0001
,
1000
0000
0000
1000
0010
0000
0000
0010
0100
0000
0001
0000
0100
0000
0010
0000
,
1000
1000
0100
0100
0010
0010
0001
0001
,
1000
0001
1000
0001
1000
0001
1000
0001
2000
0000
0000
0000
0000
0000
0000
0000
,
3001
0100
0100
0020
0000
0130
0001
2000
,
0000
0000
0100
0000
3100
0000
0010
0001
,
1000
0100
0100
0020
0000
0130
1000
0002
,
0000
0000
0100
0000
0103
0000
0010
1000
,
2020
0000
3030
0022
0000
0033
2002
0000
,
3000
0000
0100
0000
0103
0000
0100
0001
,
0202
0000
0303
2200
0000
3300
2002
0000
,
0000
3003
0220
0330
,
0001
0010
0010
0200
0000
0310
0001
2000
,
0000
0000
0100
0000
3010
0000
0100
0001
,
1000
0010
0010
0200
0000
0310
1000
0002
,
0000
0000
0100
0000
0013
0000
0100
1000
,
2200
0000
3300
0202
0000
0303
2002
0000
,
3000
0000
0010
0000
0013
0000
0010
0001
,
0022
0000
0033
2020
0000
3030
2002
0000
,
0000
0000
3003
0000
0220
0000
0330
1001
,
0000
1000
1000
0001
0001
0010
0100
2000
,
0000
3010
0100
0002
0000
1003
0100
0001
,
1000
0010
0001
1000
0010
0001
1000
0100
,
0001
1000
0010
0100
0001
0010
0100
1000
,
0001
0100
0001
0000
1000
0100
1000
0000
0001
0100
0001
0000
1000
0100
1000
0000
,
0001
0010
0001
0000
1000
0010
1000
0000
0001
0010
0001
0000
1000
0010
1000
0000
,
0002
0023
0230
2300
3002
0203
0320
2030
,
3020
0230
0302
2003
3002
0000
2003
0000
,
3001
0000
0000
0010
0000
0000
0100
0000
0000
1000
0000
0000
0100
0000
0010
0000
,
0001
0000
0000
0001
1000
0000
0000
1000
0010
0000
0000
0010
0100
0000
0000
0100
,
0001
0100
0010
1000
1000
0001
0100
0001
,
1000
0100
0010
0001
0010
0000
0000
0000
0001
0010
0100
1000
0100
0000
0000
0000
,
2000
3200
0320
0032
2003
3200
0320
0032
,
2003
3020
0230
0302
2003
3020
0230
0302
,
1003
0100
1000
0100
1000
0100
1000
0100
,
0010
0001
0010
0001
0010
0001
0010
0001
,
1000
0001
1000
0001
1000
0001
1000
0001
1000
0001
1000
0001
1000
0001
1000
0001
,
2000
0000
3020
0000
0230
0000
0302
0000
0203
0000
0320
0000
2030
3000
2002
0000
,
0000
0000
0000
0000
,
0000
0000
0000
0000
,
0000
0000
0000
0000
,
0000
0000
0000
0000
,
3003
0000
0000
0000
;

//--------------- dance-single - tikal. ----------------
#NOTES:
     dance-single:
     tikal.:
     Challenge:
     13:
     1.045306,1.506307,0.338885,1.203386,1.02357,1058,1009,49,174,0,0,1.045306,1.506307,0.338885,1.203386,1.02357,1058,1009,49,174,0,0:
0000
0000
0000
0000
,
0000
0000
0000
0000
,
0000
0000
0000
0000
,
0000
0000
0000
0000
,
0000
0000
0000
0000
,
0000
0000
0000
0000
,
0000
0000
0000
0000
,
0000
0000
0000
0000
,
1000
0000
0100
1000
1100
0000
0100
0010
,
0000
0100
1000
0001
0100
0010
0000
0010
,
0100
0001
0100
0001
1000
0100
1000
0100
,
0010
0100
0010
0100
1000
0001
0100
0000
0010
0000
0010
0000
0010
0000
0010
0000
,
1000
0001
1000
0001
1000
0000
0010
0000
1010
0000
0000
0000
0010
0000
0100
0000
,
0000
0010
1000
0001
0010
0100
0010
0001
,
1000
0010
1000
0000
0001
0010
0001
0000
1000
0100
1000
0000
0001
0100
0001
0000
,
1000
0010
0100
0001
1000
0100
0010
0001
2000
0000
0000
0000
3002
0000
0000
0003
,
1002
0000
0000
0000
0000
0000
0103
0010
0100
0010
0100
0000
0001
0000
2001
0000
,
0000
0000
0000
0000
3100
0010
0100
0010
0100
0000
1000
0000
0001
0000
0100
0000
,
0110
0000
0010
2000
0000
3100
0010
0012
,
0000
0000
0203
0000
0320
0000
2030
0000
3001
0010
0100
1000
0001
0100
0010
1000
,
0002
0000
0000
0000
0000
0000
0013
0100
0010
0100
0010
0000
0001
0000
2001
0000
,
0000
0000
0000
0000
3010
0100
0010
0100
0010
0000
1000
0000
0001
0000
0010
0000
,
0110
0000
0100
2000
0000
3010
0100
0102
,
0000
0000
0013
0000
0100
0000
1000
0000
0001
0100
0010
1000
0001
0010
0100
1000
,
0002
0000
0000
0000
0000
0000
0103
0010
2000
0000
0000
0000
0000
0000
3010
0100
,
0002
0000
0000
0000
0000
0000
1003
0100
0020
0000
0000
0230
0000
0000
1300
0000
,
2200
0000
3300
0202
0000
0303
2002
3003
,
0001
0010
0100
1000
0100
0010
0001
0000
1000
0010
0100
0001
0100
0010
1000
0000
,
0002
0000
0000
0000
0000
0000
0013
0100
2000
0000
0000
0000
0000
0000
3100
0010
,
0002
0000
0000
0000
0000
0000
1003
0010
0200
0000
0000
0320
0000
0000
1030
0000
,
2020
0000
3030
0022
0000
0033
2002
3003
,
0001
0100
0010
1000
0010
0100
0001
0000
1000
0001
1000
0001
1000
0000
0000
0000
,
0004
0000
0000
4003
0000
0000
3100
0000
0100
0000
0100
0000
,
1000
0000
0000
0001
0000
0000
0100
0000
0000
0010
0000
0000
1000
0000
0000
0001
,
0000
0000
0010
0000
0000
0100
0000
0000
1000
0100
0010
0001
0010
0100
1000
0001
,
1000
0000
0000
0010
0000
0000
0100
0000
0000
1000
0000
0000
0100
0000
0000
0010
,
0000
0000
1000
0000
0000
0100
0000
0000
0010
0000
0000
0001
0000
0000
0100
0000
,
0020
0000
0000
0000
0000
0000
0030
0000
1000
0001
1000
0001
1000
0100
0010
0001
,
1000
0000
0000
0010
0000
0000
0100
0000
0001
0000
0000
0100
0000
0000
0010
0000
,
1000
0000
0000
0100
0000
0000
0010
0000
0001
0000
0000
0010
0000
0000
0100
0000
,
2000
0000
0000
0000
3001
1000
0001
1000
0001
0000
0000
1001
0000
0000
0110
0000
,
0001
0000
0000
1000
0000
0000
0100
0000
0000
0010
0000
0000
0001
0000
0000
1000
,
0000
0000
0010
0000
0000
0100
0000
0000
0001
0100
0010
1000
0010
0100
0001
1000
,
0001
0000
0000
0010
0000
0000
0100
0000
0000
0001
0000
0000
0100
0000
0000
0010
,
0000
0000
0001
0000
0000
0100
0000
0000
0010
0000
0000
1000
0000
0000
0100
0000
,
0010
0000
0000
0001
0000
0000
1000
0000
0001
1000
0010
0100
0010
0000
0000
1000
,
0000
0000
0001
0000
1000
0001
0010
0100
0010
0000
0000
0001
0000
0000
1000
0000
,
0001
0100
0002
0000
0000
0000
1003
0100
2000
0000
0000
0000
0000
0000
3010
0100
,
0020
0000
0000
0000
1030
0001
1000
0001
2000
0000
0000
0000
0000
0000
3000
0000
,
1100
0000
1000
0001
0101
0000
0100
0010
,
0000
0110
1000
0001
1001
0000
1000
0001
,
1000
0000
0100
0010
0002
0000
0023
0000
,
0230
0000
0320
0230
2300
0000
3002
0000
,
1003
0000
0001
1000
1100
0000
0100
0010
,
0000
0110
0001
1000
1001
0000
0001
1000
,
0002
0203
0320
0032
0000
0023
2030
0000
,
3002
0000
0023
0000
0230
0000
2300
0000
0000
0000
3002
0000
1003
0010
0100
0001
,
1000
0000
0100
0010
0000
0100
1000
0000
0001
0000
0000
1000
0001
0010
0100
1000
,
0001
0000
0100
0010
0000
0100
0001
0000
1000
0000
0000
0001
1000
0010
0100
0001
,
1000
0000
0001
0010
0001
0000
1000
0010
1000
0000
0001
0100
0001
0000
1000
0100
,
1000
0100
0010
0001
0010
0001
1000
0010
0100
0000
0100
0000
0000
0000
2001
0000
,
0000
0000
3001
0010
0100
0000
0010
0100
1000
0000
0100
1000
0001
0000
1000
0001
,
0100
0000
0001
0100
0010
0100
0010
1000
0001
0000
1000
0000
0000
0000
1002
0000
,
0000
0000
1003
0010
0100
0000
0010
0100
0001
0000
0100
0001
1000
0000
0001
1000
,
0100
0000
1000
0100
0010
0100
0010
0001
1000
0000
0001
0000
0000
0000
2001
0000
,
0000
0000
3001
0010
0100
0000
0100
1000
0001
0000
0001
0100
0010
0000
0010
1000
,
0001
0010
0100
1000
0001
0100
0010
1000
0001
0000
1000
0000
0000
0000
1002
0000
,
0000
0000
1003
0010
0100
0000
0100
0001
1000
0000
1000
0100
0010
0000
0010
0001
,
1000
0010
0100
0001
1000
0100
0010
0001
1000
0000
0001
0000
0000
0000
2001
0000
,
0000
0000
3001
0010
0100
0000
1000
0100
0010
0000
0001
0100
0010
0000
1000
0010
,
0100
0000
0010
0100
0001
0000
0100
0010
1000
0000
0100
0010
0001
0000
0010
0100
,
1000
0000
0001
0100
0001
0000
1000
0100
1000
0000
0001
0010
0001
0000
1000
0010
,
1000
0000
0001
0010
0100
0000
0010
0100
1000
0000
0001
0100
0010
0000
0100
0010
,
1000
0010
1000
0010
1000
0010
1000
0000
0001
0010
0001
0010
0001
0010
0001
0000
,
1000
0100
1000
0100
1000
0100
1000
0000
0001
0100
0001
0100
0001
0100
0001
0000
,
1000
0001
1000
0001
1000
0001
1000
0001
1000
0001
1000
0001
1000
0001
1000
0001
,
0100
0010
0100
0010
0100
0010
0100
0010
0200
0000
0000
0000
0000
0000
0000
0000
,
0000
0000
0000
0000
0000
0000
0000
0000
0302
0000
0000
0000
2003
0000
0000
3000
,
1002
0000
0000
0000
0000
0000
0103
0200
,
0000
0000
0000
0000
0000
0320
0230
0302
,
2003
0000
3000
0000
1000
0100
0020
0000
0000
0000
0230
0000
2300
0000
3002
0000
,
0000
0203
0320
0230
0302
0000
0000
0000
,
2003
0000
0000
0000
0000
0000
3100
0200
,
0000
0000
0000
0000
0000
0320
0032
0023
,
0032
0000
0203
0320
0000
0230
0302
2000
,
0000
0000
3003
0000
,
0220
0000
0000
0000
0000
0330
1001
2002
,
0000
0000
0000
0000
3003
1000
0010
0100
,
0101
0000
0000
0000
0001
1000
0200
0000
0000
0000
0310
0000
0001
0000
1002
0000
,
0000
0000
0103
0000
0010
0000
0100
0000
0001
1000
0001
1000
0001
1000
0001
0000
,
1000
0000
0100
1000
0001
0000
0100
0001
1000
0000
0010
1000
0001
0000
0010
0001
,
1000
0000
0100
0010
0001
0000
0010
0100
1000
0000
0002
0000
0203
0000
0320
0000
,
1030
0010
1000
0010
0100
0001
0100
0001
1000
0100
1000
0100
0010
0001
0010
0001
,
1000
0010
0100
0001
1000
0100
0010
0001
1000
0000
0000
0000
0100
0000
0010
0000
,
0001
0000
0100
0001
0100
0000
0020
0000
0000
0000
1030
0000
0100
0000
0020
0000
,
0000
0000
0000
0000
0130
1000
0001
0000
0100
0001
1000
0001
0100
0000
0010
0000
,
1000
0000
0100
1000
0100
0000
0020
0000
0000
0000
0031
0000
0100
0000
0020
0000
,
0000
0000
0000
0000
0130
0001
1000
0000
0100
1000
0001
1000
0100
0000
0010
0000
,
0012
0000
0103
2010
0000
3100
1002
0000
,
0000
0000
1003
0100
1000
0000
0001
0100
0001
0000
1000
0010
0100
0000
0001
0000
,
0202
0000
0303
2200
0000
3300
2001
0000
,
0000
0000
3001
0010
0001
0000
1000
0010
0200
0000
0000
0000
0301
0000
1000
0000
,
0001
0000
0010
0001
0010
0000
0200
0000
0000
0000
1300
0000
0010
0000
0200
0000
,
0000
0000
0000
0000
0310
1000
0001
1000
0010
1000
0001
0000
0010
0000
0100
0000
,
1000
0000
0010
1000
0010
0000
0200
0000
0000
0000
0301
0000
0010
0000
0200
0000
,
0000
0000
0000
0000
0310
0001
1000
0001
0010
0001
1000
0000
0010
0000
0100
0000
,
0102
0000
0013
2100
0000
3010
1002
0000
,
0000
0000
1003
0010
1000
0000
0001
0010
0001
0010
0100
1000
0001
0000
0010
0000
,
0022
0000
0033
2020
0000
3030
2001
0000
,
0000
0000
3001
0100
0001
0000
1000
0100
0010
0001
0010
0100
1000
0000
1002
0000
,
0000
0000
1003
0010
1000
0000
0001
0010
0001
0000
1000
0000
0010
0000
0200
0000
,
0000
0301
0010
0002
0000
1003
0100
0002
,
1003
0010
0002
1003
0010
0002
1003
0100
,
0002
0000
1003
0000
0010
0000
0200
0000
0302
0000
0013
0100
0010
0000
0100
0000
,
1000
0100
0010
0100
1000
0000
0001
1000
0001
0100
0010
0100
0001
0000
1000
0001
,
1000
0010
0100
0010
1000
0000
0001
1000
0001
0010
0100
0010
0001
0000
1000
0001
,
2000
3020
0230
0302
2003
3200
0320
0032
,
0023
0230
2300
3002
2003
0000
3002
0000
,
1003
0000
0100
0010
0000
0001
0100
0000
0010
1000
0000
0001
0010
0000
0100
0000
,
1000
0000
0100
1000
0001
0000
0100
0001
1000
0000
0010
1000
0001
0000
0010
0001
,
1000
0100
0010
0001
0001
1000
0100
1000
,
0001
0100
0010
0100
0010
1000
0001
0010
0100
0010
0100
1000
0100
0010
0001
1000
,
0002
0203
0320
2030
3002
0203
0320
2030
,
3002
0023
0230
2300
3002
0023
0230
2300
,
3001
0100
0001
0100
0001
0100
0001
0100
0010
1000
0010
1000
0010
1000
0010
1000
,
0001
0010
0001
0010
0001
0010
0001
0010
0100
1000
0100
1000
0100
1000
0100
1000
,
0001
1000
0001
1000
0001
1000
0001
1000
0001
1000
0001
1000
0001
1000
0001
1000
,
0002
0000
0203
0000
0320
0000
2030
0000
3020
0000
0230
0000
0302
0003
2002
0000
,
0000
0000
0000
0000
,
0000
0000
0000
0000
,
0000
0000
0000
0000
,
0000
0000
0000
0000
,
3003
0000
0000
0000
;
