#VERSION:0.82;
#TITLE:OLLIE KING;
#SUBTITLE:;
#ARTIST:RedOgre;
#TITLETRANSLIT:;
#SUBTITLETRANSLIT:;
#ARTISTTRANSLIT:;
#GENRE:;
#ORIGIN:;
#CREDIT:;
#BANNER:[VIP1 Oni Mode] - OLLIE KING.png;
#BACKGROUND:[VIP1 Oni Mode] - OLLIE KING-bg.png;
#PREVIEWVID:;
#JACKET:[VIP1 Oni Mode] - OLLIE KING-jacket.png;
#CDIMAGE:;
#DISCIMAGE:;
#LYRICSPATH:;
#CDTITLE:;
#MUSIC:[VIP1 Oni Mode] - OLLIE KING.ogg;
#OFFSET:-0.023000;
#SAMPLESTART:30.034000;
#SAMPLELENGTH:15.000000;
#SELECTABLE:YES;
#BPMS:0.000=320.000;
#STOPS:;
#DELAYS:;
#WARPS:;
#TIMESIGNATURES:0.000=4=4;
#TICKCOUNTS:0.000=4;
#COMBOS:0.000=1;
#SPEEDS:0.000=1.000=0.000=0;
#SCROLLS:0.000=1.000;
#FAKES:;
#LABELS:0.000=Song Start;
#BGCHANGES:;
#KEYSOUNDS:;
#ATTACKS:
;

//---------------dance-single - ----------------
#NOTEDATA:;
#CHARTNAME:;
#STEPSTYPE:dance-single;
#DESCRIPTION:;
#CHARTSTYLE:;
#DIFFICULTY:Hard;
#METER:9;
#RADARVALUES:0.823387,0.856541,0.305000,0.555256,0.000000,633.000000,39.000000,71.000000,0.000000,0.000000,0.000000,6.000000,0.000000,0.823387,0.856541,0.305000,0.555256,0.000000,633.000000,39.000000,71.000000,0.000000,0.000000,0.000000,6.000000,0.000000;
#CREDIT:;
#NOTES:
0000
0000
0000
0000
,
0000
0000
0000
0000
,
0000
0000
0000
0000
,
0000
0000
0000
0000
,
0000
0000
0000
0000
,
0000
0000
0000
0000
,
0000
0000
0000
0000
,
0000
0000
0000
0000
,
1000
0100
0010
0100
,
1000
0001
0000
0010
0000
0010
0001
0000
,
1000
0010
0100
0010
,
2000
3100
0002
0003
,
0001
0100
0010
0100
,
0001
1000
0000
0010
0000
0010
1000
0000
,
0001
0010
0100
0010
,
0001
0001
2000
3001
,
1001
0001
0100
0010
,
1000
0001
0100
0010
,
1001
1000
0100
0010
,
0001
1000
0200
0300
,
0110
0000
0100
0000
1000
0001
0000
0001
,
0100
0000
0010
0000
1000
0001
0000
0001
,
0010
0010
0100
0100
,
1000
0001
1000
0001
2000
0000
3000
0000
,
0001
0100
0010
0100
,
0001
1000
0010
0100
,
0001
0010
0100
0010
,
0002
0103
0200
0301
,
1000
0100
0010
0100
,
1000
0001
0010
0100
,
1000
0010
0001
0010
,
1000
0001
1000
0000
0001
1000
0001
0000
,
1000
0001
0010
0001
,
0100
0010
0100
0001
,
1000
0100
0010
0001
,
2000
3100
0200
1300
,
0001
1000
0010
1000
,
0100
0010
0100
1000
,
0001
0100
0010
1000
,
0001
1000
0001
1000
0002
0000
0003
0000
,
2000
0000
0001
3000
,
1000
0110
0022
0033
,
0002
1003
2000
3001
,
0001
0000
1000
0000
0001
0100
0001
0100
,
0002
0000
1000
0003
,
0001
0110
2020
3030
,
2000
3001
0002
1003
,
0100
0010
0100
0000
0010
0100
0010
0000
,
0001
0100
1000
0100
,
0001
0000
1000
0000
0010
0100
0010
0000
,
1000
0100
0001
0100
,
1000
0000
0001
0000
1000
0010
0000
0010
,
0100
0001
1000
0100
,
0010
0001
1000
0010
,
1000
0010
1000
0000
0001
0100
0001
0000
,
1000
0001
1000
0001
2000
0000
3000
0000
,
0001
0000
0100
0010
0000
0100
0000
0001
,
0000
0100
0000
0010
1000
0000
0001
0000
,
1000
0000
0100
0010
0000
0100
0000
1000
,
0002
0000
0003
0000
1000
0100
1000
0000
,
1000
0000
0010
0100
0000
0010
0000
1000
,
0000
0010
0000
0100
0001
0000
1000
0000
,
0001
0000
0010
0100
0000
0010
0000
0001
,
0000
0001
0000
0010
0001
0000
1000
0000
,
1001
0001
0100
0001
,
0020
0100
0031
0001
,
1001
1000
0100
1000
,
0020
0100
2030
3000
,
1001
0001
0100
0010
,
1001
1000
0100
0010
,
0110
0100
0110
0010
,
0001
0000
1000
0000
0001
0100
0010
1000
,
0001
0000
0100
0010
0000
1000
0000
0010
,
0100
0000
0100
0000
0001
1000
0010
1000
,
0001
0000
0010
0100
0000
1000
0000
0100
,
0010
0010
0220
0330
,
1000
0000
0100
0010
0000
0001
0000
0010
,
0100
0000
0100
0000
1000
0001
0010
0001
,
1000
0000
0010
0100
0000
0001
0000
0001
,
0100
0010
0100
0000
0220
0000
0330
0000
,
0001
0000
1000
0010
0000
1010
0000
1000
,
0001
0000
0001
0000
0010
0100
0010
0100
,
1000
0000
0001
0010
0000
0011
0000
0001
,
1000
0001
0220
0330
,
1000
0000
0001
0100
0000
0101
0000
0001
,
1000
0000
1000
0000
0100
0010
0100
0010
,
0001
0000
1000
0100
0000
1100
0000
0100
,
1000
0001
1000
0000
2002
0000
3003
0000
,
0001
0100
0010
1000
,
0010
1000
0001
0100
,
0001
1000
0001
0010
,
0001
0000
1000
0000
0100
1000
0100
0000
,
1000
0100
0010
0001
,
0010
0001
1000
0100
,
1000
0001
1000
0010
,
1000
0001
1000
0000
0001
1000
0001
0000
,
1000
0001
0010
0100
,
0010
0001
1000
0010
,
0100
0001
0100
0010
,
2000
3001
0002
1003
,
0001
1000
0010
0100
,
0010
1000
0001
0010
,
0001
0001
1000
1000
,
0100
0010
0100
0010
0200
0000
0300
0000
,
2002
0000
0000
0000
,
0000
0000
0000
0000
,
0000
0000
0000
0000
,
0000
0000
0000
3003
L00L
0000
0000
0000
,
0220
0000
0000
0000
,
0000
0000
0000
0000
,
0000
0000
0000
0000
,
0000
0000
0000
0330
0LL0
0000
0000
0000
,
2200
0000
0000
0000
,
0000
0000
0000
3000
,
2000
0300
0200
3000
,
2000
0300
3001
0000
,
0202
0000
0000
0000
,
0000
0000
0000
0303
0L0L
0000
0000
0000
,
1001
0000
0000
0000
,
0010
0010
0010
0010
,
1001
0000
1000
0010
0000
1000
0000
0001
,
1000
0100
0010
0010
,
0001
0000
1000
0001
0000
0100
0000
0001
,
0010
0100
0220
0330
,
1001
0000
0001
0010
0000
0001
0000
1000
,
0002
0203
0320
0130
,
0001
0000
0010
0100
0000
0010
0000
0100
,
1000
0001
2002
3003
,
1000
0000
0100
2000
0000
0000
3000
0000
,
0001
0000
0100
0002
0000
0000
0003
0000
,
1000
0000
0010
2000
0000
0000
3000
0000
,
0001
0000
0010
0002
0000
0000
0003
0000
,
1000
0100
0002
0003
,
0001
0100
2000
3000
,
1000
0010
0001
1000
,
0100
0000
0001
0000
1000
0001
2000
0000
,
3001
0100
0010
0100
,
0001
0100
1000
0010
,
0001
0100
0010
0100
,
0001
1000
0010
0010
,
1000
0100
0010
0100
,
1000
0100
0001
0010
,
1000
0100
0010
0001
,
1000
1100
0022
0033
,
0001
0010
0100
0010
,
0001
0010
1000
0100
,
0001
0010
0100
0010
,
0001
1000
0100
0100
,
1000
0010
0100
0010
,
1000
0010
0001
0100
,
1000
0010
0001
0010
,
0110
1001
0220
0330
,
0010
1000
0000
0001
0000
1000
0010
0000
,
0100
0001
0000
1000
0000
0001
0100
0000
,
0010
1000
0000
0001
0000
1000
0010
0000
,
0010
1000
0200
0300
,
0010
0001
0000
1000
0000
0001
0010
0000
,
0100
1000
0000
0001
0000
1000
0100
0000
,
0010
0001
0000
1000
0000
0001
0010
0001
,
0020
0031
0200
0301
,
1000
0001
0000
0010
0000
0100
1000
0000
,
0100
1000
0001
0100
,
0001
1000
0000
0010
0000
0100
0001
0000
,
0010
0001
1000
0010
,
1000
0100
0000
1000
0100
0010
0000
0100
,
0010
0001
0000
0010
0001
1000
0000
0001
,
0100
0100
0010
0010
,
1000
0001
1000
0001
2000
0000
3000
0000
,
2002
0000
3003
0000
;

//---------------dance-single - ----------------
#NOTEDATA:;
#CHARTNAME:;
#STEPSTYPE:dance-single;
#DESCRIPTION:;
#CHARTSTYLE:;
#DIFFICULTY:Challenge;
#METER:10;
#RADARVALUES:0.987618,0.988316,0.469230,0.735127,0.000000,738.000000,60.000000,94.000000,0.000000,0.000000,0.000000,8.000000,0.000000,0.987618,0.988316,0.469230,0.735127,0.000000,738.000000,60.000000,94.000000,0.000000,0.000000,0.000000,8.000000,0.000000;
#CREDIT:;
#NOTES:
// measure 0
0000
0000
0000
0000
,  // measure 1
0000
0000
0000
0000
,  // measure 2
0000
0000
0000
0000
,  // measure 3
0000
0000
0000
0000
,  // measure 4
0000
0000
0000
0000
,  // measure 5
0000
0000
0000
0000
,  // measure 6
0000
0000
0000
0000
,  // measure 7
0000
0000
0000
0000
,  // measure 8
1000
0001
0010
0100
,  // measure 9
1000
0001
0000
0010
0000
0010
0100
0000
,  // measure 10
1000
0010
0100
0001
,  // measure 11
1000
0010
0000
0100
0000
0100
0001
0000
,  // measure 12
0001
0100
1000
0100
,  // measure 13
0001
1000
0000
0001
0000
0001
0010
0000
,  // measure 14
0001
0010
1000
0010
,  // measure 15
0001
0010
0000
0001
0010
0100
1000
0000
,  // measure 16
2100
3100
0010
0001
,  // measure 17
1000
0000
1000
0000
0001
1000
0001
0000
,  // measure 18
0102
0103
0010
1000
,  // measure 19
0001
0100
0001
0000
1000
0100
1000
0000
,  // measure 20
1001
0000
0010
0000
0100
1000
0000
0100
,  // measure 21
0010
0000
0001
0000
0100
0001
0000
0100
,  // measure 22
0010
1000
0001
0000
0010
0001
1000
0000
,  // measure 23
0010
0100
0010
0100
0020
0000
0030
0000
,  // measure 24
1000
1000
0100
0100
,  // measure 25
0010
0100
0000
1000
0000
0001
0010
0000
,  // measure 26
0001
0001
0100
0100
,  // measure 27
0001
0100
0000
0010
0000
1000
0002
0000
,  // measure 28
1003
1000
0010
0010
,  // measure 29
0100
0001
0000
0100
0000
0010
1000
0000
,  // measure 30
0001
0001
0010
0010
,  // measure 31
0001
0010
0100
0000
1000
0010
0100
0000
,  // measure 32
0001
0100
0001
0010
,  // measure 33
0100
1000
0000
0001
0000
0010
0100
0000
,  // measure 34
1000
0010
1000
0100
,  // measure 35
1000
0100
1000
0001
0000
0001
0010
0000
,  // measure 36
0001
0010
0001
0100
,  // measure 37
0010
1000
0000
0001
0000
0100
0010
0000
,  // measure 38
2000
3010
0020
0130
,  // measure 39
0100
0001
0100
0001
0020
0000
0031
0000
,  // measure 40
2000
0000
0001
3000
,  // measure 41
1000
0110
0022
0003
,  // measure 42
0032
0000
0100
0000
,  // measure 43
0103
0000
0001
0000
1000
0010
1000
0000
,  // measure 44
0002
0000
1000
0003
,  // measure 45
0001
0110
2020
3000
,  // measure 46
2030
3001
0002
2003
,  // measure 47
3100
0000
0100
0000
1000
0001
1000
0000
,  // measure 48
0002
0000
0010
0003
,  // measure 49
0001
0011
0202
0003
,  // measure 50
0320
0100
0100
0000
,  // measure 51
1030
0000
0001
0000
1000
0100
0010
0000
,  // measure 52
0100
1000
0010
0100
,  // measure 53
0001
0000
0010
0000
0200
0000
0310
0001
,  // measure 54
1000
0100
1000
0000
0001
0100
0001
0000
,  // measure 55
1000
0010
0100
0001
0020
0000
0030
0000
,  // measure 56
0001
0000
0100
0001
0000
0100
0000
0010
,  // measure 57
0000
0100
0000
0001
1000
0000
1001
0000
,  // measure 58
0001
0000
0100
0001
0000
0100
0000
0100
,  // measure 59
0020
0030
0100
0000
0001
1000
0001
0000
,  // measure 60
1000
0000
0100
1000
0000
0100
0000
0010
,  // measure 61
0200
1300
0000
1000
0001
0000
1001
0000
,  // measure 62
1000
0000
0100
1000
0000
0100
0000
0010
,  // measure 63
0000
0001
0000
0001
0100
0000
0001
0000
,  // measure 64
0110
0000
1000
0010
0000
0100
0000
0001
,  // measure 65
0020
0031
0000
0001
1000
0000
1000
0000
,  // measure 66
0110
0000
0001
0010
0000
0100
0000
1000
,  // measure 67
0020
1030
0000
1000
0001
0000
0001
0000
,  // measure 68
1001
0001
0010
0100
,  // measure 69
1001
1000
0010
0100
,  // measure 70
0110
0010
0110
0100
,  // measure 71
1001
0110
2002
3003
,  // measure 72
1000
0000
0001
0010
0000
0100
0000
0010
,  // measure 73
0001
0000
0011
0000
0010
0100
0010
0001
,  // measure 74
1000
0000
0100
0010
0000
0001
0000
0010
,  // measure 75
0100
0100
2002
3003
,  // measure 76
0001
0000
1000
0010
0000
0100
0000
0010
,  // measure 77
1000
0000
1010
0000
0010
0100
0010
1000
,  // measure 78
0001
0000
0100
0010
0000
1000
0000
0010
,  // measure 79
0200
0301
0020
1030
,  // measure 80
0001
0000
0010
0100
0000
0010
0000
1000
,  // measure 81
0010
0100
1000
0010
,  // measure 82
1000
0000
0010
0100
0000
0010
0000
0001
,  // measure 83
0010
0010
2002
3003
,  // measure 84
1000
0000
0100
0010
0000
0100
0000
0001
,  // measure 85
0100
0000
1000
0000
0100
1000
0001
0000
,  // measure 86
0100
0000
0001
0010
0000
0100
0000
0010
,  // measure 87
0001
1000
0001
0000
0220
0000
0330
0000
,  // measure 88
2000
3100
2000
3001
,  // measure 89
2000
3010
0200
0301
,  // measure 90
2000
3010
2000
3001
,  // measure 91
0020
0000
0031
0000
1000
0001
1000
0000
,  // measure 92
0002
0103
0002
1003
,  // measure 93
0002
0013
0200
1300
,  // measure 94
0002
0013
0002
1003
,  // measure 95
0010
1000
0001
0000
0100
0001
1000
0000
,  // measure 96
0200
1300
0002
1003
,  // measure 97
0200
0010
1300
0001
,  // measure 98
0200
0301
2000
3001
,  // measure 99
0200
0010
0001
0310
,  // measure 100
1000
1010
0001
0101
,  // measure 101
1000
1100
0001
0011
,  // measure 102
0010
0100
1000
0000
0100
0010
0001
0000
,  // measure 103
1000
0001
1000
0001
2000
0000
3000
0000
,  // measure 104
2002
0000
3000
2000
0000
0000
0000
0000
,  // measure 105
0000
0000
0003
0002
0000
0000
0000
0000
,  // measure 106
0000
0000
3000
2000
0000
0000
0000
0000
,  // measure 107
0000
0000
0000
3003
L00L
0000
0000
0000
,  // measure 108
0220
0000
0300
0200
0000
0000
0000
0000
,  // measure 109
0000
0000
0030
0020
0000
0000
0000
0000
,  // measure 110
0000
0000
0300
0200
0000
0000
0000
0000
,  // measure 111
0000
0000
0000
0330
0LL0
0000
0000
0000
,  // measure 112
2000
0000
3100
2000
0000
0000
0000
0000
,  // measure 113
3002
0000
0103
0002
0000
0000
0000
0000
,  // measure 114
0023
0130
0200
0310
,  // measure 115
0002
0000
1003
0002
0000
0000
0000
0000
,  // measure 116
0023
0000
0031
0020
0000
0000
0000
0000
,  // measure 117
0230
0000
1300
0200
0000
0000
0300
0000
,  // measure 118
2002
0000
0000
0000
0000
0000
0000
3003
,  // measure 119
L00L
0000
0000
0000
1000
0001
1000
0100
,  // measure 120
0010
0000
0010
0001
0000
1000
0000
0001
,  // measure 121
0010
0000
0010
0000
0110
0000
0100
1000
,  // measure 122
0010
0000
0010
1000
0000
0001
0000
1000
,  // measure 123
0010
0000
0110
0000
0100
0001
1000
0000
,  // measure 124
0010
0000
0010
1000
0000
0001
0000
1000
,  // measure 125
0100
0000
0100
0000
0010
0001
1000
0001
,  // measure 126
0010
0000
0010
0001
0000
1000
0000
0001
,  // measure 127
0010
1001
0220
0330
,  // measure 128
1000
0000
0100
1000
0000
1000
0100
0010
,  // measure 129
0001
0000
0100
0001
0000
0001
0100
0010
,  // measure 130
1000
0000
0010
1000
0000
1000
0010
0100
,  // measure 131
0001
0000
0010
0001
0000
0001
0010
0100
,  // measure 132
1000
1100
1001
0100
,  // measure 133
0001
0101
1001
0110
,  // measure 134
0001
1000
0010
0000
1000
0001
0010
0000
,  // measure 135
0001
1000
0001
1000
0100
0010
0100
0000
,  // measure 136
1000
0100
0000
0100
0010
0001
0010
0100
,  // measure 137
1000
0100
0000
0100
1000
0001
0010
0000
,  // measure 138
0001
0100
0000
0100
0010
1000
0010
0100
,  // measure 139
0001
0100
0001
0000
1000
0100
1000
0000
,  // measure 140
0100
0010
0000
0010
0001
1000
0100
1000
,  // measure 141
0001
0010
0000
0010
0001
1000
0001
0000
,  // measure 142
0100
0010
0000
0010
1000
0001
0100
0001
,  // measure 143
0010
1100
0220
0330
,  // measure 144
1000
0001
0000
1000
0010
1000
0001
0100
,  // measure 145
0001
0010
0000
0001
1000
0100
0010
0000
,  // measure 146
0001
1000
0000
0001
0010
0001
1000
0100
,  // measure 147
1000
0001
0010
0000
0001
1000
0010
0000
,  // measure 148
0100
0001
0000
0100
0010
1000
0010
0001
,  // measure 149
0010
1000
0000
1000
0001
0010
0100
0000
,  // measure 150
0100
1000
0000
0100
0010
1000
0010
0001
,  // measure 151
0010
1100
0022
0033
,  // measure 152
1001
0000
1001
0000
0001
0100
0010
0000
,  // measure 153
1010
0000
1000
0002
0000
0023
0000
0130
,  // measure 154
0010
0000
0001
0000
1000
0100
1000
0000
,  // measure 155
0001
0101
1000
1100
,  // measure 156
0110
0000
0110
0000
0100
1000
0001
0000
,  // measure 157
0011
0000
1000
0020
0000
2030
0000
3001
,  // measure 158
0100
0000
0100
0000
0001
0100
0001
0000
,  // measure 159
0001
0100
1000
0000
0001
0010
1000
0000
,  // measure 160
1000
0001
1000
0001
0000
1000
0010
1000
,  // measure 161
0001
0100
0010
0000
1000
0100
0010
0000
,  // measure 162
0001
1000
0001
1000
0000
0001
0010
0001
,  // measure 163
1000
0010
1000
0010
0100
0000
0001
0100
,  // measure 164
0001
0010
0000
0001
0010
0100
0000
0010
,  // measure 165
0100
1000
0100
1000
0001
0010
0001
0010
,  // measure 166
0001
1001
1000
1001
,  // measure 167
1000
0100
1000
0100
0020
0000
0030
0000
,  // measure 168
0220
0000
0000
0330
0LL0
0000
0000
0000
;

//---------------dance-single - ----------------
#NOTEDATA:;
#CHARTNAME:;
#STEPSTYPE:dance-single;
#DESCRIPTION:;
#CHARTSTYLE:;
#DIFFICULTY:Beginner;
#METER:2;
#RADARVALUES:0.141886,0.394153,0.187692,0.000000,0.000000,103.000000,24.000000,0.000000,0.000000,0.000000,0.000000,0.000000,0.000000,0.141886,0.394153,0.187692,0.000000,0.000000,103.000000,24.000000,0.000000,0.000000,0.000000,0.000000,0.000000,0.000000;
#CREDIT:;
#NOTES:
0000
0000
0000
0000
,
0000
0000
0000
0000
,
0000
0000
0000
0000
,
0000
0000
0000
0000
,
0000
0000
0000
0000
,
0000
0000
0000
0000
,
0000
0000
0000
0000
,
0000
0000
0000
0000
,
1001
0000
0000
0000
,
0000
0000
0000
0000
,
0000
0000
0000
0000
,
0000
0000
0000
0000
,
0110
0000
0000
0000
,
0000
0000
0000
0000
,
0000
0000
0000
0000
,
0000
0000
0000
0000
,
1001
0000
0000
0000
,
0000
0000
0000
0000
,
0110
0000
0000
0000
,
0000
0000
0000
0000
,
1001
0000
0000
0000
,
0110
0000
0000
0000
,
1001
0000
1001
0000
,
1001
0000
0000
0000
,
1000
0000
0000
0000
,
0000
0000
0000
0000
,
0100
0000
0000
0000
,
0000
0000
0000
0000
,
0010
0000
0000
0000
,
0000
0000
0000
0000
,
0001
0000
0000
0000
,
0000
0000
0000
0000
,
0001
0000
0000
0000
,
0000
0000
0000
0000
,
0100
0000
0000
0000
,
0000
0000
0000
0000
,
0010
0000
0000
0000
,
0000
0000
0000
0000
,
1000
0000
0000
0000
,
0000
0000
0000
0000
,
0001
0000
0000
0000
,
0000
0000
0000
0000
,
0010
0000
0000
0000
,
0000
0000
0000
0000
,
0100
0000
0000
0000
,
0000
0000
0000
0000
,
1000
0000
0000
0000
,
0000
0000
0000
0000
,
1000
0000
0000
0000
,
0000
0000
0000
0000
,
0010
0000
0000
0000
,
0000
0000
0000
0000
,
0100
0000
0000
0000
,
0100
0000
0000
0000
,
0001
0000
0000
0000
,
0000
0000
0000
0000
,
1001
0000
0000
0000
,
0000
0000
0000
0000
,
0000
0000
0000
0000
,
0000
0000
0000
0000
,
0110
0000
0000
0000
,
0000
0000
0000
0000
,
0000
0000
0000
0000
,
0000
0000
0000
0000
,
1001
0000
0000
0000
,
0000
0000
0000
0000
,
0110
0000
0000
0000
,
0000
0000
0000
0000
,
1001
0000
0000
0000
,
1001
0000
0000
0000
,
1001
0000
0000
0000
,
0000
0000
0000
0000
,
0001
0000
0000
0000
,
0000
0000
0000
0000
,
1000
0000
0000
0000
,
0000
0000
0000
0000
,
0010
0000
0000
0000
,
0000
0000
0000
0000
,
0100
0000
0000
0000
,
0000
0000
0000
0000
,
0001
0000
0000
0000
,
0000
0000
0000
0000
,
1000
0000
0000
0000
,
0000
0000
0000
0000
,
0010
0000
0000
0000
,
0000
0000
0000
0000
,
0100
0000
0000
0000
,
0000
0000
0000
0000
,
1000
0000
0000
0000
,
0000
0000
0000
0000
,
0001
0000
0000
0000
,
0000
0000
0000
0000
,
0100
0000
0000
0000
,
0000
0000
0000
0000
,
0010
0000
0000
0000
,
0000
0000
0000
0000
,
1000
0000
0000
0000
,
0000
0000
0000
0000
,
0001
0000
0000
0000
,
0000
0000
0000
0000
,
0010
0000
0000
0000
,
0010
0000
0000
0000
,
0100
0000
0000
0000
,
0000
0000
0000
0000
,
1001
0000
0000
0000
,
0000
0000
0000
0000
,
0000
0000
0000
0000
,
0000
0000
0000
0000
,
0110
0000
0000
0000
,
0000
0000
0000
0000
,
0000
0000
0000
0000
,
0000
0000
0000
0000
,
1001
0000
0000
0000
,
0000
0000
0000
0000
,
0000
0000
0000
0000
,
0000
0000
0000
0000
,
0110
0000
0000
0000
,
0000
0000
0000
0000
,
0000
0000
0000
0000
,
0000
0000
0000
0000
,
1000
0000
0000
0000
,
1000
0000
0000
0000
,
0100
0000
0000
0000
,
0100
0000
0000
0000
,
0010
0000
0000
0000
,
0010
0000
0000
0000
,
0001
0000
0000
0000
,
0001
0000
0000
0000
,
1000
0000
0000
0000
,
1000
0000
0000
0000
,
0001
0000
0000
0000
,
0001
0000
0000
0000
,
1001
0000
0000
0000
,
1001
0000
0000
0000
,
1001
0000
0000
0000
,
0000
0000
0000
0000
,
1000
0000
0000
0000
,
0100
0000
0000
0000
,
1000
0000
0000
0000
,
0100
0000
0000
0000
,
0010
0000
0000
0000
,
0001
0000
0000
0000
,
0010
0000
0000
0000
,
0001
0000
0000
0000
,
1000
0000
0000
0000
,
0010
0000
0000
0000
,
1000
0000
0000
0000
,
0010
0000
0000
0000
,
0100
0000
0000
0000
,
0001
0000
0000
0000
,
0100
0000
0000
0000
,
0001
0000
0000
0000
,
0001
0000
0000
0000
,
0100
0000
0000
0000
,
0001
0000
0000
0000
,
0100
0000
0000
0000
,
0010
0000
0000
0000
,
1000
0000
0000
0000
,
0010
0000
0000
0000
,
1000
0000
0000
0000
,
0001
0000
0000
0000
,
0010
0000
0000
0000
,
0001
0000
0000
0000
,
0010
0000
0000
0000
,
0100
0000
0000
0000
,
0100
0000
0000
0000
,
1000
0000
0001
0000
,
1000
0000
0000
0000
,
1001
0000
0000
0000
;

//---------------dance-single - ----------------
#NOTEDATA:;
#CHARTNAME:;
#STEPSTYPE:dance-single;
#DESCRIPTION:;
#CHARTSTYLE:;
#DIFFICULTY:Easy;
#METER:4;
#RADARVALUES:0.288241,0.525538,0.265897,0.172051,0.000000,202.000000,34.000000,22.000000,0.000000,0.000000,0.000000,0.000000,0.000000,0.288241,0.525538,0.265897,0.172051,0.000000,202.000000,34.000000,22.000000,0.000000,0.000000,0.000000,0.000000,0.000000;
#CREDIT:;
#NOTES:
0000
0000
0000
0000
,
0000
0000
0000
0000
,
0000
0000
0000
0000
,
0000
0000
0000
0000
,
0000
0000
0000
0000
,
0000
0000
0000
0000
,
0000
0000
0000
0000
,
0000
0000
0000
0000
,
1001
0000
0000
0000
,
0000
0000
0000
0000
,
1000
0000
0000
0000
,
0001
0000
0000
0000
,
0110
0000
0000
0000
,
0000
0000
0000
0000
,
0100
0000
0000
0000
,
0010
0000
0000
0000
,
1001
0000
0000
0000
,
1000
0000
0000
0000
,
0110
0000
0000
0000
,
0010
0000
0000
0000
,
1001
0000
0000
0000
,
0110
0000
0000
0000
,
1001
0000
1001
0000
,
2002
0000
3003
0000
,
1000
0000
0000
0000
,
0001
0000
0000
0000
,
1000
0000
0000
0000
,
0001
0000
1000
0000
,
0100
0000
0000
0000
,
0010
0000
0000
0000
,
0100
0000
0000
0000
,
0010
0000
0100
0000
,
1000
0000
0000
0000
,
0001
0000
0000
0000
,
1000
0000
0000
0000
,
0001
0000
1000
0000
,
0010
0000
0000
0000
,
0100
0000
0000
0000
,
0010
0000
0010
0000
,
0020
0000
0030
0000
,
1000
0000
0000
0000
,
0100
0000
0000
0000
,
1000
0000
0000
0000
,
0100
0000
1000
0000
,
0001
0000
0000
0000
,
0010
0000
0000
0000
,
0001
0000
0000
0000
,
0010
0000
0001
0000
,
1000
0000
0000
0000
,
0010
0000
0000
0000
,
0001
0000
0000
0000
,
0010
0000
0000
0000
,
1000
0000
0000
0000
,
0001
0000
0000
0000
,
0100
0000
0010
0000
,
0200
0000
0300
0000
,
1001
0000
0000
0000
,
0000
0000
0000
0000
,
0001
0000
0000
0000
,
1000
0000
0000
0000
,
0110
0000
0000
0000
,
0000
0000
0000
0000
,
0100
0000
0000
0000
,
0010
0000
0000
0000
,
1001
0000
0000
0000
,
0001
0000
0000
0000
,
0110
0000
0000
0000
,
0100
0000
0000
0000
,
1001
0000
0000
0000
,
0110
0000
0000
0000
,
1001
0000
1001
0000
,
2002
0000
3003
0000
,
0001
0000
0000
0000
,
0001
0000
0010
0000
,
0001
0000
0000
0000
,
0001
0000
1000
0000
,
0001
0000
0000
0000
,
0001
0000
0100
0000
,
0001
0000
0000
0000
,
0100
0000
0010
0000
,
1000
0000
0000
0000
,
1000
0000
0010
0000
,
1000
0000
0000
0000
,
1000
0000
0001
0000
,
1000
0000
0000
0000
,
1000
0000
0100
0000
,
0010
0000
0010
0000
,
0100
0000
0100
0000
,
1000
0000
0000
0000
,
1000
0000
0100
0000
,
1000
0000
0000
0000
,
1000
0000
0001
0000
,
1000
0000
0000
0000
,
1000
0000
0010
0000
,
1000
0000
0000
0000
,
0010
0000
0100
0000
,
0001
0000
0000
0000
,
0001
0000
0100
0000
,
0001
0000
0000
0000
,
0001
0000
1000
0000
,
0001
0000
0000
0000
,
0001
0000
0010
0000
,
0200
0000
0300
0000
,
0020
0000
0030
0000
,
1001
0000
0000
0000
,
0000
0000
0000
0000
,
0000
0000
0000
0000
,
0000
0000
0000
0000
,
0110
0000
0000
0000
,
0000
0000
0000
0000
,
0000
0000
0000
0000
,
0000
0000
0000
0000
,
0011
0000
0000
0000
,
0000
0000
0000
0000
,
0000
0000
0000
0000
,
0000
0000
0000
0000
,
1100
0000
0000
0000
,
0000
0000
0000
0000
,
0100
0000
0000
0000
,
0200
0000
0300
0000
,
2000
0000
0000
3000
0000
0000
0000
0000
,
0002
0000
0000
0003
0000
0000
0000
0000
,
2000
0000
0000
3000
0000
0000
0000
0000
,
0100
0000
0010
0000
,
0002
0000
0000
0003
0000
0000
0000
0000
,
2000
0000
0000
3000
0000
0000
0000
0000
,
0002
0000
0000
0003
0000
0000
0000
0000
,
0100
0000
0010
0000
,
0110
0000
0000
0000
,
0100
0000
0000
0000
,
1001
0000
0000
0000
,
0001
0000
0000
0000
,
0110
0000
0000
0000
,
1001
0000
0000
0000
,
0110
0000
0110
0000
,
0220
0000
0330
0000
,
1000
0000
0100
0000
,
1000
0000
0100
0000
,
1000
0000
0001
0000
,
1000
0000
0001
0000
,
1000
0000
0010
0000
,
1000
0000
0010
0000
,
0100
0000
0100
0000
,
0200
0000
0300
0000
,
0001
0000
0100
0000
,
0001
0000
0100
0000
,
0001
0000
1000
0000
,
0001
0000
1000
0000
,
0001
0000
0010
0000
,
0001
0000
0010
0000
,
0100
0000
0100
0000
,
0200
0000
0300
0000
,
1000
0000
0100
0000
,
1000
0000
0001
0000
,
1000
0000
0100
0000
,
1000
0000
0010
0000
,
0100
0000
0001
0000
,
0100
0000
0010
0000
,
1000
0000
0001
0000
,
2000
0000
3000
0000
,
0001
0000
0100
0000
,
0001
0000
1000
0000
,
0001
0000
0100
0000
,
0001
0000
0010
0000
,
0200
0000
0300
0000
,
0020
0000
0030
0000
,
0011
0000
0110
0000
,
1100
0000
0110
0000
,
1001
0000
0000
0000
;

//---------------dance-single - ----------------
#NOTEDATA:;
#CHARTNAME:;
#STEPSTYPE:dance-single;
#DESCRIPTION:;
#CHARTSTYLE:;
#DIFFICULTY:Medium;
#METER:7;
#RADARVALUES:0.550787,0.658877,0.109487,0.305000,0.000000,440.000000,14.000000,39.000000,0.000000,0.000000,0.000000,0.000000,0.000000,0.550787,0.658877,0.109487,0.305000,0.000000,440.000000,14.000000,39.000000,0.000000,0.000000,0.000000,0.000000,0.000000;
#CREDIT:;
#NOTES:
0000
0000
0000
0000
,
0000
0000
0000
0000
,
0000
0000
0000
0000
,
0000
0000
0000
0000
,
0000
0000
0000
0000
,
0000
0000
0000
0000
,
0000
0000
0000
0000
,
0000
0000
0000
0000
,
2001
0000
0100
0000
,
0001
0000
0100
0000
,
0010
0000
0100
0000
,
0002
0000
3003
0000
,
1002
0000
0100
0000
,
1000
0000
0100
0000
,
0010
0000
1000
0000
,
0100
0000
2003
0000
,
3001
0000
0100
0000
,
0001
0100
0010
0000
,
1000
0000
0100
0000
,
1000
0100
0010
0000
,
0002
0000
0103
0000
,
2000
0000
3100
0000
,
0101
0000
1100
0000
,
0001
0100
0020
0030
,
1000
0000
0100
0000
,
1000
0001
1000
0000
,
0100
0000
1000
0000
,
0100
0010
0001
0000
,
0001
0000
0100
0000
,
0001
1000
0001
0000
,
0100
0000
0001
0000
,
0100
0010
1000
0000
,
0001
0000
0010
0000
,
0001
1000
0001
0000
,
0010
0000
0100
0000
,
1000
0100
0010
0100
,
1000
0000
0010
0000
,
1000
0001
1000
0000
,
0010
0000
0010
0000
,
0100
0100
0200
0300
,
0002
0000
0103
0000
,
0001
1000
0010
0000
,
2000
0000
3100
0000
,
0010
0001
0010
0100
,
2000
0000
3100
0000
,
1000
0001
0100
0000
,
0002
0000
0103
0000
,
0010
1000
0001
0100
,
0002
0000
0013
0000
,
0100
1000
0100
0000
,
2000
0000
3010
0000
,
0100
0010
1000
0001
,
2000
0000
3010
0000
,
0002
0000
0013
0000
,
0100
1000
0001
0100
,
0010
0010
0020
0030
,
1000
0000
0000
0100
0000
1000
0000
0100
,
0000
1000
0001
0001
,
1000
0000
0000
0010
0000
1000
0000
0010
,
0000
0100
0002
0003
,
0001
0000
0000
0100
0000
0001
0000
0100
,
0000
0001
1000
1000
,
0001
0000
0000
0010
0000
0001
0000
0010
,
0000
0100
1000
1000
,
0001
0100
0010
0000
,
0010
0100
0001
0000
,
0010
0100
1000
0000
,
1000
0100
0010
0100
,
1000
0000
1100
0000
,
0001
0000
0101
0000
,
1000
0001
1000
0001
,
0100
0010
0200
0300
,
0001
0000
1000
0000
,
0001
0100
0010
0000
,
1000
0000
0001
0000
,
1000
0100
0010
0000
,
0001
0000
0100
0000
,
0010
1000
0001
0000
,
1000
0000
0100
0000
,
0010
0001
1000
0000
,
0001
0000
1000
0000
,
0001
0010
0100
0000
,
1000
0000
0001
0000
,
1000
0100
0010
0000
,
0001
0000
1000
0000
,
0001
0100
0010
0100
,
0001
0001
1000
1000
,
0100
0100
0200
0300
,
1000
0100
1000
0000
,
0100
0010
0100
0000
,
0010
0001
0010
0000
,
0001
1000
0001
1000
,
0001
0100
0001
0000
,
0100
0010
0100
0000
,
0010
1000
0010
0000
,
1000
0001
0200
0300
,
0001
0010
0001
0000
,
0010
0100
0010
0000
,
0100
1000
0100
0000
,
1000
0001
1000
0001
,
1000
0010
1000
0000
,
0010
0100
0010
0000
,
0100
0001
0100
0001
,
0020
0000
0030
0000
,
1001
0000
0000
0000
,
0000
0000
0000
0000
,
0000
0000
0000
0000
,
0000
0000
0010
0000
,
0110
0000
0000
0000
,
0000
0000
0000
0000
,
0000
0000
0000
0000
,
2000
3001
0002
1003
,
1001
0000
0000
0000
,
0000
0000
0000
0000
,
0010
0001
1000
0100
,
0000
0000
0100
0000
,
0110
0000
0000
0000
,
0000
0000
0100
0000
,
1001
0000
0000
0000
,
2002
0000
0000
3003
,
0001
0000
0000
0100
0000
0000
0001
0000
,
1000
0010
0100
0010
,
1000
0000
0000
0100
0000
0000
1000
0000
,
0001
0010
0001
0000
,
1000
0000
0000
0100
0000
0000
1000
0000
,
0001
0010
0100
0010
,
0001
0000
0000
0100
0000
0000
0001
0000
,
0200
0310
0200
0300
,
0001
0000
0000
0001
0000
0000
0000
0000
,
0010
0000
0000
0010
0000
0000
0000
0000
,
0100
0000
0000
0100
0000
0000
0000
0000
,
1000
0000
0000
1000
0000
0000
0000
0000
,
0002
0000
0103
0001
,
2000
0000
3100
1000
,
0002
0000
2003
0000
,
3010
0010
0010
0000
,
1000
0000
0000
0100
0000
0000
0010
0000
,
0001
0000
0000
0010
0000
0000
0100
0000
,
1000
0000
0000
0001
0000
0000
0010
0000
,
0100
1000
0100
0010
,
0001
0000
0000
0100
0000
0000
0010
0000
,
1000
0000
0000
0010
0000
0000
0100
0000
,
0001
0100
1000
0100
,
0010
0100
0020
0030
,
1000
0000
0000
0100
0000
0000
0010
0000
,
0001
0000
0000
0100
0000
0000
0010
0000
,
1000
0000
0000
0100
0000
0000
0010
0000
,
0001
0010
0100
0010
,
0001
0000
0000
0010
0000
0000
0100
0000
,
1000
0000
0000
0010
0000
0100
0000
0010
,
1000
0001
1000
0001
,
0010
0100
0020
0030
,
0001
0010
0100
0010
,
0001
1000
0100
1000
,
0001
0010
0100
1000
,
0010
1000
0010
0100
,
0001
0100
0010
0100
,
0001
1000
0010
1000
,
0001
0010
0100
1000
,
0100
0100
0220
0330
,
1000
0100
0010
0100
,
1000
0001
0100
0001
,
1000
0010
0100
0001
,
0010
0001
0010
0010
,
0001
0000
0000
0001
1000
0000
0000
1000
,
0010
0000
0000
0010
0100
0000
0000
0100
,
0010
1000
0001
0010
,
0100
1000
0002
0003
,
2002
0000
3003
0000
;
