#TITLE:NASA;
#SUBTITLE:;
#ARTIST:Ariana Grande;
#TITLETRANSLIT:;
#SUBTITLETRANSLIT:;
#ARTISTTRANSLIT:;
#GENRE:;
#CREDIT:hooky;
#BANNER:NASA.png;
#BACKGROUND:NASA-bg.png;
#LYRICSPATH:;
#CDTITLE:;
#MUSIC:NASA.ogg;
#OFFSET:-1.600000;
#SAMPLESTART:46.400002;
#SAMPLELENGTH:15.000000;
#SELECTABLE:YES;
#DISPLAYBPM:75.000000;
#BPMS:0.000000=75.000000
;
#STOPS:
;
#BGCHANGES:;
#KEYSOUNDS:;
#ATTACKS:;

//---------------dance-single - ----------------
#NOTES:
     dance-single:
     :
     Challenge:
     8:
     0.374481,0.490196,0.358254,0.384468,0.323302,300.000000,259.000000,41.000000,44.000000,0.000000,0.000000,0.374481,0.490196,0.358254,0.384468,0.323302,300.000000,259.000000,41.000000,44.000000,0.000000,0.000000:
// measure 0
0000
0000
0000
0000
,  // measure 1
0000
0000
0000
0000
,  // measure 2
2200
0000
3300
0000
0010
0000
0100
0100
0000
0001
0001
0000
0010
0100
1000
0010
,  // measure 3
0220
0000
0330
0000
0202
0000
0303
0001
0000
0001
1000
0000
0100
0010
0001
0100
,  // measure 4
0020
0000
1000
0000
1030
0000
0000
0000
1000
0010
0100
0000
0100
0001
0010
0000
,  // measure 5
0002
0000
0000
1000
1003
0000
0000
0000
0010
0100
0001
0000
0001
0010
0100
1000
,  // measure 6
0001
0000
0000
1000
0001
0000
0000
0000
0001
0010
0100
0000
0100
0010
0001
0001
,  // measure 7
2002
0000
3003
0000
2020
0000
3030
0000
0010
0100
0010
1000
0100
0000
0100
0000
,  // measure 8
2020
0000
3030
0000
0022
0000
0033
0000
0001
0010
0100
0000
1000
0010
0100
0100
,  // measure 9
0020
0000
0030
0100
0001
0000
0000
0000
0001
0000
0001
0000
0001
1000
0001
0000
,  // measure 10
2000
0010
0020
3030
2000
0010
0020
3030
,  // measure 11
0200
0001
0002
0303
0200
0001
0002
0303
,  // measure 12
0020
0001
0002
0033
0020
0001
0002
0033
,  // measure 13
1000
0100
0010
0001
1010
1010
0101
1001
,  // measure 14
0110
0000
0100
0000
0011
0000
0101
0000
0001
0100
1000
0000
0101
0000
0000
0000
,  // measure 15
0001
0100
1000
0000
0101
0000
0001
0100
1000
0100
0001
0000
0001
0100
0010
1000
,  // measure 16
2020
0000
3030
0000
1100
0000
0000
0000
1000
0100
0001
0000
1100
0000
0000
0000
,  // measure 17
1000
0100
0001
0000
1100
0000
1000
1000
0101
0000
0101
0000
1010
0000
1001
0000
,  // measure 18
0110
0000
0010
0000
1100
0000
0011
0000
0001
0010
1000
0000
1001
0000
0000
0000
,  // measure 19
0001
0010
1000
0000
1001
0000
0001
0010
1000
0010
0001
0000
1000
0010
0100
0001
,  // measure 20
0202
0000
0303
0000
0011
0000
0000
0000
0001
0100
1000
0000
1100
0000
0000
0000
,  // measure 21
0001
0100
1000
0000
1100
0000
0001
0100
0110
0000
1010
0000
1001
0000
0110
0000
,  // measure 22
0200
0010
0000
0310
,  // measure 23
0200
0000
0000
0000
0010
0000
0000
0001
0000
0000
0001
0000
0310
0000
0000
0000
,  // measure 24
0100
0010
1000
1000
0001
0010
0100
0010
,  // measure 25
0002
0000
0000
0000
1000
0000
0000
0100
0000
0000
0100
0000
1003
0000
0000
0000
,  // measure 26
0100
0010
1000
0100
1000
1000
0001
0000
0001
0100
0010
0100
0001
0001
0010
0000
,  // measure 27
0001
0100
1000
0100
0001
0010
1000
0010
0001
1000
0010
0100
0001
0010
0001
1000
,  // measure 28
0010
0100
0001
0010
0001
0001
1000
0010
1000
0010
0100
0010
1000
1000
0100
0000
,  // measure 29
1000
0010
0001
0010
1000
0100
0001
0100
1000
0001
0100
0010
1000
0100
1000
0001
,  // measure 30
0202
0000
0000
0000
0000
0000
0000
0303
,  // measure 31
0022
0000
0000
0000
0000
0000
0000
0033
,  // measure 32
2020
0000
0000
0000
0000
0000
0000
3030
,  // measure 33
2002
0000
0000
0000
,  // measure 34
3003
0000
0000
0000
;
