#TITLE:Mulch;
#SUBTITLE:;
#ARTIST:Sampling Masters MEGA;
#TITLETRANSLIT:;
#SUBTITLETRANSLIT:;
#ARTISTTRANSLIT:;
#GENRE:Gabber;
#CREDIT:;
#BANNER:[VIP1 Oni Mode] - Mulch.png;
#BACKGROUND:[VIP1 Oni Mode] - Mulch-bg.png;
#LYRICSPATH:;
#CDTITLE:cdtitle.png;
#MUSIC:[VIP1 Oni Mode] - Mulch.ogg;
#OFFSET:0.768098;
#SAMPLESTART:1.632902;
#SAMPLELENGTH:9.600000;
#SELECTABLE:YES;
#DISPLAYBPM:200.000000;
#BPMS:0.000000=200.000000
,351.000000=66.667000
,351.500000=200.000000
;
#STOPS:351.000000=1.050000
;
#BGCHANGES:5.000=[VIP1 Oni Mode] - Mulch.avi=1.000=0=0=0=StretchNoLoop==CrossFade_Fastest==,
351.500=[VIP1 Oni Mode] - Mulch-bg.png=1.000=1=0=0=StretchNoLoop==CrossFade==,
99999=-nosongbg-=1.000=0=0=0 // don't automatically add -songbackground-
;
#KEYSOUNDS:;
#ATTACKS:;

//---------------dance-single - ----------------
#NOTES:
     dance-single:
     09-14:
     Challenge:
     9:
     0.868540,0.848675,0.827807,1.600427,0.091979,661.000000,571.000000,90.000000,174.000000,78.000000,0.000000,0.868540,0.848675,0.827807,1.600427,0.091979,661.000000,571.000000,90.000000,174.000000,78.000000,0.000000:
// measure 0
0000
0000
0000
0000
,  // measure 1
0000
0000
0000
0000
,  // measure 2
0001
0100
0001
0010
0001
1000
0010
1000
,  // measure 3
0100
1000
0010
0001
0010
1000
0100
0010
,  // measure 4
0001
0100
0010
1000
0010
1000
0100
0010
,  // measure 5
0001
0000
0100
0000
0001
0000
0010
0000
0001
0000
1000
0010
1000
0000
0010
0000
,  // measure 6
1000
0100
1000
0010
1000
0001
0010
0001
,  // measure 7
0100
0001
0010
1000
0010
0001
0100
0010
,  // measure 8
2001
3100
1000
0010
1002
0103
0001
0010
,  // measure 9
2001
3100
1000
0010
0210
0000
0310
0100
,  // measure 10
0102
0000
0103
0001
0010
0000
MMMM
0000
,  // measure 11
2010
0000
3010
1000
0100
0000
MMMM
0000
,  // measure 12
0102
0000
0013
0100
2100
0000
3001
0100
,  // measure 13
0120
0000
0000
1030
0001
0000
0010
0000
0110
0000
0000
0000
MMMM
0000
0000
0000
,  // measure 14
2100
0000
3010
1000
0100
0000
MMMM
0000
,  // measure 15
0012
0000
0103
0001
0010
0000
MMMM
0000
,  // measure 16
2010
0000
3010
1000
0012
0000
0013
0001
,  // measure 17
1010
0000
0011
0000
1010
0200
0002
0303
,  // measure 18
20M0
0000
30M1
0010
1000
0010
0001
0100
,  // measure 19
00M2
0000
10M3
0010
0001
0010
1000
0100
,  // measure 20
1002
0013
0001
0100
2001
3010
1000
0100
,  // measure 21
1002
0013
0001
0100
2001
3010
1000
0010
,  // measure 22
2M00
0000
3M01
0100
1000
0100
0001
0010
,  // measure 23
0M02
0000
1M03
0100
0001
0100
1000
0010
,  // measure 24
1020
0130
0001
0010
0021
0130
1000
0010
,  // measure 25
1020
0000
0130
0000
0001
0000
1000
0000
0100
0000
0010
0100
0010
0000
0001
0000
,  // measure 26
1000
0000
0010
0000
0001
0000
0010
0000
2000
0000
0000
0000
3010
MM0M
0010
0000
,  // measure 27
0001
0100
1000
0100
0002
0000
0013
0000
,  // measure 28
M012
0000
0000
0003
201M
0000
0000
3000
M012
0000
0000
0003
101M
0000
1000
0000
,  // measure 29
0100
0010
0220
0330
0022
0033
2020
3030
,  // measure 30
0001
0000
0010
0000
1000
0000
0010
0000
0002
0000
0000
0000
0013
MM0M
0010
0000
,  // measure 31
1000
0100
0001
0100
2000
0000
3010
0000
,  // measure 32
201M
0000
0000
3000
M012
0000
0000
0003
201M
0000
0000
3000
M011
0000
0001
0000
,  // measure 33
0100
0010
0220
0330
2020
3030
0022
0033
,  // measure 34
2000
0000
3100
0000
0002
0000
0103
0000
0020
0000
0130
0000
2200
0000
0000
3300
,  // measure 35
0002
0000
0103
0000
2000
0000
3100
0000
0020
0000
0130
0000
0202
0000
0000
0303
,  // measure 36
2000
3001
0020
0031
2000
3001
0200
0301
,  // measure 37
0020
1030
0020
0031
0200
0310
MMMM
0000
,  // measure 38
0002
0000
0013
0000
0200
0000
0310
0000
2000
0000
3010
0000
0220
0000
0000
0330
,  // measure 39
2000
0000
3010
0000
0200
0000
0310
0000
0002
0000
0013
0000
0220
0000
0000
0330
,  // measure 40
0002
1003
0020
1030
0200
1300
0020
1030
,  // measure 41
0002
0000
0000
0000
0013
0000
0000
0000
2000
0000
0000
0000
3010
0000
0000
0000
0002
0000
0000
0000
0103
0000
0000
0000
0020
0030
0000
0000
0000
0000
0000
0000
,  // measure 42
1000
0020
0000
0031
0010
1000
0001
0010
,  // measure 43
1000
0000
0000
0000
1000
0000
0000
0000
1000
0000
0000
0000
0010
0000
0000
0001
0000
0000
1000
0000
0000
0010
0000
0000
,  // measure 44
0100
0100
0001
0001
1000
1000
0100
0100
,  // measure 45
0001
0100
1000
0010
0100
1000
0100
0001
,  // measure 46
2000
3200
0320
0032
0103
0100
0010
0010
,  // measure 47
0100
0000
0000
0000
0100
0000
0000
0000
0010
0000
0000
0000
0010
0000
0000
0000
2000
0000
0000
0000
3200
0000
0000
0000
0320
0000
0000
0000
0032
0000
0000
0003
,  // measure 48
2002
0000
3003
0000
1000
0001
0100
0001
,  // measure 49
1000
0001
1000
0001
0020
0100
0130
0010
,  // measure 50
0021
0000
000M
2030
3020
0000
M032
M000
,  // measure 51
0103
0000
0100
0010
1000
0000
1010
0000
,  // measure 52
0001
0100
1000
0100
0001
0010
0100
0001
,  // measure 53
0100
1000
0010
0001
0010
1000
0100
0010
,  // measure 54
1000
0000
0000
0000
0010
0000
0000
0000
0100
0000
0000
0000
1000
0000
0000
0000
0002
0000
0000
0000
0000
0000
0000
0003
0101
0000
0000
0000
0100
0000
0000
0000
,  // measure 55
0010
1000
0100
0010
0001
0001
0100
0010
,  // measure 56
1000
0100
0001
0100
0010
0001
0100
1000
,  // measure 57
0100
0010
0001
0010
1000
0001
0010
0100
,  // measure 58
0001
0000
0000
0000
0100
0000
0000
0000
1000
0000
0000
0000
0010
0000
0000
0000
2000
0000
0000
0000
0000
0000
0000
3000
1010
0000
0000
0000
0010
0000
0000
0000
,  // measure 59
0100
0000
0001
0000
0010
0000
0100
0000
1000
0000
0001
0010
0001
0000
1000
0010
,  // measure 60
1000
0000
0010
0000
0001
0000
0010
0000
0110
0000
0000
0000
2010
0000
0000
3000
,  // measure 61
0001
0000
0010
0000
1000
0000
0010
0000
0110
0000
0000
0000
0012
0000
0000
0003
,  // measure 62
1010
1000
0002
1003
1100
1000
0002
1003
,  // measure 63
1010
0000
1010
0000
1010
1000
0001
0000
,  // measure 64
0021
0000
0000
000M
0130
0000
0011
0000
0000
0000
0001
0000
1000
0000
0000
0000
,  // measure 65
0202
0000
0000
0303
0M0M
0000
0101
0000
0000
0000
0100
0000
0020
0000
0030
0000
,  // measure 66
1020
0000
0000
M000
0130
0000
1010
0000
0000
0000
1000
0000
0001
0000
0000
0000
,  // measure 67
2200
3300
0000
0000
1000
0000
0100
0000
1000
0000
0000
0000
0001
1000
0001
1000
,  // measure 68
0002
M000
0103
1010
0000
0001
0010
0000
,  // measure 69
2200
0000
0000
3300
MM00
0000
0101
0000
0000
0000
0010
0000
2000
0000
3000
0000
,  // measure 70
2001
0000
0000
000M
3100
0000
0011
0000
0000
0000
1000
0000
0010
0000
0000
0000
,  // measure 71
1M10
0000
0000
0000
0000
0000
0000
0000
1M01
0000
0000
0000
0000
0000
0000
0000
0M11
0000
0000
0000
0000
0000
0000
0000
0110
0000
0000
0000
0000
0000
0000
0000
0000
0000
0000
0000
0001
0000
0000
1000
0000
0000
0001
0000
0000
1000
0000
0000
,  // measure 72
0001
0000
0100
0000
1000
0000
0100
0000
0002
0000
0000
0000
0103
M0MM
0100
0000
,  // measure 73
1000
0010
0001
0010
2000
0000
3100
0000
,  // measure 74
210M
0000
0000
3000
M102
0000
0000
0003
210M
0000
0000
3000
M101
0000
0001
0000
,  // measure 75
0010
0100
0220
0330
2200
3300
0202
0303
,  // measure 76
1000
0000
0100
0000
0001
0000
0100
0000
2000
0000
0000
0000
3100
M0MM
0100
0000
,  // measure 77
0001
0010
1000
0010
0002
0000
0103
0000
,  // measure 78
M102
0000
0000
0003
210M
0000
0000
3000
M102
0000
0000
0003
110M
0000
1000
0000
,  // measure 79
0010
0100
0220
0330
0202
0303
2200
3300
,  // measure 80
0002
0000
0013
0000
2000
0000
3010
0000
0002
0000
0103
0000
0220
0000
0000
0330
,  // measure 81
2000
0000
3010
0000
0002
0000
0013
0000
2000
0000
3100
0000
0220
0000
0000
0330
,  // measure 82
0002
0103
0020
0031
0020
1030
0200
0310
,  // measure 83
2000
3010
0200
1300
0020
0130
MMMM
0000
,  // measure 84
2000
0000
3100
0000
0002
0000
0103
0000
0020
0000
0031
0000
2200
0000
0000
3300
,  // measure 85
0002
0000
0103
0000
2000
0000
3100
0000
0020
0000
1030
0000
0202
0000
0000
0303
,  // measure 86
2000
3010
0002
0013
0200
0301
0020
1030
,  // measure 87
0020
0130
2000
3001
0200
0310
2000
3001
;

//---------------dance-single - ----------------
#NOTES:
     dance-single:
     08-12:
     Hard:
     8:
     0.720061,0.646609,0.579465,0.616256,0.055187,548.000000,485.000000,63.000000,67.000000,16.000000,0.000000,0.720061,0.646609,0.579465,0.616256,0.055187,548.000000,485.000000,63.000000,67.000000,16.000000,0.000000:
0000
0000
0000
0000
,
0000
0000
0000
0000
,
1000
0010
1000
0000
1000
0100
1000
0000
,
0001
0010
0001
0000
0001
0100
0001
0000
,
0010
0100
1000
0000
0001
0100
0010
0000
,
1000
0100
0010
0100
0010
0001
1000
0000
,
0001
0100
0001
0000
0001
0010
0001
0000
,
1000
0100
1000
0000
1000
0010
1000
0000
,
2002
3003
0220
0330
,
2002
0000
3003
0000
1001
0000
0001
1000
,
0002
0000
0103
0001
0010
0000
0011
0000
,
2000
0000
3010
1000
0100
0000
1100
0000
,
0002
0000
0103
0001
0020
0000
0130
1000
,
0020
0000
1030
0001
0010
0000
0110
0000
,
2000
0000
3100
1000
0010
0000
1010
0000
,
0002
0000
0013
0001
0100
0000
0101
0000
,
2000
0000
3010
1000
0200
0000
0310
0001
,
0100
0110
0220
0330
,
1000
0000
1000
0000
0010
1000
0100
0010
,
0001
0000
0001
0000
0010
0001
0100
0010
,
1000
0100
1000
0000
0001
0100
0001
0000
,
1000
0100
1000
0000
0011
0000
1010
0000
,
1000
0000
1000
0000
0100
1000
0010
0100
,
0001
0000
0001
0000
0100
0001
0010
0100
,
2000
3000
0220
0330
,
2002
3003
0100
1001
,
0001
0010
0100
0010
0001
0000
1000
0010
,
1000
0010
M00M
0010
0001
0000
0101
0000
,
0020
0000
0000
0030
0020
0000
0000
0030
0020
0000
0000
0030
0100
0000
0001
0000
,
1000
0100
0010
0000
0011
0000
0101
0000
,
1000
0010
0100
0010
1000
0000
0001
0010
,
0001
0010
M00M
0010
1000
0000
1100
0000
,
0020
0000
0000
0030
0020
0000
0000
0030
0020
0000
0000
0030
0001
0000
0100
0000
,
0010
1000
0001
0000
0101
0000
1100
0000
,
0001
0000
0000
0010
0000
0000
0001
0000
0000
0010
0000
0000
0001
0000
0000
0010
0000
0000
0100
0000
0000
0000
0M00
0000
,
0001
0000
0000
0010
0000
0000
0001
0000
0000
0010
0000
0000
0001
0000
0000
0010
0000
0000
0100
0000
0000
0000
0M00
0000
,
0001
0010
0001
0010
0001
0100
0001
0100
,
0010
1000
0010
1000
0100
1000
0002
0000
,
1003
0000
0000
0010
0000
0000
1000
0000
0000
0010
0000
0000
1000
0000
0000
0010
0000
0000
0100
0000
0000
0000
0M00
0000
,
1000
0000
0000
0010
0000
0000
1000
0000
0000
0010
0000
0000
1000
0000
0000
0010
0000
0000
0100
0000
0000
0000
0M00
0000
,
1000
0010
1000
0010
1000
0100
1000
0100
,
0010
0000
0000
0000
0001
0000
0000
0000
0010
0000
0000
0000
0001
0000
0000
0000
0100
0000
0000
0000
0001
0000
0000
0000
2000
3000
0000
0000
0000
0000
0000
0000
,
0001
0020
0000
1030
0010
0000
0001
0000
,
0100
0000
0010
0000
0100
0000
0101
0000
0000
1000
0000
0000
,
0001
0010
0001
0010
0100
1000
0100
1000
,
0001
1000
0100
1000
0010
1000
0001
0000
,
0020
0000
0130
0000
0010
0001
0010
0001
,
1000
0010
1000
0010
0200
0000
0310
0000
,
2002
3003
0220
0330
,
1001
0110
2002
3003
,
2001
0000
0000
3200
0320
0000
0032
0000
,
0103
0100
0100
1001
,
0011
0000
1010
0000
1000
0100
0010
0001
,
0010
0000
1100
0000
0001
0100
0010
1000
,
0010
0000
0101
0000
1000
0100
0001
0100
,
1000
0000
0110
0000
0001
0001
1000
0000
,
1010
0000
0011
0000
1000
0010
1000
0100
,
1000
0000
0110
0000
0001
0010
0001
0100
,
0001
0000
0110
0000
0001
0100
1000
0100
,
0001
0000
1001
0000
0001
0010
1000
0010
,
0001
0100
0001
0100
0010
0000
1020
0000
,
1030
0100
1000
0100
0010
0000
0021
0000
,
0031
1000
0020
1030
0001
1000
0020
1030
,
0001
0000
0001
0000
0001
1000
0100
0000
,
0022
0000
0033
1001
0000
0001
0100
0000
,
0220
0000
0330
0101
0000
1000
1000
0000
,
2200
0000
3300
0110
0000
0010
0001
0000
,
1001
0000
1000
0001
1000
0000
0101
0000
,
2020
0000
3030
1001
0000
1000
0100
0000
,
0220
0000
0330
1100
0000
0001
0001
0000
,
0202
0000
0303
0110
0000
0010
1000
0000
,
0100
0000
0000
0000
0010
0000
0000
0000
0100
0000
0000
0000
1001
0000
0000
0000
0000
0000
0001
0000
0000
0001
0000
0000
,
1000
0100
0010
0100
1000
0000
0001
0100
,
0001
0100
M00M
0100
1000
0000
1010
0000
,
0200
0000
0000
0300
0200
0000
0000
0300
0200
0000
0000
0300
0010
0000
1000
0000
,
0001
0010
0100
0000
1100
0000
1010
0000
,
0001
0100
0010
0100
0001
0000
1000
0100
,
1000
0100
M00M
0100
0001
0000
0011
0000
,
0200
0000
0000
0300
0200
0000
0000
0300
0200
0000
0000
0300
1000
0000
0010
0000
,
0100
0001
1000
0000
1010
0000
0011
0000
,
1000
0000
0000
0100
0000
0000
1000
0000
0000
0100
0000
0000
1000
0000
0000
0100
0000
0000
0010
0000
0000
0000
00M0
0000
,
1000
0000
0000
0100
0000
0000
1000
0000
0000
0100
0000
0000
1000
0000
0000
0100
0000
0000
0010
0000
0000
0000
00M0
0000
,
1000
0100
1000
0001
1000
0010
1000
0001
,
0010
0001
1000
0001
0100
0001
2000
0000
,
3001
0000
0000
0100
0000
0000
0001
0000
0000
0100
0000
0000
0001
0000
0000
0100
0000
0000
0010
0000
0000
0000
00M0
0000
,
0001
0000
0000
0100
0000
0000
0001
0000
0000
0100
0000
0000
0001
0000
0000
0100
0000
0000
0010
0000
0000
0000
00M0
0000
,
0001
0100
0001
1000
0001
0010
0100
1000
,
0001
1000
0010
0100
0001
1000
0200
0310
;

//---------------dance-single - ----------------
#NOTES:
     dance-single:
     06-09:
     Medium:
     6:
     0.607058,0.687022,1.066951,0.533476,0.000000,462.000000,346.000000,116.000000,58.000000,0.000000,0.000000,0.607058,0.687022,1.066951,0.533476,0.000000,462.000000,346.000000,116.000000,58.000000,0.000000,0.000000:
0000
0000
0000
0000
,
0000
0000
0000
0000
,
1000
0010
0100
0001
,
0010
0001
0100
0010
,
1000
0100
1000
0100
,
0010
0000
0001
0000
1000
0010
1000
0000
,
0001
0010
0100
1000
,
0010
1000
0100
0010
,
2002
3003
0220
0330
,
2002
3003
1001
0000
,
0002
0000
0013
0001
0010
0000
0000
0000
,
2000
0000
3010
1000
0010
0000
0000
0000
,
0002
0000
0013
0001
0020
0000
0031
1000
,
0002
0000
1003
0010
1000
0000
0000
0000
,
2000
0000
3100
1000
0100
0000
0000
0000
,
0002
0000
0103
0001
0100
0000
0000
0000
,
2000
0000
3001
1000
0002
0000
1003
0001
,
1000
0110
2002
3003
,
1000
1000
1100
0110
,
0001
0001
0101
0110
,
1010
0001
0011
1000
,
1100
0011
1100
0001
,
1000
1000
1010
0110
,
0001
0001
0011
0110
,
2200
3300
0202
0303
,
2002
3003
1000
1000
,
0001
0010
1000
0010
,
0001
0100
0000
0001
0100
0000
0010
0000
,
2000
3000
2000
3000
2000
3000
1010
0000
,
0001
0010
0001
0000
0010
0000
0100
0000
,
1000
0010
0001
0010
,
1000
0100
0000
1000
0100
0000
0010
0000
,
0002
0003
0002
0003
0002
0003
0011
0000
,
1000
0010
1000
0000
0010
0000
0100
0000
,
0101
0101
0101
1000
,
1100
1100
1100
0001
,
0101
0101
1010
1010
,
0101
1010
0101
0001
,
0011
0011
0011
1000
,
1010
1010
1010
0001
,
0011
0011
1100
1100
,
0011
1100
1001
0000
,
0012
0000
1003
0000
,
0001
0100
0110
0000
,
1000
0010
1000
0000
0001
0010
0001
0000
,
1000
0100
1000
0000
0001
0100
0001
0000
,
2001
0000
0000
0000
3100
0010
0100
0000
,
0010
0100
0010
0000
2002
0000
3003
0000
,
0220
0330
1001
0100
,
1001
1001
0020
0030
,
2001
0000
0000
3200
0320
0000
0032
0000
,
0103
0100
0100
1001
,
1000
0000
1100
0000
0001
0100
0000
0001
,
0100
0000
0101
0000
0001
0010
0000
0001
,
0010
0000
0011
0000
1000
0010
0100
0000
,
0010
1010
0001
0001
,
0010
0000
0011
0000
1000
0010
0000
1000
,
0010
0000
1010
0000
1000
0100
0000
1000
,
0100
0000
1100
0000
0001
0100
0010
0000
,
0100
0001
1001
1001
,
0001
0010
0001
0000
0022
0000
0033
0000
,
1000
0010
1000
0000
2020
0000
3030
0000
,
0001
0010
0001
0000
1000
0010
1000
0000
,
1001
1001
1001
0000
,
0012
0000
0000
0103
0000
0000
0011
0000
,
2010
0000
0000
3001
0000
0000
0100
0000
,
0102
0000
0000
0013
0000
0000
1100
0000
,
0101
0001
0001
0110
,
2010
0000
0000
3100
0000
0000
1010
0000
,
0012
0000
0000
1003
0000
0000
0100
0000
,
2100
0000
0000
3010
0000
0000
0101
0000
,
2002
0000
3003
0001
,
1000
0100
0001
0100
,
1000
0010
0000
1000
0010
0000
0100
0000
,
0002
0003
0002
0003
0002
0003
0101
0000
,
1000
0100
1000
0000
0100
0000
0010
0000
,
0001
0100
1000
0100
,
0001
0010
0000
0001
0010
0000
0100
0000
,
2000
3000
2000
3000
2000
3000
1100
0000
,
0001
0100
0001
0000
0100
0000
0010
0000
,
1010
0110
1010
0001
,
0011
0110
0011
1000
,
1010
0110
1010
1001
,
0011
1100
0011
1000
,
0101
0110
1010
0001
,
1100
0110
0011
1000
,
0101
1010
1100
0011
,
1001
0000
0110
0000
1001
0000
0000
1001
;

//---------------dance-single - ----------------
#NOTES:
     dance-single:
     05-07:
     Easy:
     5:
     0.409962,0.565783,0.340321,0.275936,0.000000,312.000000,275.000000,37.000000,30.000000,0.000000,0.000000,0.409962,0.565783,0.340321,0.275936,0.000000,312.000000,275.000000,37.000000,30.000000,0.000000,0.000000:
0000
0000
0000
0000
,
0000
0000
0000
0000
,
1000
0001
0010
0000
,
0001
1000
0010
0000
,
0100
0000
0100
0000
,
0010
0010
0010
0000
,
1000
0100
0010
0000
,
0001
0100
0010
0000
,
2000
3000
0002
0003
,
2000
3000
1001
0000
,
0001
0010
0110
0000
,
0100
0010
0011
0000
,
0001
0100
0010
1000
,
0001
0100
1001
0000
,
1000
0100
0110
0000
,
0010
0100
1100
0000
,
1000
0010
0100
0001
,
1001
1001
2002
3003
,
2000
3000
1100
1100
,
0002
0003
0101
0101
,
1000
0000
0001
0000
,
1000
1000
0001
1000
,
0002
0003
0011
0011
,
2000
3000
1010
1010
,
0002
0003
2000
3000
,
0002
0003
0010
0010
,
0001
0100
1000
0000
,
1000
0100
0001
0000
,
0010
0010
0010
0001
,
1000
0010
0100
0000
,
0001
0010
1000
0000
,
1000
0010
0001
0000
,
0100
0100
0100
0010
,
1000
0001
0010
0100
,
0010
0001
1000
0000
,
1000
0001
0010
0000
,
0010
0001
1000
0001
,
0010
0001
1000
0000
,
0100
1000
0001
0000
,
0001
1000
0100
0000
,
0100
1000
0001
0100
,
0001
1000
0010
0000
,
2010
0000
3001
0000
,
0001
1000
0100
0000
,
1000
0100
0001
0100
,
1000
1000
0100
0010
,
0012
0000
1003
0001
,
1000
0001
0200
0300
,
0220
0330
0010
0010
,
0010
0010
2002
3003
,
0002
0000
0023
0230
,
1300
0001
1000
0000
,
1000
0010
0001
0010
,
1000
0100
0001
0100
,
1000
0010
0001
0010
,
1000
0100
0010
0010
,
0001
0100
1000
0100
,
0001
0010
1000
0010
,
0001
0100
1000
0100
,
0001
0010
0100
0100
,
1000
1000
1001
0000
,
0001
0001
1001
0000
,
1001
1000
1001
0001
,
1001
1001
1001
0000
,
0102
0000
0013
0001
,
0201
0000
0310
0100
,
0102
0000
1003
0100
,
0110
0000
0000
1000
,
2100
0000
3010
1000
,
1200
0000
0310
0100
,
2100
0000
3001
0100
,
0220
0000
0330
0001
,
1000
0100
0001
0000
,
0001
0010
1000
0000
,
0010
0010
0010
1000
,
0001
0010
0100
0000
,
1000
0010
0001
0000
,
0001
0100
1000
0000
,
0100
0100
0100
0010
,
0001
1000
0010
0100
,
0010
1000
0100
0000
,
0100
0001
0010
0000
,
0010
1000
0100
0001
,
0100
1000
0010
0000
,
0100
0001
0010
0000
,
0010
1000
0100
0000
,
0100
0001
0010
1000
,
0010
0000
0001
0000
0100
0000
0000
1001
;

//---------------dance-single - ----------------
#NOTES:
     dance-single:
     03-04:
     Beginner:
     3:
     0.298273,0.444544,0.119572,0.119572,0.000000,227.000000,214.000000,13.000000,13.000000,0.000000,0.000000,0.298273,0.444544,0.119572,0.119572,0.000000,227.000000,214.000000,13.000000,13.000000,0.000000,0.000000:
0000
0000
0000
0000
,
0000
0000
0000
0000
,
0001
0000
0010
0000
,
0100
0000
0010
0000
,
0001
0000
0001
0000
,
1000
0000
0001
0000
,
1000
0000
0010
0000
,
0100
0000
0010
0000
,
1000
0000
1000
0000
,
1000
0000
1001
0000
,
0001
0001
0001
0000
,
0010
0010
0010
0000
,
0100
0000
0010
0000
,
0001
0001
0001
0000
,
1000
1000
1000
0000
,
0010
0010
0010
0000
,
0100
0000
0010
0000
,
1001
1001
1001
0000
,
1000
0000
0001
1000
,
0001
0000
1000
0001
,
1000
0000
0001
0000
,
1000
1000
1000
0000
,
0100
0000
0010
0100
,
0010
0000
0100
0010
,
0100
0000
0100
0000
,
0100
0000
0000
0000
,
0010
0010
0010
0000
,
0001
0001
0001
0000
,
1000
0000
1000
0000
,
0010
0100
0010
0000
,
0010
0010
0010
0000
,
1000
1000
1000
0000
,
0001
0000
0001
0000
,
0010
0100
0010
0000
,
0001
0001
0001
0000
,
0001
0001
0001
0000
,
0001
0001
0001
0001
,
0001
0001
0001
0000
,
1000
1000
1000
0000
,
1000
1000
1000
0000
,
1000
1000
1000
1000
,
1000
1000
1000
0000
,
0010
0000
0010
0000
,
0100
0000
0100
0000
,
0001
0000
1000
0000
,
0001
0000
1000
0000
,
0200
0300
0010
0000
,
0010
0000
0200
0300
,
0200
0300
0010
0000
,
0010
0000
2002
0000
,
3003
0000
0000
0000
,
0000
0000
0000
0000
,
1000
1000
1000
0000
,
0010
0010
0010
0000
,
0001
0001
0001
0000
,
0100
0100
0100
0000
,
1000
1000
1000
0000
,
0010
0010
0010
0000
,
0001
0001
0001
0000
,
0100
0100
0100
0000
,
1000
0001
1000
0000
,
0001
1000
0001
0000
,
1001
0000
1001
0000
,
1001
1001
1001
0000
,
2000
0000
3000
0000
,
0002
0000
0003
0000
,
2000
0000
3000
0000
,
0110
0000
0000
0000
,
0002
0000
0003
0000
,
2000
0000
3000
0000
,
0002
0000
0003
0000
,
2002
0000
3003
0000
,
1000
1000
1000
0000
,
0100
0100
0100
0000
,
0010
0000
0010
0000
,
0001
1000
0001
0000
,
0001
0001
0001
0000
,
0100
0100
0100
0000
,
0010
0000
0010
0000
,
1000
0001
1000
0000
,
0100
0100
0100
0000
,
0100
0100
0100
0000
,
0100
0100
0100
0100
,
0100
0100
0100
0000
,
0010
0010
0010
0000
,
0010
0010
0010
0000
,
0010
0010
0010
0010
,
0010
0000
0010
0000
0010
0000
0000
1001
;

//---------------dance-single - i hate lifts lol----------------
#NOTES:
     dance-single:
     09-14 (another):
     Edit:
     9:
     0.888250,0.929501,0.947379,1.683208,0.078182,676.000000,573.000000,103.000000,183.000000,34.000000,0.000000,0.888250,0.929501,0.947379,1.683208,0.078182,676.000000,573.000000,103.000000,183.000000,34.000000,0.000000:
// measure 0
0000
0000
0000
0000
,  // measure 1
0000
0000
0000
0000
,  // measure 2
0001
0100
0001
0010
0001
1000
0010
1000
,  // measure 3
0100
1000
0010
0001
0010
1000
0100
0010
,  // measure 4
0001
0100
0010
1000
0010
1000
0100
0010
,  // measure 5
0001
0000
0100
0000
0001
0000
0010
0000
0001
0000
1000
0010
1000
0000
0010
0000
,  // measure 6
1000
0100
1000
0010
1000
0001
0010
0001
,  // measure 7
0100
0001
0010
1000
0010
0001
0100
0010
,  // measure 8
2001
3100
1000
0010
1002
0103
0001
0010
,  // measure 9
2001
0000
0000
0000
3100
0000
0000
0000
1000
0000
0000
0000
0010
0000
0000
0000
0210
0000
0000
0000
0000
0000
0000
0300
0L00
0000
0000
0000
0000
0000
0000
0000
,  // measure 10
0102
0000
0000
0000
0000
0000
0000
0000
0103
0000
0000
0000
0002
0000
0000
0000
0020
0000
0000
0000
0000
0000
0000
0033
00LL
0000
0000
0000
0000
0000
0000
0000
,  // measure 11
2010
0000
0000
0000
0000
0000
0000
0000
3010
0000
0000
0000
2000
0000
0000
0000
0200
0000
0000
0000
0000
0000
0000
3300
LL00
0000
0000
0000
0000
0000
0000
0000
,  // measure 12
0102
0000
0013
0100
2100
0000
3001
0100
,  // measure 13
0120
0000
0000
0000
0000
0000
1030
0000
0001
0000
0000
0000
0010
0000
0000
0000
0220
0000
0000
0000
0000
0000
0000
0330
0LL0
0000
0000
0000
0000
0000
0000
0000
,  // measure 14
2100
0000
0000
0000
0000
0000
0000
0000
3010
0000
0000
0000
2000
0000
0000
0000
0200
0000
0000
0000
0000
0000
0000
3300
LL00
0000
0000
0000
0000
0000
0000
0000
,  // measure 15
0012
0000
0000
0000
0000
0000
0000
0000
0103
0000
0000
0000
0002
0000
0000
0000
0020
0000
0000
0000
0000
0000
0000
0033
00LL
0000
0000
0000
0000
0000
0000
0000
,  // measure 16
2010
0000
3010
1000
0012
0000
0013
0001
,  // measure 17
1010
0000
0011
0000
1010
0200
0002
0303
,  // measure 18
2020
0000
0000
0000
0000
0000
0000
0030
00L0
0000
0000
0000
0000
0000
0000
0000
3010
0000
0000
0000
1000
0000
0000
0000
0100
0000
0000
0000
0010
0000
0000
0000
,  // measure 19
0022
0000
0000
0000
0000
0000
0000
0030
00L0
0000
0000
0000
0000
0000
0000
0000
0013
0000
0000
0000
0001
0000
0000
0000
0100
0000
0000
0000
0010
0000
0000
0000
,  // measure 20
1002
0013
0001
0100
2001
3010
1000
0100
,  // measure 21
1002
0013
0001
0100
2001
3010
1000
0100
,  // measure 22
2200
0000
0000
0000
0000
0000
0000
0300
0L00
0000
0000
0000
0000
0000
0000
0000
3100
0000
0000
0000
1000
0000
0000
0000
0010
0000
0000
0000
0100
0000
0000
0000
,  // measure 23
0202
0000
0000
0000
0000
0000
0000
0300
0L00
0000
0000
0000
0000
0000
0000
0000
0103
0000
0000
0000
0001
0000
0000
0000
0010
0000
0000
0000
0100
0000
0000
0000
,  // measure 24
1200
0310
0001
0100
0201
0310
1000
0100
,  // measure 25
1200
0000
0310
0000
0001
0000
0100
0000
0001
0000
1000
0100
1000
0000
0001
0000
,  // measure 26
1000
0000
0010
0000
0001
0000
0010
0000
2000
0000
0000
0000
3010
MM0M
0010
0000
,  // measure 27
0001
0100
1000
0100
0002
0000
0013
0000
,  // measure 28
M012
0000
0000
0003
201M
0000
0000
3000
M012
0000
0000
0003
101M
0000
1000
0000
,  // measure 29
0100
0000
0000
0000
0010
0000
0000
0000
0220
0000
0000
0000
0000
0000
0000
0300
0L00
0000
0000
0000
0000
0000
0000
0000
0031
0000
0000
0000
0000
0000
0000
0000
,  // measure 30
0001
0000
0010
0000
1000
0000
0010
0000
0002
0000
0000
0000
0013
MM0M
0010
0000
,  // measure 31
1000
0100
0001
0100
2000
0000
3010
0000
,  // measure 32
201M
0000
0000
3000
M012
0000
0000
0003
201M
0000
0000
3000
M011
0000
0001
0000
,  // measure 33
0100
0000
0000
0000
0010
0000
0000
0000
0220
0000
0000
0000
0000
0000
0000
0300
0L00
0000
0000
0000
0000
0000
0000
0000
1030
0000
0000
0000
0000
0000
0000
0000
,  // measure 34
2000
0000
3100
0000
0002
0000
0103
0000
0020
0000
0130
0000
2200
0000
0000
3300
,  // measure 35
0002
0000
0103
0000
2000
0000
3100
0000
0020
0000
0130
0000
0202
0000
0000
0303
,  // measure 36
2000
3001
0020
0031
2000
3001
0200
0301
,  // measure 37
0020
0000
0000
0000
1030
0000
0000
0000
0020
0000
0000
0000
0031
0000
0000
0000
0200
0000
0000
0000
0020
0000
0000
0330
0LL0
0000
0000
0000
0000
0000
0000
0000
,  // measure 38
0002
0000
0013
0000
0200
0000
0310
0000
2000
0000
3010
0000
0220
0000
0000
0330
,  // measure 39
2000
0000
3010
0000
0200
0000
0310
0000
0002
0000
0013
0000
0220
0000
0000
0330
,  // measure 40
0002
1003
0020
1030
0200
1300
0020
1030
,  // measure 41
0002
0000
0000
0000
0013
0000
0000
0000
2000
0000
0000
0000
3010
0000
0000
0000
0002
0000
0000
0000
0103
0000
0000
0000
0020
0030
0000
0000
0000
0000
0000
0000
,  // measure 42
1000
0020
0000
0031
0010
1000
0001
0010
,  // measure 43
1000
0000
0000
0000
1000
0000
0000
0000
1000
0000
0000
0000
0010
0000
0000
0001
0000
0000
1000
0000
0000
0010
0000
0000
,  // measure 44
0100
0100
0001
0001
1000
1000
0100
0100
,  // measure 45
0001
0100
1000
0010
0100
1000
0100
0001
,  // measure 46
2000
3200
0320
0032
0103
0100
0010
0010
,  // measure 47
0100
0000
0000
0000
0100
0000
0000
0000
0010
0000
0000
0000
0010
0000
0000
0000
2000
0000
0000
0000
3200
0000
0000
0000
0320
0000
0000
0000
0032
0000
0000
0003
,  // measure 48
2002
0000
3003
0000
1000
0001
0100
0001
,  // measure 49
1000
0001
1000
0001
0020
0100
0130
0010
,  // measure 50
0022
0000
0000
0000
0000
0000
0000
0000
0M00
0000
0000
0030
00L0
0000
0000
0000
2000
0000
0000
0000
0000
0000
0000
3000
L0M0
0000
0000
0000
00M0
0000
0000
0000
,  // measure 51
0103
0000
0100
0010
1000
0000
1010
0000
,  // measure 52
0001
0100
1000
0100
0001
0010
0100
0001
,  // measure 53
0100
1000
0010
0001
0010
1000
0100
0010
,  // measure 54
1000
0000
0000
0000
0010
0000
0000
0000
0100
0000
0000
0000
2000
0000
0000
0000
0002
0000
0000
0000
0000
0000
0000
3003
L00L
0000
0000
0000
1000
0000
0000
0000
,  // measure 55
0010
1000
0100
0010
0001
0001
0100
0010
,  // measure 56
1000
0100
0001
0100
0010
0001
0100
1000
,  // measure 57
0100
0010
0001
0010
1000
0001
0010
0100
,  // measure 58
0001
0000
0000
0000
0100
0000
0000
0000
1000
0000
0000
0000
0020
0000
0000
0000
2000
0000
0000
0000
0000
0000
0000
3030
L0L0
0000
0000
0000
0010
0000
0000
0000
,  // measure 59
0100
0000
0001
0000
0010
0000
0100
0000
1000
0000
0001
0010
0001
0000
1000
0010
,  // measure 60
1000
0000
0010
0000
0001
0000
0010
0000
0110
0000
0000
0000
2010
0000
0000
3000
,  // measure 61
0001
0000
0010
0000
1000
0000
0010
0000
0110
0000
0000
0000
0012
0000
0000
0003
,  // measure 62
1010
1000
0002
1003
1100
1000
0002
1003
,  // measure 63
1010
0000
1010
0000
1010
1000
0001
0000
,  // measure 64
0022
0000
0000
0000
0000
0000
0000
0033
00LL
0000
0000
0000
0220
0000
0000
0000
0000
0000
0000
0330
0LL0
0000
0000
0000
0011
0000
0000
0000
0000
0000
0000
0000
,  // measure 65
0201
0000
0000
1000
0000
0001
0301
0000
,  // measure 66
2020
0000
0000
0000
0000
0000
0000
3030
L0L0
0000
0000
0000
0220
0000
0000
0000
0000
0000
0000
0330
0LL0
0000
0000
0000
1010
0000
0000
0000
0000
0000
0000
0000
,  // measure 67
2002
3003
0000
0000
1000
0000
0100
0000
1000
0000
0000
0000
0001
1000
0001
2000
,  // measure 68
0002
0000
0000
0000
0000
0000
0000
3003
L00L
0000
0000
0000
0022
0000
0000
0000
0000
0000
0000
0033
00LL
0000
0000
0000
1010
0000
0000
0000
0000
0000
0000
0000
,  // measure 69
1200
0000
0000
0001
0000
1000
1300
0000
,  // measure 70
2002
0000
0000
0000
0000
0000
0000
3003
L00L
0000
0000
0000
2020
0000
0000
0000
0000
0000
0000
3030
L0L0
0000
0000
0000
0011
0000
0000
0000
0000
0000
0000
0000
,  // measure 71
11M0
0000
0000
0000
0000
0000
0000
0000
01M1
0000
0000
0000
0000
0000
0000
0000
11M0
0000
0000
0000
0000
0000
0000
0000
1001
0000
0000
0000
0000
0000
0000
0000
0000
0000
0000
0000
0001
0000
0000
1000
0000
0000
0001
0000
0000
1000
0000
0000
,  // measure 72
0001
0000
0100
0000
1000
0000
0100
0000
0002
0000
0000
0000
0103
M0MM
0100
0000
,  // measure 73
1000
0010
0001
0010
2000
0000
3100
0000
,  // measure 74
210M
0000
0000
3000
M102
0000
0000
0003
210M
0000
0000
3000
M101
0000
0001
0000
,  // measure 75
0010
0000
0000
0000
0100
0000
0000
0000
0220
0000
0000
0000
0000
0000
0000
0030
00L0
0000
0000
0000
0000
0000
0000
0000
1300
0000
0000
0000
0000
0000
0000
0000
,  // measure 76
1000
0000
0100
0000
0001
0000
0100
0000
2000
0000
0000
0000
3100
M0MM
0100
0000
,  // measure 77
0001
0010
1000
0010
0002
0000
0103
0000
,  // measure 78
M102
0000
0000
0003
210M
0000
0000
3000
M102
0000
0000
0003
110M
0000
1000
0000
,  // measure 79
0010
0000
0000
0000
0100
0000
0000
0000
0220
0000
0000
0000
0000
0000
0000
0030
00L0
0000
0000
0000
0000
0000
0000
0000
0301
0000
0000
0000
0000
0000
0000
0000
,  // measure 80
0002
0000
0013
0000
2000
0000
3010
0000
0002
0000
0103
0000
0220
0000
0000
0330
,  // measure 81
2000
0000
3010
0000
0002
0000
0013
0000
2000
0000
3100
0000
0220
0000
0000
0330
,  // measure 82
0002
0103
0020
0031
0020
1030
0200
0310
,  // measure 83
2000
0000
0000
0000
3010
0000
0000
0000
0200
0000
0000
0000
1300
0000
0000
0000
0020
0000
0000
0000
0200
0000
0000
0330
0LL0
0000
0000
0000
0000
0000
0000
0000
,  // measure 84
2000
0000
3100
0000
0002
0000
0103
0000
0020
0000
0031
0000
2200
0000
0000
3300
,  // measure 85
0002
0000
0103
0000
2000
0000
3100
0000
0020
0000
1030
0000
0202
0000
0000
0303
,  // measure 86
2000
3010
0002
0013
0200
0301
0020
1030
,  // measure 87
0020
0130
2000
3001
0200
0310
2000
3001
;
