#TITLE:Kamikaze;
#SUBTITLE:;
#ARTIST:MØ;
#TITLETRANSLIT:;
#SUBTITLETRANSLIT:;
#ARTISTTRANSLIT:;
#GENRE:;
#CREDIT:;
#BANNER:banner.png;
#BACKGROUND:kamikaze-bg.jpg;
#LYRICSPATH:;
#CDTITLE:;
#MUSIC:Kamikaze.ogg;
#OFFSET:0.004384;
#SAMPLESTART:30.380108;
#SAMPLELENGTH:12.000000;
#SELECTABLE:YES;
#BPMS:0.000000=79.000000
;
#STOPS:
;
#BGCHANGES:;
#KEYSOUNDS:;
#ATTACKS:;

//---------------dance-single - ----------------
#NOTES:
     dance-single:
     :
     Beginner:
     1:
     0.099271,0.111879,0.027796,0.000000,0.000000,100.000000,96.000000,4.000000,0.000000,0.000000,0.000000,0.099271,0.111879,0.027796,0.000000,0.000000,100.000000,96.000000,4.000000,0.000000,0.000000,0.000000:
// measure 0
0000
0000
0000
0000
,  // measure 1
0000
0000
0000
0000
,  // measure 2
1000
0000
1000
0000
,  // measure 3
0100
0000
0100
0000
,  // measure 4
0010
0000
0010
0000
,  // measure 5
0001
0000
0001
0000
,  // measure 6
0100
0000
0100
0000
,  // measure 7
0010
0000
0010
0000
,  // measure 8
1000
0000
1000
0000
,  // measure 9
0001
0000
0001
0000
,  // measure 10
1000
1000
0000
0000
,  // measure 11
0001
0001
0000
0000
,  // measure 12
0010
0010
0000
0000
,  // measure 13
0100
0000
0100
0000
,  // measure 14
1000
1000
0000
0000
,  // measure 15
0001
0001
0000
0000
,  // measure 16
0100
0100
0000
0000
,  // measure 17
0010
0000
1001
0000
,  // measure 18
1000
0000
1000
0000
,  // measure 19
0100
0000
0100
0000
,  // measure 20
0010
0000
0010
0000
,  // measure 21
0001
0000
0001
0000
,  // measure 22
0100
0100
0100
0000
,  // measure 23
0010
0010
0010
0000
,  // measure 24
1000
1000
1000
0000
,  // measure 25
0001
0001
0001
0000
,  // measure 26
0010
0010
0010
0000
,  // measure 27
0100
0100
0100
0000
,  // measure 28
1000
1000
1000
0000
,  // measure 29
0001
0000
1001
0000
,  // measure 30
1000
1000
0000
0000
,  // measure 31
0100
0100
0000
0000
,  // measure 32
0010
0010
0000
0000
,  // measure 33
0001
0000
0001
0000
,  // measure 34
0100
0100
0000
0000
,  // measure 35
0010
0010
0000
0000
,  // measure 36
1000
1000
0000
0000
,  // measure 37
0001
0000
1001
0000
,  // measure 38
1000
0000
1000
0000
,  // measure 39
0100
0000
0100
0000
,  // measure 40
0010
0000
0010
0000
,  // measure 41
0001
0000
0001
0000
,  // measure 42
0100
0000
0100
0000
,  // measure 43
0010
0000
0010
0000
,  // measure 44
1000
0000
1000
0000
,  // measure 45
0001
0000
0001
0000
,  // measure 46
1001
0000
0000
0000
;

//---------------dance-single - ----------------
#NOTES:
     dance-single:
     :
     Easy:
     2:
     0.149899,0.177720,0.048643,0.013898,0.000000,151.000000,144.000000,7.000000,2.000000,0.000000,0.000000,0.149899,0.177720,0.048643,0.013898,0.000000,151.000000,144.000000,7.000000,2.000000,0.000000,0.000000:
0000
0000
0000
0000
,
0000
0000
0000
0000
,
1000
1000
0000
0001
,
0100
0100
0000
0001
,
1000
0010
0000
1000
,
0001
0001
0000
0000
,
0010
0010
0000
0100
,
1000
0010
0000
1001
,
1000
0001
0000
0100
,
0010
0010
0000
0000
,
1000
1000
0001
0000
,
0001
0001
1000
0000
,
0010
0010
0100
0000
,
0100
0100
0010
0000
,
1000
1000
0100
0000
,
0010
0010
0001
0000
,
0100
0100
0010
0000
,
1000
0001
1001
0000
,
1000
1000
0100
0100
,
0010
0010
0001
1001
,
0001
0001
0100
0100
,
0010
0010
1000
1001
,
1000
0100
1000
0000
,
0001
0100
0001
0000
,
1000
0010
1000
0000
,
0001
0010
0001
0000
,
1000
0100
0010
0000
,
0001
0100
0010
0000
,
1000
0010
0100
0000
,
0001
0010
0100
0100
,
1000
0001
0100
0000
,
0001
1000
0100
0000
,
1000
0001
0010
0000
,
0001
1000
0010
0000
,
0100
0010
1000
0000
,
0100
0010
0001
0000
,
1000
0001
0100
0000
,
0001
1000
1001
0000
,
1000
1000
0010
0010
,
0100
0100
0001
1001
,
0001
0001
0010
0010
,
0100
0100
0100
0100
,
1000
1000
0010
0010
,
0100
0100
0001
0001
,
0010
0010
0100
0100
,
1000
1000
0001
1000
,
2002
0000
3003
0000
;

//---------------dance-single - ----------------
#NOTES:
     dance-single:
     :
     Medium:
     7:
     0.295828,0.290815,0.159827,0.097286,0.052117,298.000000,275.000000,23.000000,14.000000,0.000000,0.000000,0.295828,0.290815,0.159827,0.097286,0.052117,298.000000,275.000000,23.000000,14.000000,0.000000,0.000000:
0000
0000
0000
0000
,
0000
0000
0000
0000
,
1000
0000
0000
1000
0000
0000
1000
0000
0001
0000
0000
0001
0000
0000
0001
0000
,
0100
0000
0000
0100
0000
0000
0100
0000
0000
0010
0000
0000
1001
0000
0000
0000
,
1000
0000
0000
1000
0000
0000
1000
0000
0100
0000
0000
0100
0000
0000
0100
0000
,
0010
0000
0000
0010
0000
0000
0010
0000
0000
0001
0000
0000
1001
0000
0000
0000
,
0001
0000
0000
0100
0000
0000
0010
0000
1000
0000
0000
0100
0000
0000
0010
0000
,
0001
0000
0000
1000
0000
0000
0010
0000
0000
0100
0000
0000
1001
0000
0000
0000
,
0001
0000
0000
0010
0000
0000
0100
0000
1000
0000
0000
0001
0000
0000
0100
0000
,
0010
0000
0000
0100
0000
0000
0001
0000
1000
0000
0000
0000
0000
0000
0000
0000
,
1000
0100
0001
0100
0010
0000
1001
0000
,
0001
0100
1000
0100
0010
0000
1001
0000
,
1000
0100
0001
0010
0100
0000
1001
0000
,
0001
0010
0100
1000
0020
0100
0130
0000
,
0001
0010
1000
0010
0100
0000
1001
0000
,
1000
0010
0001
0010
0100
0000
1001
0000
,
0001
0010
1000
0100
0010
0000
0100
0000
,
1000
0001
2002
3003
,
1000
1000
0100
0100
0010
0010
0002
1003
,
0001
0001
0100
0100
0010
1000
1000
1000
,
0001
0001
0010
0010
0100
2000
0001
3001
,
1000
1100
0000
1100
0000
0001
0001
0001
,
0100
0100
0010
1000
1000
0000
0001
0000
,
0010
0010
0100
0100
1000
0000
0001
0000
,
1000
1000
0010
0000
0100
0100
0001
0000
,
0010
0010
0100
0100
0010
0100
1000
0000
,
0001
0001
1000
1000
0010
0000
0100
0000
,
0001
0001
1000
1000
0100
0000
0010
0000
,
0001
1000
0100
0000
1000
0001
0100
0000
,
0010
0010
0010
0000
0110
0000
0110
0000
,
1000
0100
0001
0100
0010
0000
1001
0000
,
0001
0100
1000
0100
0010
0000
1001
0000
,
1000
0100
0001
0010
0100
0000
0010
0000
,
0001
0001
1000
0000
0010
0010
0100
0000
,
0001
0010
1000
0010
0100
0000
1001
0000
,
1000
0010
0001
0010
0100
0000
1001
0000
,
0001
0010
1000
0100
0010
0000
0100
0000
,
1000
1000
0001
0001
2002
0000
3003
0000
,
1000
1000
0100
0100
0010
0010
0002
1003
,
0001
0001
0100
0100
0010
0020
1000
1030
,
1000
1000
0100
0100
0010
0010
0002
1003
,
0001
1001
0000
1001
0000
0001
1000
1000
,
0001
0001
0100
0100
0010
0010
2000
3001
,
1000
1000
0100
0100
0010
0001
0001
0001
,
1000
1000
0010
0010
0100
0100
0002
1003
,
0100
1001
0000
1001
0000
0001
0010
0100
,
2002
0000
3003
0000
;

//---------------dance-single - ----------------
#NOTES:
     dance-single:
     :
     Hard:
     9:
     0.509261,0.549317,0.354398,0.111184,0.542020,513.000000,462.000000,51.000000,16.000000,0.000000,0.000000,0.509261,0.549317,0.354398,0.111184,0.542020,513.000000,462.000000,51.000000,16.000000,0.000000,0.000000:
0000
0000
0000
0000
,
0000
0000
0000
0000
,
1000
0000
0000
0100
0001
0000
0100
0000
1000
0000
0000
0010
0001
0000
0010
0000
,
1000
0000
0000
0100
0010
0000
0001
0000
0000
0100
0000
0000
0010
0000
0000
0000
,
0100
0000
0000
0001
0010
0000
0100
0000
1000
0000
0000
0010
0100
0000
0001
0000
,
1000
0000
0000
0100
0001
0000
0100
0000
0000
0010
0000
0000
1001
0000
0000
0000
,
0001
0100
0010
0100
0001
0000
0010
0000
0100
0000
0000
0010
0001
0000
0001
0000
,
1000
0010
0100
0010
1000
0000
0001
0000
0010
0100
1000
0000
1001
0000
0000
0000
,
0001
0100
1000
0100
0001
0000
0010
0000
0100
0000
0000
0001
0100
0000
1000
0000
,
0001
0000
0000
1000
0010
0000
0100
0000
0002
0000
0000
0000
0000
1000
1003
0000
,
1000
0100
0001
0100
0010
0000
0010
0000
1001
0000
0000
0000
1001
0000
0000
0000
,
0001
0100
1000
0100
0010
0000
0010
0000
1001
0000
0000
0000
1001
0000
0000
0000
,
0001
0010
0100
1000
0010
0000
0100
0000
0101
0000
0000
0000
1010
0000
0000
0000
,
1000
0000
0001
0010
0100
1000
0010
0100
0002
0000
2003
0000
3200
0000
0300
0000
,
1000
0010
0001
0010
0100
0000
0100
0000
1001
0000
0000
0000
1001
0000
0000
0000
,
0001
0010
1000
0010
0100
0000
0100
0000
1001
0000
0000
0000
1001
0000
0000
0000
,
1000
0010
0100
0001
0010
0000
0100
0000
0011
0000
0000
0000
1100
0000
0000
0000
,
1000
0000
0001
0001
0100
0010
1000
0001
1001
0000
0000
0000
0000
0000
0000
0000
,
0011
0000
1100
0000
0001
0001
0010
0100
1000
1000
0001
0000
0200
0000
0310
0100
,
0001
0000
0001
0000
1000
1000
0100
0010
0001
0001
1000
1000
1010
0000
0101
0000
,
1100
0000
0011
0000
1000
1000
0010
0100
0001
0001
0010
0000
0200
0000
0301
0100
,
1000
0000
0010
0001
0000
0010
0100
0000
0001
0010
0100
1000
0010
0100
1000
0100
,
0001
0000
0010
0100
1000
0000
0010
0000
0100
0000
1000
0100
0000
0100
0001
0000
,
0010
0000
1000
0010
0100
0000
1000
0000
0001
0000
0100
0010
0000
0010
1000
0000
,
0001
0000
0010
0100
1000
0000
0001
0000
1000
0000
0100
0010
0001
0000
1000
0000
,
0001
0000
0100
1000
0100
0001
1000
0000
0001
0010
0100
1000
0010
0100
0001
0000
,
1000
0000
0010
0001
0010
0000
0100
0000
0001
0000
0010
0100
0000
0100
1000
0000
,
0001
0000
0100
1000
0100
0000
0001
0000
0010
0000
0100
1000
0000
1000
0001
0000
,
1000
0000
0010
0100
0001
0000
1000
0000
0001
0000
0100
0010
1000
0000
0001
0000
,
2002
0000
0000
0000
0000
0000
3003
0000
1000
1000
0010
0010
0100
0100
0001
0000
,
1000
0100
0001
0100
1000
0001
0001
0100
1000
1000
0100
0001
1010
0000
0101
0000
,
1000
0010
0001
0010
1000
0001
0001
0010
1000
1000
0010
0001
0011
0000
1100
0000
,
1000
0100
0010
0001
0100
0010
1000
0001
0100
0010
1000
0001
1010
0000
0101
0000
,
0001
0000
0010
0100
1000
0010
0100
0001
0020
0000
1000
0000
0031
0000
1001
0000
,
0001
0100
0010
1000
0001
0001
0010
0100
0001
0001
0100
0010
1100
0000
0011
0000
,
0001
0100
1000
0100
0010
0010
1000
0001
0001
1000
1010
0000
0101
0000
0000
0000
,
0001
0010
0100
1000
0010
0100
0001
1000
0100
0010
0001
0100
0010
0000
0110
0000
,
1001
0000
0001
0010
0100
1000
0010
0100
2002
0000
0000
0000
3003
0000
0000
0000
,
0011
0000
1100
0000
0001
0100
1000
0100
0010
1000
0001
0000
0020
0000
0130
1000
,
0001
0000
1100
0000
0001
0100
1000
0100
0001
0001
1000
1000
1010
0000
0101
0000
,
1001
0000
0110
0000
0001
0100
0010
1000
0010
0100
1000
0000
0200
0000
0301
0010
,
0100
0000
0001
0100
0000
0100
1000
0000
0001
0100
1000
0100
0001
0100
1000
0100
,
0101
0000
0011
0000
0010
0100
1000
0010
0100
1000
0100
0000
0002
0000
0013
0100
,
1000
0000
1010
0000
0010
0100
0001
1000
0010
0010
0100
0100
0110
0000
1001
0000
,
0011
0000
1100
0000
1000
0100
0001
0100
0010
0001
1000
0000
0020
0000
0130
0001
,
1000
0000
1100
0000
1000
0100
0010
0001
1000
0010
0001
0010
1000
0100
0001
0100
,
0020
0000
0030
0000
;
