#TITLE:I Am No One;
#SUBTITLE:;
#ARTIST:DJ Myosuke;
#TITLETRANSLIT:;
#SUBTITLETRANSLIT:;
#ARTISTTRANSLIT:;
#GENRE:;
#CREDIT:mf32892;
#BANNER:;
#BACKGROUND:;
#LYRICSPATH:;
#CDTITLE:;
#MUSIC:I Am No One.ogg;
#OFFSET:-0.505932;
#SAMPLESTART:67.187325;
#SAMPLELENGTH:12.500000;
#SELECTABLE:YES;
#BPMS:0.000000=180.000000
,58.000000=360.000000
,60.000000=180.000000
,76.000000=90.000000
,77.000000=180.000000
,93.000000=90.000000
,123.000000=180.000000
,180.500000=90.000000
,184.500000=180.000000
,200.000000=90.000000
,202.000000=180.000000
,205.000000=90.000000
,207.000000=180.000000
;
#STOPS:28.000000=0.667000,
58.000000=0.043000,
58.250000=0.042000,
58.500000=0.043000,
58.750000=0.042000,
59.000000=0.043000,
59.250000=0.042000,
59.500000=0.043000,
59.750000=0.042000,
123.000000=1.000000,
156.000000=2.333000,
168.750000=0.167000,
196.250000=0.167000,
202.000000=0.333000,
207.000000=1.000000
;
#BGCHANGES:;
#KEYSOUNDS:;
#ATTACKS:;

//---------------dance-single - ----------------
#NOTES:
     dance-single:
     :
     Hard:
     10:
     0.688276,0.857309,0.332271,0.185681,0.601020,493.000000,459.000000,34.000000,19.000000,0.000000,0.000000,0.688276,0.857309,0.332271,0.185681,0.601020,493.000000,459.000000,34.000000,19.000000,0.000000,0.000000:
// measure 0
0000
0000
0000
0000
,  // measure 1
0000
0000
0000
0000
,  // measure 2
0000
0000
0000
0000
,  // measure 3
0000
0000
0000
0000
,  // measure 4
1000
0100
1000
0001
0100
0001
0010
0100
,  // measure 5
0010
0001
0010
0100
1000
0100
1000
0010
,  // measure 6
0100
0000
0010
1000
0001
0000
0100
0010
1000
0000
0100
1000
0001
0000
0010
0100
,  // measure 7
0010
0000
0100
0000
1001
0000
0100
1000
,  // measure 8
0001
0000
1000
0000
0010
0000
0100
0000
0001
0000
1000
0100
1000
0000
0100
0010
,  // measure 9
0100
0000
0010
0001
0010
0100
0010
0000
0001
0000
0100
0001
0100
0000
0010
0000
,  // measure 10
1000
0010
1000
0000
0100
0000
1000
0000
0020
0000
0000
0000
0001
0000
0000
0000
,  // measure 11
0100
0000
0000
0000
1030
0000
0000
0000
0001
0000
0010
0001
0010
0000
0100
0000
,  // measure 12
1000
0100
1000
0000
0001
0000
1000
0000
0010
0100
0010
0000
0100
0000
0010
0000
,  // measure 13
1000
0001
1000
0001
1000
0000
0001
0000
1000
0000
0000
1100
0000
0000
0101
0000
,  // measure 14
0000
0011
0000
0000
1010
0000
1001
0000
0001
1000
0001
1000
0001
1000
0001
1000
,  // measure 15
0100
0010
1001
0000
1000
0000
0010
0100
,  // measure 16
0010
1000
0010
0000
1000
0000
0001
0000
0010
0000
0000
0000
0100
0000
0010
0000
,  // measure 17
0001
0000
1000
0000
0001
0100
0001
0000
1000
0000
0000
0000
0100
0000
0010
0000
,  // measure 18
0001
0000
1000
0000
0010
0000
0100
0000
0001
1000
0001
1000
0001
1000
0001
1000
,  // measure 19
0020
0000
0130
0010
0100
0001
0010
0100
,  // measure 20
1000
0000
0001
0000
1000
0000
0100
0000
1000
0000
0010
0000
0100
0000
0001
1000
,  // measure 21
0001
0010
0110
0000
1000
0001
0100
0100
,  // measure 22
0010
1000
0010
1000
0001
0000
0000
0011
0000
0000
1010
0000
0000
1100
0000
0000
,  // measure 23
0102
0000
0000
0000
2003
0000
0000
0100
0000
0000
0100
0000
0000
0001
0000
0000
,  // measure 24
0010
0000
0000
0100
0000
0000
0100
0000
0000
0100
0000
0000
0010
0000
0000
3002
,  // measure 25
0000
0000
0010
0000
0000
0010
0000
0000
0010
0000
0000
0010
0000
0000
1000
0000
,  // measure 26
0000
0100
0000
0000
0010
0000
0000
0010
0000
0000
0010
0000
0000
1000
0000
0000
,  // measure 27
0100
0000
0000
1003
0120
0000
0000
0000
1000
0000
0001
0000
0000
0000
0000
0000
,  // measure 28
0000
0030
2001
0010
0000
0100
0000
0000
,  // measure 29
0000
3000
1002
0010
0000
0100
0000
0000
,  // measure 30
0000
0013
0220
0000
0000
0000
0330
0000
,  // measure 31
1000
0000
0000
0100
1000
0000
0001
0000
1000
0010
0000
0000
1000
0000
0010
0000
,  // measure 32
0100
0000
0000
0100
0010
0000
1000
0000
0010
0100
0000
0000
0001
0000
1000
0000
,  // measure 33
0100
0000
0000
0010
0100
0000
1000
0000
0100
0010
0000
0000
0001
0000
1000
0000
,  // measure 34
0010
0000
0010
0000
0010
0000
0000
0000
1000
0000
1000
0000
0001
1000
0001
1000
,  // measure 35
0100
0000
0010
0000
0100
0000
1000
0000
0100
0000
0010
0000
0001
0000
1000
0001
,  // measure 36
0100
0000
0010
0000
0100
0000
0001
0000
0010
0100
0010
0100
0020
0000
0000
0000
,  // measure 37
0031
0100
0001
0000
1000
0100
1000
0000
0001
0100
0001
0000
1000
0100
1000
0000
,  // measure 38
0001
0010
0001
0010
0100
0010
0100
0010
0100
1000
0100
1000
0001
1000
0001
1000
,  // measure 39
0010
0000
0000
0000
1000
0000
0100
1000
0000
0100
1000
0000
0010
0000
0100
0000
,  // measure 40
0001
0000
1000
0000
0001
0000
0010
0100
0000
0010
0100
0000
1000
0000
0001
0000
,  // measure 41
0200
0000
0000
0000
0310
0000
0100
0001
0000
0100
0001
0000
1000
0000
0001
0000
,  // measure 42
0010
0100
0010
0100
1100
0000
0000
0101
0000
0000
0011
0000
0000
1010
0000
0000
,  // measure 43
1001
0000
0001
0000
1000
0010
0100
0000
0010
0000
1000
0100
1000
0000
0001
0000
,  // measure 44
0010
0100
1000
0000
1000
0000
0010
0000
0100
0000
0001
0000
0100
0000
0010
1000
,  // measure 45
0010
0000
1000
0000
0002
0000
0000
0000
0000
0000
0000
0000
0023
0000
0000
0000
0000
0000
0000
0000
0031
0000
0100
0000
0010
1000
0000
0010
1000
0000
0100
1000
,  // measure 46
0000
0100
1000
0000
1001
0000
0000
0000
0100
0000
0001
0000
0000
0000
1000
0000
0001
0000
0000
0000
0010
0000
0100
0000
0000
0000
0010
0000
0100
0000
0000
0000
,  // measure 47
1000
0000
0001
0000
1000
0100
0000
1000
0100
0000
1000
0010
0000
0100
0002
0000
,  // measure 48
0000
0000
1003
0000
0100
1000
0000
0100
0010
0000
0001
1000
0000
0010
1000
0001
,  // measure 49
1000
0001
0101
0000
0000
1100
0000
0000
1010
0000
0000
0011
0000
0000
0101
0000
,  // measure 50
2002
0000
0000
0000
0000
0000
3003
0000
0110
0000
0000
0000
1000
0001
1000
0001
,  // measure 51
1000
0001
1000
0001
0020
0000
0000
0000
0000
0000
0000
0000
0130
0000
0100
0000
,  // measure 52
1001
0000
0000
0000
1000
0000
0001
0000
1000
0100
1000
0000
0100
0000
1000
0000
,  // measure 53
0001
0000
0010
0001
0010
0000
0100
0010
0100
0000
1000
0100
1000
0001
1000
0000
,  // measure 54
0010
0000
0100
0001
1000
1000
1000
0000
,  // measure 55
0011
0101
1100
1010
,  // measure 56
0001
0000
0010
0000
0100
0000
1000
0000
0010
0000
0100
0000
0001
1000
0100
0000
,  // measure 57
1000
0000
0100
0000
1000
0000
0001
0000
0100
0000
0010
0000
1000
0100
0010
0000
,  // measure 58
0001
0010
0100
0010
0001
0010
0100
0010
0001
1000
0010
0100
0001
0010
0100
1000
,  // measure 59
0020
0000
0000
0000
0000
0001
0000
1000
,  // measure 60
0000
0000
0030
0000
;

//---------------dance-single - ----------------
#NOTES:
     dance-single:
     :
     Medium:
     9:
     0.452336,0.561685,0.234545,0.214999,0.200340,324.000000,300.000000,24.000000,22.000000,0.000000,0.000000,0.452336,0.561685,0.234545,0.214999,0.200340,324.000000,300.000000,24.000000,22.000000,0.000000,0.000000:
// measure 0
0000
0000
0000
0000
,  // measure 1
0000
0000
0000
0000
,  // measure 2
0000
0000
0000
0000
,  // measure 3
0000
0000
0000
0000
,  // measure 4
0001
0100
0001
0000
0100
0010
0100
0000
,  // measure 5
0010
1000
0010
0000
1000
0001
1000
0000
,  // measure 6
0001
0010
0100
1000
0001
0100
0010
1000
,  // measure 7
0001
0000
0000
0000
1000
0000
0100
0010
,  // measure 8
0100
1000
0100
0000
0010
0001
0100
0010
,  // measure 9
1000
0100
0010
0000
0100
1000
0001
0100
,  // measure 10
0010
1000
0001
0000
0011
0000
1100
0000
,  // measure 11
0101
0000
1010
0000
1000
0010
0100
0010
,  // measure 12
1000
0100
0010
0000
0001
0001
0010
0001
,  // measure 13
1000
0000
1000
0000
0001
0000
1000
0000
0010
0000
0000
0010
0000
0000
0100
0000
,  // measure 14
0000
0100
0000
0000
0010
0000
0010
0000
2000
0000
0000
0000
0000
0000
0000
0000
,  // measure 15
0000
3100
0010
0000
0001
0000
1000
0010
,  // measure 16
0100
0010
1000
0100
0010
0000
0001
0010
,  // measure 17
0100
0010
0001
0100
0010
0000
1000
0010
,  // measure 18
0100
0001
1000
0100
0010
0001
0010
0001
,  // measure 19
0200
0000
0310
1000
0010
1000
0001
0010
,  // measure 20
0001
0000
0010
0000
0100
0000
0010
0000
0100
0000
0010
0000
0001
0000
0000
1000
,  // measure 21
0001
0100
0110
0000
1000
0000
0001
0010
,  // measure 22
0100
0000
1000
0000
1010
0000
0000
0101
0000
0000
0011
0000
0000
1100
0000
0000
,  // measure 23
0201
0020
0000
0000
,  // measure 24
0000
0000
0000
0000
0000
0000
0000
0000
0000
0000
0000
0000
0000
0000
0000
0300
,  // measure 25
0000
2000
0000
0000
0000
0000
0000
0000
,  // measure 26
0000
0000
0000
0000
,  // measure 27
0000
3030
0002
0000
0000
0020
0000
0000
,  // measure 28
0000
0033
0200
0000
0000
2000
0000
0000
,  // measure 29
0000
3300
2000
0000
0000
0020
0000
0000
,  // measure 30
0000
3030
0220
0000
0000
0000
0330
0000
,  // measure 31
1000
0000
0000
1000
0000
0000
0100
0000
0000
0100
0000
0000
0010
0000
0001
0000
,  // measure 32
1000
0000
0000
1000
0000
0000
0001
0000
0000
0001
0000
0000
0100
0000
0010
0000
,  // measure 33
1000
0000
0000
1000
0000
0000
0100
0000
0000
0100
0000
0000
0010
0000
0100
0000
,  // measure 34
0010
0000
0000
0001
0000
0000
1000
0000
0000
0001
0000
0000
0200
0000
0000
0000
,  // measure 35
0310
0000
0000
0010
0000
0000
0010
0000
1000
0000
0000
1000
0000
0000
1000
0000
,  // measure 36
0001
0000
0000
0001
0000
0000
0001
0000
0010
0000
0000
0010
0000
0000
0010
0000
,  // measure 37
0100
1000
0100
0010
0001
0100
0010
1000
,  // measure 38
0001
0001
1000
1000
0010
0010
0100
0100
,  // measure 39
0220
0000
0330
0000
0001
0000
0000
0001
0000
0000
1000
0000
0000
1000
0000
0000
,  // measure 40
0001
0000
0010
0000
0100
0000
0000
0100
0000
0000
0010
0000
0000
0001
0000
0000
,  // measure 41
1000
0000
0010
0000
0100
0000
0000
0100
0000
0000
0010
0000
0000
0010
0000
0000
,  // measure 42
1000
0000
0100
0000
1000
0000
0000
1000
0000
0000
0001
0000
0000
0001
0000
0000
,  // measure 43
0010
0000
0100
0000
0000
0100
0000
0000
0010
0000
0000
0010
0000
0000
0001
0000
,  // measure 44
1000
0000
0010
0000
0000
0100
0000
0000
0010
0000
0000
1000
0000
0000
0100
0000
,  // measure 45
0010
0000
0000
0000
0200
0000
0000
0000
0000
0000
0000
0000
2300
0000
0000
0000
0000
0000
0000
0000
3001
0000
0100
0000
0000
0100
0000
0000
0010
0000
0000
0010
,  // measure 46
0000
1000
0001
0000
0000
0001
0000
0000
0010
0000
0000
0010
0000
0000
0100
0000
,  // measure 47
1000
0000
0001
0000
0000
0001
0000
0000
0100
0000
0000
0010
0000
0000
1020
0000
,  // measure 48
0000
0000
0130
0000
0000
0100
0000
0000
0001
0000
0000
0001
0000
0000
1000
0000
,  // measure 49
0100
0000
0011
0000
0000
0011
0000
0000
0110
0000
0000
1100
0000
0000
0101
0000
,  // measure 50
0120
0000
1030
0000
,  // measure 51
0000
1002
0000
0013
,  // measure 52
0100
0000
1000
0100
0010
0100
1000
0000
,  // measure 53
0001
0010
0001
0100
0010
1000
0001
0000
,  // measure 54
1000
0000
0010
0100
0010
1000
0100
0000
,  // measure 55
1100
0101
0011
1010
,  // measure 56
1000
0010
1000
0010
0100
0001
1000
0000
,  // measure 57
0001
0010
0001
0010
0100
1000
0010
0000
,  // measure 58
0100
0010
1000
0100
0010
0001
0100
0010
,  // measure 59
2000
0000
0000
0000
0000
0001
0000
0100
,  // measure 60
0000
0000
3000
0000
;

//---------------dance-single - ----------------
#NOTES:
     dance-single:
     :
     Easy:
     6:
     0.329479,0.468112,0.273635,0.273635,0.000000,236.000000,208.000000,28.000000,28.000000,0.000000,0.000000,0.329479,0.468112,0.273635,0.273635,0.000000,236.000000,208.000000,28.000000,28.000000,0.000000,0.000000:
0000
0000
0000
0000
,
0000
0000
0000
0000
,
0000
0000
0000
0000
,
0000
0000
0000
0000
,
1000
1000
0010
0010
,
0001
0001
0100
0100
,
1000
0010
0001
0100
,
1001
0000
0001
0010
,
0100
0100
1000
0001
,
0100
0000
0010
0010
0010
0000
0100
0000
,
0001
0000
1000
0001
0020
0000
0100
0000
,
0100
0130
1000
1000
,
0001
1000
0110
0000
,
1001
0000
0000
0000
1000
0000
0000
0001
,
0000
1000
0002
0000
,
0000
0003
0100
0010
,
1000
0000
0001
1000
0001
0000
0010
0000
,
0100
0000
1000
0001
1000
0000
0010
0000
,
0100
0001
2000
0000
,
3200
0310
0100
0010
,
0110
0001
1000
0001
,
1000
0001
0100
0000
0100
0000
0010
1000
,
0001
0000
1000
0000
0000
0001
0000
0000
,
1001
0200
0000
0000
,
0000
0000
0000
0000
0000
0000
0000
0300
,
0000
0020
0000
0000
0000
0000
0000
0000
,
0000
0000
0000
0000
,
0030
2002
0000
0000
,
0000
3003
0020
0000
0000
0000
0000
0000
,
0000
0030
0200
0000
0000
0000
0000
0000
,
0000
0300
2002
0000
0000
0000
3003
0000
,
0001
0001
1000
1000
,
0100
0000
0100
0000
0010
0000
0001
1000
,
0001
0001
1000
0001
,
1000
0100
1000
0000
0001
0100
0002
0000
,
0103
1001
0010
1001
,
0001
0101
1000
1100
,
1001
0110
1001
0110
,
0001
0010
0100
0000
1000
0010
0100
0000
,
0110
0000
1000
0100
1000
0000
0001
0000
,
1000
0000
0100
0000
0100
0000
0010
0001
,
2000
0000
3001
0000
0001
0000
0100
0010
,
0100
0010
2002
0000
0000
0000
0000
3003
,
0000
1000
0000
1000
0000
0001
0000
1000
,
0001
0010
0100
0010
0000
0001
0100
0010
,
0000
0200
0000
0320
0000
1030
1000
0001
,
1000
0001
0100
0001
0000
1000
0000
0100
,
0010
0001
1000
0001
0000
0100
0010
0200
,
0000
0301
0000
0101
0000
1000
0100
0010
,
0001
2002
0000
0000
0000
0000
3003
0000
,
2002
0000
3003
0000
,
0000
0220
0000
0330
,
0001
0001
1000
0100
,
1000
0000
0010
0000
1000
0000
0100
0100
,
0100
0000
0100
0000
0010
0001
0100
0000
,
0110
1001
0110
1001
,
1000
0100
1000
0000
0010
0000
1001
0000
,
0001
0100
0001
0000
0010
0000
1001
0000
,
2000
3200
0320
0031
,
1001
0000
0000
0000
0000
0010
0000
0100
;

//---------------dance-double - ----------------
#NOTES:
     dance-double:
     :
     Hard:
     10:
     0.657562,0.819196,0.273635,0.214999,0.576589,471.000000,443.000000,28.000000,22.000000,0.000000,0.000000,0.657562,0.819196,0.273635,0.214999,0.576589,471.000000,443.000000,28.000000,22.000000,0.000000,0.000000:
00000000
00000000
00000000
00000000
,
00000000
00000000
00000000
00000000
,
00000000
00000000
00000000
00000000
,
00000000
00000000
00000000
00000000
,
00100000
00010000
10000000
00100000
01000000
00010000
00100000
01000000
,
00010000
00001000
00000010
00000100
00001000
00000001
00000100
00000010
,
00001000
00000100
00001000
00000000
00000010
00010000
00000010
00000000
00010000
00001000
00010000
00000000
00001000
00100000
00001000
00100000
,
01000000
00000000
00100000
00000000
10010000
00000000
10000000
00010000
,
00100000
00000000
01000000
00000000
00100000
00000000
00001000
00000000
00010000
00000000
00000010
00000100
00000010
00000000
00000100
00000001
,
00000100
00000000
00000001
00001000
00000001
00001000
00000001
00000000
00000010
00000000
00000100
00001000
00000100
00000000
00010000
00000000
,
00001000
01000000
00001000
00000000
00100000
00000000
01000000
00000000
00020000
00000000
00000000
00000000
10000000
00000000
00000000
00000000
,
01000000
00000000
00000000
00000000
00031000
00000000
00000000
00000000
00000100
00000000
00000001
00001000
00000001
00000000
00000010
00000000
,
00000100
00010000
00000100
00000000
00001000
00000000
00000010
00000000
00000100
00001000
00000100
00000000
00001000
00000000
00010000
00000000
,
01000000
00100000
01000000
00100000
01000000
00000000
00100000
00000000
00010000
00000000
00000000
00110000
00000000
00000000
00001000
00000000
,
00000000
00011000
00000000
00000000
00000100
00000000
00000010
00000000
00000001
00000100
00000001
00000100
00000010
00001000
00000010
00001000
,
00000001
00000010
00001000
00000000
00011000
00000000
00010000
01000000
,
00100000
00010000
00100000
00000000
00001000
00000000
00010000
00000000
00000100
00000000
00000000
00000000
00000010
00000000
00000001
00000000
,
00000100
00000000
00001000
00000000
00000100
00000010
00000100
00000000
00000001
00000000
00000000
00000000
00001000
00000000
00000100
00000000
,
00000001
00000000
00000100
00000000
00000010
00000000
00001000
00000000
00010000
00000100
00010000
00000100
00010000
00000100
00010000
00000100
,
00002000
00000000
00013000
01000000
00100000
10000000
01000000
00100000
,
00001000
00000000
00010000
00001000
00100000
00000000
01000000
00000000
00010000
00000000
00001000
00000000
00000100
00000000
00000010
00001000
,
00000001
00000010
00000110
00000000
00000010
00000001
00000100
00000100
,
00001000
00010000
00001000
00010000
00000100
00000000
00000000
00000011
00000000
00000000
00000101
00000000
00000000
00001100
00000000
00000000
,
00010100
00102000
00000000
00000000
,
00000000
00000000
00000000
00000000
,
00000000
00020000
00000000
00000000
00000000
00000000
00000000
00000000
,
00000000
00000000
00000000
00000000
,
00000000
00033000
02000000
00000000
00010000
00200000
00000000
00000000
,
03300000
00000000
00020000
01000000
00000000
00002000
00000000
00000000
,
00000000
00033000
00000200
00001000
00000000
00000002
00000000
00000000
,
00000303
00000010
00000220
00000000
00000000
00000000
00000330
00000000
,
00001001
00000000
00000000
00000100
00000001
00000000
00000010
00000000
00000001
00000100
00000000
00000000
00000001
00000000
00000010
00000000
,
00000100
00000000
00000000
00001000
00000100
00000000
00000010
00000000
00000100
00001000
00000000
00000000
00000001
00000000
00000100
00000000
,
00001000
00000000
00000000
00010000
00001000
00000000
00000100
00000000
00001000
00010000
00000000
00000000
00001000
00000000
00010000
00000000
,
01000000
00000000
01000000
00000000
01000000
00000000
00000000
00000000
10000000
00000000
01000000
00000000
00100000
00010000
00100000
00010000
,
10000000
00000000
00100000
10000000
00000000
00100000
10000000
00000000
01000000
00000000
00100000
00001000
00000000
00100000
00001000
00000000
,
00010000
00000000
00000100
00000010
00000000
00000100
00000010
00000000
00000001
00000100
00000010
00001000
00000020
00000000
00000000
00000000
,
00000130
00000000
00000010
00001000
00000010
00000000
00010000
00001000
00010000
00000000
00000100
00001000
00000100
00000000
00010000
00000000
,
00001000
00010000
00001000
00010000
00000100
00010000
00000100
00010000
00000100
00000010
00000100
00000010
00000001
00001000
00000001
00001000
,
00000010
00000000
00000000
00000000
00000100
00000000
00000001
00000010
00000000
00000001
00000010
00000000
00001000
00000000
00010000
00000000
,
01000000
00000000
10000000
00000000
00100000
00000000
01000000
00010000
00000000
01000000
00010000
00000000
00100000
00000000
00001000
00000000
,
00020000
00000000
00000000
00000000
01030000
00000000
00010000
00001000
00000000
00010000
00001000
00000000
00000100
00000000
00000001
00000000
,
00001000
00000100
00000010
00000001
00000101
00000000
00000000
00000101
00000000
00000000
00001010
00000000
00000000
00011000
00000000
00000000
,
01010000
00000000
00100000
00000000
10000000
01000000
10000000
00000000
01000000
00000000
00100000
00001000
00010000
00000000
00000100
00000000
,
00000010
00000001
00001000
00000000
00001000
00000000
00000010
00000000
00001000
00000000
00000001
00000000
00000010
00000000
00000100
00010000
,
00000100
00000000
00010000
00000000
00002000
00000000
00000000
00000000
00000000
00000000
00000000
00000000
02003000
00000000
00000000
00000000
00000000
00000000
00000000
00000000
03100000
00000000
10000000
00000000
00010000
01000000
00000000
00010000
10000000
00000000
00010000
00100000
,
00000000
00010000
10000000
00000000
10010000
00000000
00000000
00000000
10000000
00000000
01000000
00000000
00000000
00000000
10000000
00000000
00010000
00000000
00000000
00000000
00100000
00000000
00001000
00000000
00000000
00000000
00010000
00000000
00000100
00000000
00000000
00000000
,
00000010
00000000
00001001
00000000
00000001
00000100
00000000
00000010
00001000
00000000
00000100
00010000
00000000
00001000
02000000
00000000
,
00000000
03000000
10010000
00000000
10000000
00010000
00000000
00100000
00001000
00000000
00010000
00000100
00000000
00000010
00000001
00001000
,
00000001
00001000
00000101
00000000
00000000
00000101
00000000
00000000
00000110
00000000
00000000
00001010
00000000
00000000
00001100
00000000
,
00022000
00000000
00000000
00000000
00003000
00000000
00000000
00000000
01030000
00000000
00000000
00000000
10000000
01000000
10000000
01000000
,
00100000
00001000
00100000
00001000
00020000
00000000
00000000
00000000
00000000
00000000
00000000
00000000
00031000
00000000
00000001
00000000
,
00000110
00000000
00001000
00000001
00000100
00001000
00010000
00100000
,
01000000
00000000
00010000
00100000
00010000
00000000
00100000
00001000
00100000
00000000
00001000
00010000
00000100
00010000
00000100
00000000
,
00000010
00000000
00000001
00000100
00000010
00000000
00010000
00000000
00001000
00000000
00001000
00000000
00002000
00000000
00000000
00000000
,
00000001
00000010
00010000
01003000
,
00100000
00000000
10000000
00000000
01000000
00000000
00010000
00000000
00001000
00000000
00000100
00000000
00000001
00001000
00000001
00000000
,
00000010
00000000
00000001
00000000
00000100
00000000
00001000
00000000
00010000
00000000
01000000
00000000
10000000
00010000
10000000
00000000
,
00100000
01000000
00100000
01000000
00010000
10000000
00010000
10000000
01000000
00100000
01000000
00100000
00001000
00010000
00001000
00010000
,
00000200
00000000
00000000
00000000
00000000
00000001
00000300
00001100
;
