#TITLE:Ganymede kamome mix;
#SUBTITLE:;
#ARTIST:kamome sano;
#TITLETRANSLIT:;
#SUBTITLETRANSLIT:;
#ARTISTTRANSLIT:;
#GENRE:;
#CREDIT:;
#BANNER:[VIP1 Oni Mode] - Ganymede kamome mix.png;
#BACKGROUND:[VIP1 Oni Mode] - Ganymede kamome mix-bg.png;
#LYRICSPATH:;
#CDTITLE:;
#MUSIC:[VIP1 Oni Mode] - Ganymede kamome mix.ogg;
#OFFSET:0.220000;
#SAMPLESTART:65.597000;
#SAMPLELENGTH:9.700000;
#SELECTABLE:YES;
#BPMS:0.000000=400.000000
,94.000000=100.000000
,126.000000=400.000000
,196.000000=200.000000
,248.500000=400.000000
,312.500000=100.000000
,317.500000=400.000000
;
#STOPS:10.000000=1.950000,
13.000000=1.950000,
94.000000=2.400000,
317.500000=0.450000,
448.500000=0.225000,
451.666656=0.125000,
462.833344=0.225000,
465.666656=0.125000
;
#BGCHANGES:;
#KEYSOUNDS:;
#ATTACKS:;

//---------------dance-single - ----------------
#NOTES:
     dance-single:
     :
     Hard:
     12:
     0.857853,1.476056,0.319839,0.495750,1.079456,751.000000,711.000000,40.000000,62.000000,0.000000,0.000000,0.857853,1.476056,0.319839,0.495750,1.079456,751.000000,711.000000,40.000000,62.000000,0.000000,0.000000:
// measure 0
0000
0000
0000
0000
,  // measure 1
0000
0000
0000
0000
,  // measure 2
1000
0000
0000
0000
0000
0000
0000
0000
0000
0000
0000
0000
0000
0000
0000
0000
0002
0000
0000
0000
0000
0000
0000
0000
0000
0000
0000
0000
0000
0000
0000
0000
0000
0003
0000
0000
0000
0000
0000
0000
0000
0000
0000
0000
0000
0000
0000
0000
0001
0000
0000
0000
0000
0000
0000
0000
0000
0000
0000
0000
0000
0000
0000
0000
,  // measure 3
2000
0000
0000
0000
0000
0000
0000
0000
0000
0000
0000
0000
0000
0000
0000
0000
0000
3000
0000
0000
0000
0000
0000
0000
0000
0000
0000
0000
0000
0000
0000
0000
1000
0000
0000
0000
0000
0000
0000
0000
0000
0000
0000
0000
0000
0000
0000
0000
0001
0000
0000
0000
0000
0000
0000
0000
0000
0000
0000
0000
0000
0000
0000
0000
,  // measure 4
0011
0000
0001
1000
,  // measure 5
1010
0000
0010
0100
,  // measure 6
0101
0000
0010
0100
,  // measure 7
1100
0000
1001
0001
,  // measure 8
0101
0000
0110
0010
,  // measure 9
1000
0100
0100
1000
,  // measure 10
0001
0100
0010
0010
,  // measure 11
0010
0010
0110
0100
,  // measure 12
0001
0010
0100
1000
,  // measure 13
0001
0100
0110
0010
,  // measure 14
1000
0100
0010
0001
,  // measure 15
0100
0010
1010
1000
,  // measure 16
0001
0010
0011
0010
,  // measure 17
0100
1000
1100
1000
,  // measure 18
0010
0100
0101
0001
,  // measure 19
1000
0001
1001
1000
,  // measure 20
1100
0100
0110
0010
,  // measure 21
0011
0000
0001
0000
0100
0001
0100
0001
,  // measure 22
0100
0001
0100
0001
0100
0001
0100
0001
,  // measure 23
0100
0000
0000
0000
0000
0000
0000
0000
0001
0000
0000
0000
0000
0000
0000
0000
0100
0000
0000
0000
0000
0000
0000
0000
0001
0000
0000
0000
0000
0000
0000
0000
0200
0300
0000
0000
0000
0000
0000
0000
0000
0000
0000
0000
0000
0000
0000
0000
0002
0000
0000
0000
0000
0000
0000
0000
0000
0000
0000
0000
0000
0000
0000
0000
,  // measure 24
2003
3200
0320
0000
,  // measure 25
0032
2003
3020
0000
,  // measure 26
0230
0000
0302
0000
,  // measure 27
2003
0000
0000
0000
3001
0100
0002
0010
,  // measure 28
2003
0001
3200
1000
0320
1000
0100
0001
,  // measure 29
0032
0100
2003
0100
3020
0001
0100
1000
,  // measure 30
0230
0001
0010
0001
0302
1000
0010
0100
,  // measure 31
2003
0100
0100
0100
3001
0000
0100
0001
,  // measure 32
0100
0000
0001
0100
0001
0000
0100
0010
,  // measure 33
0100
0000
0010
0000
1000
0000
0010
1000
,  // measure 34
0010
0000
1000
0010
1000
0000
0010
0100
,  // measure 35
0010
0000
0100
0000
0001
0000
0010
0001
,  // measure 36
0010
0000
0001
0010
0001
0000
0010
0100
,  // measure 37
0010
0000
0100
0000
1000
0000
0100
1000
,  // measure 38
0100
0000
1000
0100
1000
0000
0100
0010
,  // measure 39
0000
0100
0010
0000
0001
0000
0100
0001
,  // measure 40
0100
0000
0001
0100
0001
0100
0010
1000
,  // measure 41
0001
0100
0010
1000
0100
0000
1000
0100
,  // measure 42
1000
0000
0100
0010
0001
1000
0100
0010
,  // measure 43
0001
1000
0100
0000
0010
0000
0001
0010
,  // measure 44
0001
0000
0100
0001
0000
0100
0001
0000
,  // measure 45
0100
0000
0100
0000
0010
1000
0010
1000
,  // measure 46
0010
0000
1000
0000
0100
0000
0010
0001
,  // measure 47
0010
0001
0010
0000
0100
1000
0000
0100
,  // measure 48
0000
0000
0000
0000
0000
0000
1000
0000
0000
0010
0000
0000
1000
0000
0000
0000
0100
0000
0000
0000
0010
0000
0000
0000
,  // measure 49
0002
0000
0000
0000
0000
0000
0000
0203
,  // measure 50
0000
0000
0000
0000
0000
0320
0000
0000
,  // measure 51
0000
0000
0000
0000
0000
0000
0000
0000
0000
0000
0000
0000
0030
0000
0010
0100
,  // measure 52
0010
0100
0001
0010
0100
1000
0010
0100
,  // measure 53
0001
0000
0000
0100
0000
0000
0010
0000
0000
1000
0000
0100
0000
0010
0000
0001
0000
0000
0001
0000
0000
0100
0000
0000
,  // measure 54
0010
0000
0000
1000
0000
0100
0000
0010
0000
0001
0000
1000
0000
0100
0000
0010
0000
0001
0000
1000
0000
0100
0000
0010
,  // measure 55
0000
0001
0000
1000
0000
0100
0000
0010
0000
0001
0000
1000
0000
0100
0000
0010
0000
0001
0000
1000
0000
0100
0000
0010
,  // measure 56
0000
0001
0000
1000
0000
0010
0000
0100
0000
0001
0000
1000
0000
0010
0000
0100
0000
0001
0000
1000
0000
0010
0000
0100
,  // measure 57
0000
0001
0000
1000
0000
0010
0000
0100
0000
0001
0000
1000
0000
0010
0000
0100
0000
0001
0000
1000
0000
0010
0000
0100
,  // measure 58
0000
0001
0000
1000
0000
0100
0000
1000
0000
0010
0000
1000
0000
0100
0000
1000
0000
0010
0000
1000
0000
0100
0000
1000
,  // measure 59
0000
0010
0000
1000
0000
0001
0000
0010
0000
0001
0000
0100
0000
0001
0000
0010
0000
0001
0000
0100
0000
0001
0000
0010
,  // measure 60
0000
0001
0000
0100
0000
0010
0000
1000
0000
0001
0000
0010
0000
0100
0000
1000
0000
0100
0000
0010
0000
0001
0000
0100
,  // measure 61
0000
0010
0000
1000
0000
0001
0000
0010
0000
0100
0000
1000
0000
0100
0000
0010
0000
0001
0000
0100
0000
0010
0000
1000
,  // measure 62
0000
0001
0000
0011
0000
0000
0000
0000
0000
0000
0000
0000
0000
0000
0000
0011
0000
0000
0000
0000
0000
0000
0000
0000
,  // measure 63
0000
1010
0000
0000
0000
1010
0000
0000
,  // measure 64
0000
1001
0000
0000
0000
1001
0000
0000
,  // measure 65
0000
0101
0000
0000
0000
0101
0000
0000
,  // measure 66
0000
1100
0000
0000
0000
1100
0000
0000
,  // measure 67
0000
0110
0000
0000
0000
0110
0000
0000
,  // measure 68
0000
1001
0000
0000
0000
1001
0000
0000
,  // measure 69
0000
0110
0000
0000
0000
0110
0000
0000
,  // measure 70
0000
0000
0000
1001
0000
0000
0000
0000
0000
0000
0000
1000
0000
0000
0000
0100
0000
0000
0000
0000
0000
0000
0000
0000
,  // measure 71
0000
0000
0000
0110
0000
0000
0000
0000
0000
0000
0000
0000
0000
0000
0000
0100
0000
0000
0000
0010
0000
0000
0000
0100
,  // measure 72
0000
0000
0000
0010
0000
0000
0000
0000
0000
0000
0000
0000
0000
0000
0000
0001
0000
0000
0000
1000
0000
0000
0000
0001
,  // measure 73
0000
1000
0000
0000
0000
0011
0000
0000
,  // measure 74
0000
0000
0000
0101
0000
0000
0000
0000
0000
0000
0000
0001
0000
0000
0000
0100
0000
0000
0000
0000
0000
0000
0010
0000
,  // measure 75
0000
0000
0000
1000
0000
0000
0000
0000
0000
0000
0000
0000
0000
0000
0000
0011
0000
0000
0000
0000
0000
0000
0000
0001
,  // measure 76
0000
0000
0000
0010
0000
0000
0000
0100
0000
0000
0000
1000
0000
0000
0000
0100
0000
0000
0000
0010
0000
0000
0000
0001
,  // measure 77
0000
1000
0000
0000
0000
1001
0000
0000
,  // measure 78
0000
0220
0000
0000
0000
0000
0000
0000
,  // measure 79
0000
0000
0000
0000
0000
0000
0000
0000
0000
0000
0000
0000
0000
0000
0000
0000
0000
0000
0000
0000
0000
0000
0000
0000
0000
0000
0000
0000
0000
0000
0000
0000
0000
0000
0000
0000
0000
0000
0000
0000
0000
0000
0000
0000
0000
0000
0000
0000
0000
0000
0000
0000
0000
0000
0000
0000
0000
0000
0000
0000
0000
0000
0000
0000
0000
0000
0000
0000
0000
0000
0000
0000
0300
0000
0000
0030
0000
0000
0000
0000
0000
0000
0000
0000
0000
0000
0000
0000
0000
0000
0000
0000
0000
0000
0000
0000
0000
0000
0000
0000
0000
0000
0000
0000
0000
0000
0000
0000
0000
0000
0000
0000
0000
0000
0000
0000
0000
0000
0000
0000
1000
0000
0000
0000
0000
0000
0000
0000
0000
0000
0000
0000
0000
0000
0000
0000
0000
0000
0000
0000
0000
0000
0000
0000
0000
0000
0000
0000
0000
0000
0000
0000
0100
0000
0000
0000
0000
0000
0000
0000
0000
0000
0000
0000
0000
0000
0000
0000
0000
0000
0000
0000
0000
0000
0000
0000
0000
0000
0000
0000
0000
0000
0000
0000
0010
0000
0000
0000
0000
0000
0000
0000
,  // measure 80
0000
0000
0000
0001
0000
0000
0000
0100
0000
0000
0000
0010
0000
0000
0000
1000
0000
0000
0000
0010
0000
0000
0000
0100
,  // measure 81
0000
0000
0000
0001
0000
0000
0000
0010
0000
0000
0000
0100
0000
0000
0000
0010
0000
0000
0000
0001
0000
0000
0000
1000
,  // measure 82
0000
0000
0000
0010
0000
0000
0000
0100
0000
0000
0000
0010
0000
0000
0000
1000
0000
0000
0000
0100
0000
0000
0000
0010
,  // measure 83
0000
0000
0000
0001
0000
0000
0000
0010
0000
0000
0000
0100
0000
0000
0000
1000
0000
0000
0000
0100
0000
0000
0000
0001
,  // measure 84
0000
0000
0000
0100
0000
0000
0000
1000
0000
0000
0000
0010
0000
0000
0000
0001
0000
0000
0000
0010
0000
0000
0000
1000
,  // measure 85
0000
0000
0000
0100
0000
0000
0000
0010
0000
0000
0000
0001
0000
0000
0000
0100
0000
0000
0000
0010
0000
0000
0000
1000
,  // measure 86
0000
0000
0000
0001
0000
0000
0000
1000
0000
0000
0000
0100
0000
0000
0000
1000
0000
0000
0000
0001
0000
0000
0000
1000
,  // measure 87
0000
0000
0000
0010
0000
0000
0000
0100
0000
0000
0000
0001
0000
0000
0000
0010
0000
0000
0000
0100
0000
0000
0000
1000
,  // measure 88
0000
0000
0000
0001
0000
0000
0000
0010
0000
0000
0000
0100
0000
0000
0000
1000
0000
0000
0000
0001
0000
0000
0000
0100
,  // measure 89
0000
0000
0000
0010
0000
0000
0000
1000
0000
0000
0000
0001
0000
0000
0000
0100
0000
0000
0000
0010
0000
0000
0000
1000
,  // measure 90
0000
0000
0000
0100
0000
0000
0000
0010
0000
0000
0000
0001
0000
0000
0000
0100
0000
0000
0000
0010
0000
0000
0000
1000
,  // measure 91
0000
0000
0000
0100
0000
0000
0000
0010
0000
0000
0000
0001
0000
0000
0000
0010
0000
0000
0000
0100
0000
0000
0000
1000
,  // measure 92
0000
0000
0000
0010
0000
0000
0000
0100
0000
0000
0000
0010
0000
0000
0000
1000
0000
0000
0000
0001
0000
0000
0000
0010
,  // measure 93
0000
0000
0000
0100
0000
0000
0000
0010
0000
0000
0000
0001
0000
0000
0000
1000
0000
0000
0000
0010
0000
0000
0000
0100
,  // measure 94
0000
0000
0000
0001
0000
0000
0000
0010
0000
0000
0000
0100
0000
0000
0000
1000
0000
0000
0000
0100
0000
0000
0000
0010
,  // measure 95
0000
0000
0000
0001
0000
0000
0000
0100
0000
0000
0000
0010
0000
0000
0000
1000
0000
0000
0000
0100
0000
0000
0000
1000
,  // measure 96
0000
0000
0000
0100
0000
0000
0000
1000
0000
0000
0000
0100
0000
0000
0000
0010
0000
0000
0000
0001
0000
0000
0000
0010
,  // measure 97
0000
0000
0000
0001
0000
0000
0000
0010
0000
0000
0000
0001
0000
0000
0000
0100
0000
0000
0000
0001
0000
0000
0000
0100
,  // measure 98
0000
0000
0000
0001
0000
0000
0000
0100
0000
0000
0000
0001
0000
0000
0000
1000
0000
0000
0000
0010
0000
0000
0000
1000
,  // measure 99
0000
0000
0000
0010
0000
0000
0000
1000
0000
0000
0000
0010
0000
0000
0000
0100
0000
0000
0000
0010
0000
0000
0000
0100
,  // measure 100
0000
0000
0000
0010
0000
0000
0000
0100
0000
0000
0000
0001
0000
0000
0000
1000
0000
0000
0000
0001
0000
0000
0000
1000
,  // measure 101
0000
0000
0000
0001
0000
0000
0000
1000
0000
0000
0000
0100
0000
0000
0000
0010
0000
0000
0000
0100
0000
0000
0000
0010
,  // measure 102
0000
0000
0000
0100
0000
0000
0000
0010
0000
0000
0000
0001
0000
0000
0000
0100
0000
0000
0000
0010
0000
0000
0000
1000
,  // measure 103
0000
0000
0000
0100
0000
0000
0000
0010
0000
0000
0000
0001
0000
0000
0000
0010
0000
0000
0000
0100
0000
0000
0000
0010
,  // measure 104
0000
0000
0000
0001
0000
0000
0000
1000
0000
0000
0000
0010
0000
0000
0000
0100
0000
0000
0000
0010
0000
0000
0000
1000
,  // measure 105
0000
0000
0000
0001
0000
0000
0000
0100
0000
0000
0000
0010
0000
0000
0000
0100
0000
0000
0000
0001
0000
0000
0000
1000
,  // measure 106
0000
0000
0000
0100
0000
0000
0000
0010
0000
0000
0000
0100
0000
0000
0000
1000
0000
0000
0000
0010
0000
0000
0000
0100
,  // measure 107
0000
0000
0000
0001
0000
0000
0000
0010
0000
0000
0000
0100
0000
0000
0000
1000
0000
0000
0000
0100
0000
0000
0000
0001
,  // measure 108
0000
0000
0000
0100
0000
0000
0000
1000
0000
0000
0000
0001
0000
0000
0000
0100
0000
0000
0000
1000
0000
0000
0000
0100
,  // measure 109
0000
0000
0000
0001
0000
0000
0000
1000
0000
0000
0000
0010
0000
0000
0000
0001
0000
0000
0000
0010
0000
0000
0000
1000
,  // measure 110
0000
0000
0000
0001
0000
0000
0000
0010
0000
0000
0000
1000
0000
0000
0000
0010
0000
0000
0000
0001
0000
0000
0000
0010
,  // measure 111
0000
0000
0000
0100
0000
0000
0000
1000
0000
0000
0000
0100
0000
0000
0000
0100
0000
0000
0000
0100
0000
0000
0000
0100
,  // measure 112
0000
0000
0000
0100
0000
0000
0010
0000
0000
0000
0010
0000
0000
0000
0010
0000
0000
0000
0010
0000
0000
0000
0010
0000
,  // measure 113
0000
1000
0000
0000
0000
0100
0000
0000
0000
0010
0000
0000
0000
0001
0000
0000
0000
1000
0000
0000
0000
0100
0000
0000
,  // measure 114
0000
0010
0000
0000
0000
0001
0000
0000
0000
1000
0000
0000
0000
0100
0000
0000
0000
0010
0000
0000
0000
0001
0000
0000
,  // measure 115
0000
0001
0000
0000
0000
0001
0000
0000
0000
0001
0000
0000
0000
0001
0000
0000
0000
0001
1000
0000
0000
0000
1000
0000
,  // measure 116
0000
1000
0000
1000
0000
1000
0001
0000
0100
0000
0010
0000
,  // measure 117
1000
0000
0001
0000
0100
0000
0040
0000
1030
0000
0100
0000
,  // measure 118
0010
0000
0001
0000
0010
0000
0100
0000
1000
0000
0100
0000
,  // measure 119
1000
0000
0001
0000
0100
0000
0001
0000
0100
0000
0010
0000
,  // measure 120
0100
0000
0001
0000
1000
0000
0100
0000
0010
0000
0100
0000
,  // measure 121
1000
0000
0010
0000
0100
0000
0001
0000
0010
0000
0100
0000
,  // measure 122
1000
0000
0100
0000
0020
0032
0023
0030
0001
0000
0100
0000
,  // measure 123
1000
0000
0100
0000
0001
0000
1000
0000
0100
0000
0001
0000
,  // measure 124
0100
0000
1000
0000
0001
0000
0010
0000
1000
0000
0010
0000
,  // measure 125
0001
0000
1000
0000
0010
0000
0001
0000
0010
0000
1000
0000
,  // measure 126
0100
0000
0010
0000
0001
0000
2000
0000
0000
0000
0000
0000
,  // measure 127
0200
0000
0000
3000
0020
0000
0000
0300
,  // measure 128
0002
0000
0000
0030
0200
0000
0000
0003
,  // measure 129
0320
0000
0230
0000
,  // measure 130
0302
0000
0000
0000
0023
0000
0000
0030
,  // measure 131
0200
0000
0000
0300
2000
0000
0000
3000
,  // measure 132
0020
0000
0000
0030
0200
0000
0300
0000
,  // measure 133
0020
0030
2000
3000
,  // measure 134
0200
0000
0300
0000
2000
3000
0000
0000
,  // measure 135
0002
0003
0000
0000
0020
0030
0000
0000
,  // measure 136
0200
0000
0300
0000
0000
0000
0000
0000
2000
3000
0000
0000
0000
0000
0000
0000
,  // measure 137
0200
0300
0000
0000
0000
0000
0000
0000
0020
0030
0000
0000
0000
0000
0000
0000
,  // measure 138
0002
0000
0003
0000
0000
0000
0000
0000
0000
0000
0000
0000
0000
0000
0000
0000
0200
0300
0000
0000
0000
0000
0000
0000
0000
0000
0000
0000
0000
0000
0000
0000
,  // measure 139
0020
0030
0000
0000
0000
0000
0000
0000
0000
0000
0000
0000
0000
0000
0000
0000
2000
3000
0000
0000
0000
0000
0000
0000
0000
0000
0000
0000
0000
0000
0000
0000
,  // measure 140
0002
0003
0000
0000
0000
0000
0000
0000
0020
0000
0030
0000
0000
0000
0000
0000
,  // measure 141
0200
0300
2000
0000
,  // measure 142
3001
0000
0000
0000
;
