#VERSION:0.83;
#TITLE:ELECTRICAL PARADE ~Retro Future Mix~;
#SUBTITLE:;
#ARTIST:TOMOSUKE;
#TITLETRANSLIT:;
#SUBTITLETRANSLIT:;
#ARTISTTRANSLIT:;
#GENRE:;
#CREDIT:Graphics made by TonyAkita;
#MUSIC:[VIP1 Oni Mode] - ELECTRICAL PARADE ~Retro Future Mix~.ogg;
#BANNER:[VIP1 Oni Mode] - ELECTRICAL PARADE ~Retro Future Mix~.png;
#BACKGROUND:[VIP1 Oni Mode] - ELECTRICAL PARADE ~Retro Future Mix~-bg.png;
#CDTITLE:;
#SAMPLESTART:51.681;
#SAMPLELENGTH:12.998;
#SELECTABLE:YES;
#OFFSET:-0.013;
#BPMS:0.000=130.022;
#STOPS:62.750=0.461
,173.750=0.461
;
#SPEEDS:0.000=1.000=0.000=0;
#SCROLLS:0.000=1.000;
#TICKCOUNTS:0.000=4;
#TIMESIGNATURES:0.000=4=4;
#LABELS:0.000=Song Start;
#COMBOS:0.000=1;
#DISPLAYBPM:130.000;
#ORIGIN:;
#PREVIEWVID:;
#JACKET:[VIP1 Oni Mode] - ELECTRICAL PARADE ~Retro Future Mix~-jacket.png;
#CDIMAGE:;
#DISCIMAGE:;
#BGCHANGES:;
#FGCHANGES:;

//--------------- dance-single - forcednature ----------------
#NOTEDATA:;
#STEPSTYPE:dance-single;
#DESCRIPTION:forcednature;
#DIFFICULTY:Beginner;
#METER:2;
#RADARVALUES:0.158687,0.239421,0.031144,0,0,107,104,3,0,0,0,0,0,0,0.158687,0.239421,0.031144,0,0,107,104,3,0,0,0,0,0,0;
#DISPLAYBPM:130.000;
#CHARTNAME:;
#CHARTSTYLE:;
#CREDIT:;
#NOTES:
0000
0000
0000
0000
,
0000
0000
0000
0000
,
0000
0000
0000
0000
,
0000
0000
0000
0000
,
0001
0000
0100
0000
,
0010
0000
1000
0000
,
0100
0000
1000
0000
,
0001
0000
0000
0000
,
0010
0000
0001
0000
,
0100
0000
0010
0000
,
1000
0000
0001
0000
,
0100
0000
0000
0000
,
1001
0000
0000
0000
,
1001
0000
0000
0000
,
1001
0000
0000
0000
,
0000
0000
0010
1000
,
0000
0001
0000
0100
,
0000
0000
0000
0001
,
0000
1000
0000
0010
,
0000
0000
0000
1000
,
0000
0100
0000
0010
,
0000
0000
0000
0001
,
0000
0100
0000
0001
,
0000
0000
0000
0100
,
0001
0100
0001
1000
,
0100
1000
0100
1000
,
0001
1000
0001
0100
,
0010
0100
0010
1000
,
0000
0001
0000
0010
,
0000
0000
0000
0100
,
0000
1000
0000
0001
,
0000
0000
0000
0100
,
0000
0001
0000
1000
,
0000
0000
0000
0010
,
0000
1000
0000
0001
,
0000
0000
0000
1000
,
0001
1000
0000
0001
,
0100
0001
0000
0100
,
0010
0100
0000
0010
,
1000
0010
0000
1000
,
0100
0001
0000
0001
,
0100
1000
0000
1000
,
0100
0001
0000
0001
,
0100
1000
0010
0000
,
0010
0000
0100
0100
,
0100
0100
0010
0000
,
0010
0000
0100
0100
,
0100
0000
1000
0000
,
0001
0000
1000
0100
,
0001
0000
0100
0000
,
1000
0000
0001
0100
,
1000
0100
0000
0000
;

//--------------- dance-single - forcednature ----------------
#NOTEDATA:;
#STEPSTYPE:dance-single;
#DESCRIPTION:forcednature;
#DIFFICULTY:Easy;
#METER:4;
#RADARVALUES:0.318858,0.372433,0.114196,0.020763,0,215,204,11,2,0,0,0,0,0,0.318858,0.372433,0.114196,0.020763,0,215,204,11,2,0,0,0,0,0;
#DISPLAYBPM:130.000;
#CHARTNAME:;
#CHARTSTYLE:;
#CREDIT:;
#NOTES:
0000
0000
0000
0000
,
0000
0000
0000
0000
,
0000
0000
0000
0000
,
0000
0000
0000
0000
,
1000
0010
1000
0100
,
0010
0001
0100
0001
,
1000
0010
0100
0001
,
1000
0100
0010
0001
,
0100
0001
1000
0100
,
1000
0001
0100
0010
,
1000
0001
0010
0100
,
1000
0010
0100
0001
,
1001
0000
0000
0000
,
0110
0000
0000
0000
,
2002
0000
0000
0000
,
0000
3003
1001
0001
,
0001
0000
1000
0000
1000
0000
0010
1000
,
0010
0100
0000
0001
,
0001
0000
1000
0000
1000
0000
0100
0010
,
0100
1000
0000
0001
,
0001
0000
1000
0000
1000
0000
0010
1000
,
0010
0100
0001
1000
,
1000
0000
0100
0000
0100
0000
0010
0001
,
0010
0100
1000
1001
,
0100
1000
0100
0000
0100
0000
1001
0000
,
0100
0001
0100
0000
0100
0000
1001
0000
,
0010
1000
0010
0000
0010
0000
1001
0000
,
0010
0001
0010
0000
0010
0000
0001
0100
,
0001
0000
1000
0100
1000
0000
0010
0000
,
0100
0000
0001
0000
1000
0000
0100
1000
,
0100
0000
0010
0001
0010
0000
0001
0000
,
1000
0000
0010
0000
0100
0000
0001
0100
,
0001
0000
1000
0010
1000
0000
0001
0000
,
0010
0000
0100
0000
1000
0000
0010
1000
,
0010
0000
0100
0001
0100
0000
0001
0000
,
1000
0100
0010
0001
,
0001
0000
1000
0100
1000
0000
0001
0000
,
0001
0000
1000
0100
1000
0000
1000
0000
,
1000
0000
0001
0100
0001
0000
1001
0000
,
0000
0110
0000
0001
,
0001
0000
1000
0010
1000
0010
1000
0000
,
1000
0000
0001
0010
0001
0010
0001
0000
,
0001
0000
1000
0100
1000
0100
1000
0000
,
0001
0110
0001
0100
,
1000
0100
0001
0100
,
1000
0100
0001
0010
,
1000
0010
0001
0010
,
1000
0000
0010
0000
0001
0010
0001
0000
,
1000
0100
1000
0000
0010
0000
0100
0000
,
0001
0000
1000
0000
0001
0100
0001
0000
,
1000
0100
1000
0000
0010
0000
0100
0000
,
0001
0010
0000
0000
;

//--------------- dance-single - forcednature ----------------
#NOTEDATA:;
#STEPSTYPE:dance-single;
#DESCRIPTION:forcednature;
#DIFFICULTY:Medium;
#METER:7;
#RADARVALUES:0.479028,0.532047,0.186865,0.176484,0.010381,323,305,18,17,0,0,0,7,0,0.479028,0.532047,0.186865,0.176484,0.010381,323,305,18,17,0,0,0,7,0;
#DISPLAYBPM:130.000;
#CHARTNAME:;
#CHARTSTYLE:;
#CREDIT:;
#NOTES:
0000
0000
0000
0000
,
0000
0000
0000
0000
,
0000
0000
0000
0000
,
0000
0000
0000
0000
,
1000
0000
0001
0010
0000
0100
1000
0001
,
0100
0000
0010
1000
0000
0001
0010
1000
,
0010
0000
0001
1000
0000
0010
0100
1000
,
0100
0000
0001
1000
0000
0100
0010
0001
,
1000
0000
0001
1000
0000
0100
0001
0100
,
1000
0000
0010
0100
0000
0001
0010
1000
,
0010
0000
0001
1000
0000
0010
1000
0100
,
0001
0000
0100
0010
0000
0001
1000
0010
,
1001
0000
0000
0000
,
0110
0000
0000
0000
,
2002
0000
0000
0000
,
0000
0000
0000
0000
3003
0000
0000
0000
2002
0000
3003
L00L
1000
0000
0100
0000
,
0001
0000
0100
1000
0010
0100
0001
1000
,
0001
0010
1000
0010
0001
1000
0010
0100
,
0001
0000
1000
0010
0001
0010
1000
0100
,
0010
0001
0100
0001
1000
0000
0100
0010
,
0001
0000
1000
0100
0001
0100
1000
0001
,
0100
0010
1000
0010
0001
0010
1000
0001
,
0100
0000
0001
0010
1000
0010
0100
1000
,
0001
0100
0010
1000
0001
0000
1001
0001
,
0100
1000
0100
0001
0022
0033
0110
0100
,
1000
0001
0010
1000
2020
3030
1001
1000
,
0100
0001
0100
0010
0022
0033
1001
0001
,
0010
1000
0010
0001
0202
0303
0001
0100
,
0001
0100
0010
1000
0100
0010
0001
0100
,
0010
1000
0001
0010
0100
0000
1000
0001
,
1000
0100
0010
0001
0100
0001
1000
0010
,
1000
0100
0010
0001
0100
0000
0001
0010
,
0100
1000
0001
1000
0010
0100
0001
0010
,
0001
1000
0100
0010
0001
0000
0100
0001
,
1000
0100
1000
0001
0100
0010
1000
0100
,
0010
0001
0100
0010
1000
0000
0001
0100
,
1000
0100
0001
0000
1000
0000
0001
0100
,
1000
0100
0001
0000
1000
0000
0001
0010
,
1000
0000
0010
0000
0001
0000
0000
0000
1000
0000
0000
0000
0202
0000
0000
0303
,
0L0L
0000
0000
0000
2200
0000
0000
3300
LL00
0000
0000
0000
1000
0000
0010
0000
,
0001
0010
1000
0100
0010
0000
0001
0100
,
1000
0100
0001
0010
0100
0000
1000
0100
,
0001
0100
1000
0010
0100
0000
0001
0010
,
1000
0000
0010
0000
0200
0000
0300
0L00
1100
0000
1000
0000
0001
0000
0000
0000
,
0100
0001
1000
0000
0100
1000
0001
0010
,
1000
0010
0001
0000
0100
0001
1000
0000
,
0010
1000
0001
0000
0100
1000
0100
0001
,
0100
0010
1000
0000
0001
0010
0100
1000
,
0001
0100
1000
0100
0010
1000
0100
0001
,
0100
0010
0001
1000
0001
0100
0010
1000
,
0100
0001
0100
1000
0010
0100
0001
0010
,
1000
0010
0001
0000
0000
0000
0000
0000
;

//--------------- dance-single - forcednature ----------------
#NOTEDATA:;
#STEPSTYPE:dance-single;
#DESCRIPTION:forcednature;
#DIFFICULTY:Hard;
#METER:9;
#RADARVALUES:0.613986,0.691662,0.197247,0.093433,0.404875,414,395,19,9,0,0,0,7,0,0.613986,0.691662,0.197247,0.093433,0.404875,414,395,19,9,0,0,0,7,0;
#DISPLAYBPM:130.000;
#CHARTNAME:;
#CHARTSTYLE:;
#CREDIT:;
#NOTES:
0000
0000
0000
0000
,
0000
0000
0000
0000
,
0000
0000
0000
0000
,
0000
0000
0000
0000
,
1000
0001
1000
0000
0001
0000
0000
0000
0100
0001
0100
0000
0010
0000
0000
0000
,
1000
0100
1000
0000
0010
0000
0000
0000
1000
0001
1000
0000
0001
0000
0000
0000
,
0010
0001
0010
0000
0100
0000
0000
0000
1000
0001
1000
0000
0100
0000
0000
0000
,
0010
0001
0010
0000
0100
0000
0000
0000
1000
0001
1000
0000
0010
0000
0000
0000
,
0100
0001
0100
0000
0010
0000
0000
0000
1000
0001
1000
0000
0100
0000
0000
0000
,
1000
0100
1000
0000
0010
0000
0000
0000
0100
0001
0100
0000
0010
0000
0000
0000
,
1000
0001
1000
0000
0100
0000
0000
0000
1000
0010
1000
0000
0001
0000
0000
0000
,
0010
0001
0010
0000
0100
0000
0000
0000
1000
0100
1000
0000
0010
0000
0000
0000
,
1001
0000
0000
0000
,
0110
0000
0000
0000
,
2002
0000
0000
0000
,
0000
0000
0000
0000
3003
0000
0000
0000
2002
0000
3003
L00L
1000
0000
0100
0010
,
0100
0000
1000
0000
0001
0000
0100
0001
0100
0000
0010
0000
1000
0000
0001
0010
,
0001
0000
1000
0000
0001
0000
0100
0000
0010
0000
1000
0000
0100
0000
0010
0001
,
0010
0000
0100
0000
1000
0000
0001
0100
0001
0000
1000
0000
0010
0000
1000
0000
,
0001
0000
0010
0000
0100
0000
1000
0000
0001
0000
0000
0000
1000
0000
0001
0100
,
0001
0000
1000
0000
0100
0000
0010
0001
0010
0000
0100
0000
1000
0000
0001
0100
,
0001
0000
1000
0000
0010
0000
1000
0000
0001
0000
0010
0000
0100
0000
1000
0100
,
1000
0000
0010
0000
0100
0000
0001
0010
0001
0000
1000
0000
0010
0000
0100
0001
,
0100
0000
0010
0000
1000
0000
0100
0000
0010
0000
0000
0000
1001
0000
0001
0100
,
0000
0100
0010
0000
0010
1000
0000
1000
0100
0000
1100
0000
1001
0000
0001
0010
,
0000
0010
0100
0000
0100
1000
0000
1000
0001
0000
0101
0000
1001
0000
1000
0100
,
0000
0100
1000
0000
1000
0001
0000
0001
0010
0000
0011
0000
1001
0000
1000
0010
,
0000
0010
0100
0000
0100
0001
0000
0001
1000
0000
1010
0000
1001
0000
0001
0100
,
0010
0000
1000
0000
0100
0000
0010
0001
1000
0000
0001
0000
0100
0000
0010
1000
,
0100
0000
1000
0000
0100
0000
0001
0000
0100
0000
1000
0000
0001
0000
0100
0010
,
1000
0000
0100
0000
0010
0000
0001
1000
0100
0000
0010
0000
0001
0000
1000
0001
,
0100
0000
0010
0000
1000
0000
0010
0000
0001
0000
0000
0000
0010
0000
1000
0100
,
0010
0000
0001
0000
1000
0000
0001
1000
0010
0000
1000
0000
0001
0000
0100
0010
,
1000
0000
0100
0000
1000
0000
0010
0000
0001
0000
0010
0000
1000
0000
0001
0100
,
0010
0000
1000
0000
0100
0000
0010
0001
1000
0000
0001
0000
0100
0000
0010
1000
,
0100
0010
0001
1000
0010
0000
0100
0001
,
1000
0010
1000
0010
1000
0000
0001
0000
0010
0000
0100
0000
1000
0000
0010
0000
,
0100
0001
0100
0001
0100
0000
0001
0000
0010
0000
0100
0000
1000
0000
0001
0000
,
1000
0010
1000
0010
1000
0000
0001
0000
0010
0000
0100
0000
2002
0000
3003
L00L
,
0000
0000
0000
0000
2002
0000
3003
L00L
0000
0000
0000
0000
1001
0000
0001
0000
,
0100
0010
0100
0010
0100
0000
0010
0000
1000
0000
0001
0000
0010
0000
0100
0000
,
1000
0100
1000
0100
1000
0000
0010
0000
0100
0000
0001
0000
1000
0000
0001
0000
,
0010
0001
0010
0001
0010
0000
0001
0000
0100
0000
0010
0000
1000
0100
1000
0000
,
0001
0010
0001
0000
0002
0000
0003
000L
1000
0000
0100
0000
0001
0000
0100
0000
,
1000
0100
0010
0100
1000
0100
0001
0100
,
0010
0100
1000
0001
0100
1000
0100
0010
,
0100
0001
0100
1000
0100
0010
0100
1000
,
0100
0000
0001
0000
0100
0000
0000
0000
0010
0000
1000
0001
1000
0000
0001
0000
,
0010
0000
0001
0100
0001
0000
0100
0000
0010
0000
1000
0100
1000
0000
0100
0000
,
0001
0000
0100
0000
1000
0000
0100
0000
0010
0000
0001
1000
0001
0000
0100
0000
,
0010
0000
1000
0100
1000
0000
0001
0000
0100
0000
1000
0000
0100
0000
0001
0000
,
0100
1000
0100
0000
0000
0000
0000
0000
;

//--------------- dance-single - forcednature ----------------
#NOTEDATA:;
#STEPSTYPE:dance-single;
#DESCRIPTION:forcednature;
#DIFFICULTY:Challenge;
#METER:11;
#RADARVALUES:0.771191,0.771469,0.197247,0.155721,0.88242,520,501,19,15,0,0,2,7,0,0.771191,0.771469,0.197247,0.155721,0.88242,520,501,19,15,0,0,2,7,0;
#DISPLAYBPM:130.000;
#CHARTNAME:;
#CHARTSTYLE:;
#CREDIT:;
#NOTES:
0000
0000
0000
0000
,
0000
0000
0000
0000
,
0000
0000
0000
0000
,
0000
0000
0000
0000
,
0001
0010
0001
0000
1000
0000
0010
0000
0100
1000
0100
0000
0010
0000
1000
0000
,
0100
0010
0100
0000
1000
0000
0001
0000
0010
1000
0010
0000
0001
0000
0100
0000
,
0010
1000
0010
0000
0100
0000
0001
0000
1000
0100
1000
0000
0001
0000
0010
0000
,
0001
0100
0001
0000
1000
0000
0000
0000
0010
1000
0010
0000
0100
0000
0000
0000
,
0001
0100
0001
0000
1000
0000
0010
0000
0001
0010
0001
0000
0010
0000
1000
0000
,
0100
0010
0100
0000
1000
0000
0001
0000
0100
1000
0100
0000
0001
0000
0100
0000
,
0010
1000
0010
0000
1000
0000
0001
0000
0010
0001
0010
0000
0001
0000
0100
0000
,
0010
1000
0010
0000
0100
0000
0000
0000
0001
0010
0001
0000
1000
0000
0000
0000
,
1001
0000
0001
0100
0010
0000
1000
0000
0100
0000
0000
0001
0100
0000
1000
0000
,
1001
0000
1000
0100
0010
0000
0001
0000
0100
0000
0000
1000
0100
0000
0001
0000
,
4000
0004
0000
0000
0000
0000
0000
0000
0000
0000
0000
0000
0000
0000
0000
0000
,
0000
0000
0000
0000
0000
0000
0000
0000
0000
0003
0000
0000
3000
0000
0000
0000
0000
0000
0000
0000
0000
0000
0000
0000
0220
0000
0000
0000
0000
0000
0000
0000
0330
0LL0
0000
0000
0001
0000
0000
0000
0000
0000
1000
0000
0000
0100
0000
0000
,
0010
0000
1000
0000
0010
0000
0001
0010
0100
1000
0001
0010
0100
0000
1000
0001
,
0100
0001
1000
0010
1000
0001
1000
0100
0010
0001
1000
0001
0100
0000
0010
1000
,
0100
0000
0001
0000
0100
0000
1000
0100
0010
0100
1000
0001
0010
0100
1000
0001
,
1000
0010
0100
0001
1000
0010
1000
0001
0100
0000
0000
0000
0001
0000
1000
0100
,
0010
0000
1000
0000
0010
0000
0001
0010
0001
1000
0100
1000
0001
0000
1000
0010
,
1000
0001
1000
0100
0010
0001
1000
0001
0100
0001
0100
0010
1000
0000
0001
0010
,
0100
0000
0001
0000
0100
0000
1000
0100
0010
0001
0100
0010
1000
0001
1000
0000
,
0001
0000
0000
0000
0000
0000
0000
0000
0010
0000
0000
0000
0100
0000
0000
0000
1000
0000
0000
0000
0100
0000
0000
0000
0010
0000
0000
0000
0000
0000
0000
0000
0100
0000
0000
0000
0000
0000
0000
0000
0000
0000
0000
0000
0000
0000
0000
0000
1200
0000
0000
0000
0000
0000
0000
0000
0000
0000
0000
0000
0001
0000
0000
0300
,
0000
0000
0000
0000
0000
0000
0000
0000
0201
0000
0000
0000
0000
0000
0000
0000
0000
0000
0000
0000
1000
0000
0000
0300
0000
0000
0000
0000
1000
0000
0000
0000
0010
0000
0000
0000
0000
0000
0000
0000
0010
0000
0000
0000
0000
0000
0000
0000
0021
0000
0000
0000
0000
0000
0000
0000
0000
0000
0000
0000
1000
0000
0000
0030
,
0000
0000
0000
0000
0000
0000
0000
0000
1020
0000
0000
0000
0000
0000
0000
0000
0000
0000
0000
0000
0001
0000
0000
0030
0000
0000
0000
0000
0001
0000
0000
0000
0010
0000
0000
0000
0000
0000
0000
0000
0010
0000
0000
0000
0000
0000
0000
0000
1020
0000
0000
0000
0000
0000
0000
0000
0000
0000
0000
0000
0001
0000
0000
0030
,
0000
0000
0000
0000
0000
0000
0000
0000
0021
0000
0000
0000
0000
0000
0000
0000
0000
0000
0000
0000
1000
0000
0000
0030
0000
0000
0000
0000
1000
0000
0000
0000
0100
0000
0000
0000
0000
0000
0000
0000
0100
0000
0000
0000
0000
0000
0000
0000
0201
0000
0000
0000
0000
0000
0000
0000
0000
0000
0000
0000
1000
0000
0000
0300
,
0000
0000
0000
0000
0000
0000
0000
0000
1200
0000
0000
0000
0000
0000
0000
0000
0000
0000
0000
0000
0001
0000
0000
0300
0000
0000
0000
0000
0001
0000
0000
0000
0100
0000
0000
0000
0000
0000
0000
0000
0100
0000
0000
0000
0000
0000
0000
0000
1001
0000
0000
0000
0000
0000
0000
0000
1000
0000
0000
0000
0001
0000
0000
0000
,
0100
0000
1000
0000
0100
0000
0001
0010
0100
1000
0100
0010
0100
0000
1000
0001
,
0100
0001
1000
0010
1000
0100
0010
0001
1000
0001
0010
0100
1000
0000
0001
0010
,
0100
0000
0001
0000
0100
0000
1000
0010
0100
0010
1000
0001
0010
0100
1000
0001
,
0100
0001
1000
0010
1000
0001
0100
0010
1000
0000
0000
0000
0001
0000
1000
0010
,
0100
0000
1000
0000
0100
0000
0010
1000
0001
0010
0100
0010
0001
0000
1000
0001
,
0100
0001
1000
0010
1000
0001
0010
0100
1000
0001
0010
0001
1000
0000
0001
0100
,
0010
0000
0001
0000
0010
0000
1000
0100
0010
0100
1000
0001
0100
0001
1000
0010
,
1000
0001
0010
0001
0100
0010
1000
0100
0010
0000
0000
0000
0001
0000
1000
0000
,
0010
0100
0010
1000
0010
0000
0100
1000
0100
0000
0010
0000
1000
0000
0100
0000
,
0010
0001
0010
0100
0010
0000
0100
0001
0100
0000
1000
0000
0010
0000
1000
0000
,
0001
0000
0000
0100
0000
0000
0001
0000
0000
1000
0000
0000
0001
0000
0000
0000
0000
0000
0010
0000
0000
1000
0000
0000
0010
0000
0000
0000
0000
0000
0100
0000
0000
0000
0000
0000
2200
0000
0000
0000
0000
0000
0000
0000
3300
LL00
0000
0000
,
0000
0000
0000
0000
0000
0000
0000
0000
0000
0000
0000
0000
0202
0000
0000
0000
0000
0000
0000
0000
0303
0L0L
0000
0000
0000
0000
0000
0001
0000
0000
0100
0000
0000
0000
0000
0000
1001
0000
0000
0000
0000
0000
1000
0000
0000
0000
0000
0000
,
0001
0100
0001
1000
0001
0000
0010
1000
0010
0000
0100
0000
1000
0000
0001
0000
,
1000
0010
1000
0100
1000
0000
0010
0001
0010
0000
1000
0000
0001
0000
1000
0000
,
0001
0010
0001
0100
0001
0000
0100
1000
0100
0000
0001
0000
1000
0100
0010
0001
,
1000
0000
0000
0100
0000
0000
0010
0000
0000
0001
0000
0000
0200
0000
0000
0000
0000
0000
0000
0000
0300
0L00
0000
0000
0001
0000
0000
0000
0100
0000
0010
0000
0000
0000
0000
0000
1000
0000
0000
0000
0000
0000
0100
0000
0000
0000
0000
0000
,
0001
0000
0000
0100
0000
1000
0001
0000
0000
0000
0000
0000
0010
0000
0100
1000
0000
0000
0001
0000
0000
0100
0000
0000
,
1000
0000
0000
0100
0000
0001
1000
0000
0000
0000
0000
0000
0100
0000
1000
0001
0000
0000
0010
0000
0000
1000
0000
0000
,
0010
0000
0000
0001
0000
1000
0100
0000
0000
0000
0000
0000
0010
0000
0001
0100
0000
0000
0001
0000
0000
0010
0000
0000
,
1000
0000
0000
0000
0000
0000
0010
0000
0000
0000
0001
0000
0100
0000
0000
0000
0000
0000
0000
0000
0000
0000
0000
0000
1001
0000
0000
0000
0000
0000
1000
0000
0000
0010
0000
0000
0100
0000
0000
0000
0000
0000
1000
0000
0000
0000
0000
0000
,
0100
0000
0001
0100
0001
1000
0010
1000
0001
0000
0010
0100
1000
0001
1000
0100
,
0010
0001
0100
0010
0100
0001
1000
0010
0100
0000
0001
0010
0100
0000
0001
0000
,
0100
0000
1000
0001
0100
0010
0100
0001
1000
0010
0100
0010
1000
0001
1000
0100
,
1000
0001
0010
0001
0100
0000
0000
0000
0000
0000
0000
0000
0000
0000
0000
0000
;

//--------------- dance-double - forcednature ----------------
#NOTEDATA:;
#STEPSTYPE:dance-double;
#DESCRIPTION:forcednature;
#DIFFICULTY:Easy;
#METER:4;
#RADARVALUES:0.333688,0.372433,0.103814,0.020763,0.010381,225,215,10,2,0,0,0,0,0,0.333688,0.372433,0.103814,0.020763,0.010381,225,215,10,2,0,0,0,0,0;
#DISPLAYBPM:130.000;
#CHARTNAME:;
#CHARTSTYLE:;
#CREDIT:;
#NOTES:
00000000
00000000
00000000
00000000
,
00000000
00000000
00000000
00000000
,
00000000
00000000
00000000
00000000
,
00000000
00000000
00000000
00000000
,
00011000
01000000
00010000
10000000
,
01000000
00100000
00010000
01000000
,
00001000
00010000
00000100
00001000
,
00000001
00000100
00000010
00000000
,
00001000
01000000
00010000
10000000
,
01000000
00100000
00010000
01000000
,
00001000
00010000
00000100
00001000
,
00000001
00000100
00000010
00000000
,
00001001
00000000
00000000
00000000
,
00011000
00000000
00000000
00000000
,
20020000
00000000
00000000
00000000
,
00000000
00000000
00000000
00000000
30030000
00000000
00000000
00000000
00100000
00000000
00000000
00100000
10000000
00000000
01000000
00000000
,
10000000
00000000
00010000
00100000
00010000
00000000
01000000
00000000
,
00001000
00000000
00010000
00000000
00000010
00000000
00001000
00000001
,
00001000
00000000
00000010
00000100
00000010
00000000
00001000
00000000
,
00000100
00000000
00000010
00000000
00000001
00000000
00000100
00000001
,
00000100
00000000
00000010
00001000
00000010
00000000
00010000
00000000
,
00001000
00000000
01000000
00000000
00010000
00000000
10000000
01000000
,
10000000
00000000
00010000
00100000
00010000
00000000
10000000
00000000
,
00100000
01000000
00010000
11000000
,
00100000
00010000
00100000
00110000
,
00001000
00000100
00001000
00001100
,
00000010
00000001
00000010
00000011
,
00000001
00000000
00000100
00000000
00000001
00000000
00000100
00000001
,
00000100
00000000
00000010
00001000
00000010
00000000
00010000
00001000
,
00010000
00000000
00001000
00000000
01000000
00000000
00010000
00100000
,
00010000
00000000
10000000
00100000
10000000
00000000
00010000
01000000
,
00010000
00000000
10000000
00000000
01000000
00000000
00100000
00010000
,
00100000
00000000
00001000
00010000
00001000
00000000
00010000
00000010
,
00010000
00000000
00000100
00000000
00001000
00000000
00000001
00000100
,
00000001
00000000
00001000
00000100
00001000
00000000
00000001
00000010
,
00000001
00000000
00000100
00000000
00000010
00000000
00010000
00001000
,
00010000
00001000
00010000
00000000
00001000
00000000
01000000
00010000
,
01000000
00010000
01000000
00000000
00010000
00000000
10000000
01000000
,
10000000
01000000
10000000
00000000
01000000
00000000
00110000
00000000
,
00000000
00000000
00001010
00000000
00000000
00000000
00000001
00000100
,
00000001
00000100
00000001
00000000
00000010
00000000
00000100
00001000
,
00000100
00001000
00000100
00000000
00010000
00000000
00001000
01000000
,
00001000
01000000
00001000
00000000
00100000
00000000
00100000
00000000
,
00100000
00000000
00000000
00000000
01000000
00000000
00000000
01000000
10000000
00000000
00000000
00000000
01000000
00000000
00000000
00000000
,
00010000
00001000
00000100
00000001
,
00000100
00001000
00010000
01000000
,
10000000
01000000
00010000
00001000
,
00000100
00000000
00000001
00000000
00000001
00000100
00000001
00000000
,
00001000
00000100
00001000
00000000
00000010
00001000
00000010
00000000
,
00001000
00000000
00000100
00000000
00010000
00001000
00010000
00000000
,
00001000
00100000
00001000
00000000
00100000
01000000
00100000
00000000
,
01000000
10000000
00000000
00000000
;

//--------------- dance-double - forcednature ----------------
#NOTEDATA:;
#STEPSTYPE:dance-double;
#DESCRIPTION:forcednature;
#DIFFICULTY:Medium;
#METER:7;
#RADARVALUES:0.443435,0.478843,0.176484,0.093433,0.031144,299,282,17,9,0,0,0,7,0,0.443435,0.478843,0.176484,0.093433,0.031144,299,282,17,9,0,0,0,7,0;
#DISPLAYBPM:130.000;
#CHARTNAME:;
#CHARTSTYLE:;
#CREDIT:;
#NOTES:
00000000
00000000
00000000
00000000
,
00000000
00000000
00000000
00000000
,
00000000
00000000
00000000
00000000
,
00000000
00000000
00000000
00000000
,
00010000
00000000
00001000
01000000
00000000
00010000
10000000
01000000
,
00100000
00000000
01000000
10000000
00000000
00010000
01000000
00001000
,
00010000
00000000
00000100
00001000
00000000
00000001
00000010
00000100
,
00001000
00000000
00000001
00000100
00000000
00000010
00010000
00001000
,
00100000
00000000
00010000
10000000
00000000
01000000
00100000
00001000
,
00010000
00000000
00000010
00000100
00000000
00000001
00000100
00000010
,
00001000
00000000
00000001
00000010
00000000
00000100
00010000
00001000
,
01000000
00000000
00010000
10000000
00000000
01000000
00100000
00010000
,
01010000
00000000
00000000
00000000
,
00001100
00000000
00000000
00000000
,
00022000
00000000
00000000
00000000
,
00000000
00000000
00000000
00000000
00033000
00000000
00000000
00000000
00022000
00000000
00033000
000LL000
00010000
00000000
00001000
00000000
,
10000000
00010000
01000000
00100000
10000000
00000000
01000000
00100000
,
00010000
01000000
00001000
00010000
00000010
00000000
00001000
00000001
,
00000010
00000100
00001000
00000001
00000100
00000000
00000010
00010000
,
00001000
01000000
00010000
10000000
01000000
00000000
00100000
00010000
,
01000000
00001000
00010000
00000100
00001000
00000000
00000001
00000100
,
00000001
00001000
00000100
00000010
00000001
00000000
00001000
00000010
,
00010000
00001000
00100000
00010000
01000000
00000000
00100000
10000000
,
01000000
00000000
00100000
00000000
00010000
00000000
01000000
00000000
00001000
00000000
00000000
00000000
00011000
00000000
00000000
00001100
,
00000000
00000000
00000001
00000000
00000010
00000000
00000100
00000000
00001000
00000000
00000000
00000000
00001010
00000000
00000000
00011000
,
00000000
00000000
10000000
00000000
00100000
00000000
01000000
00000000
00010000
00000000
00000000
00000000
11000000
00000000
00000000
10010000
,
00000000
00000000
00010000
00000000
01000000
00000000
00001000
00000000
00010000
00000000
00000000
00000000
00010100
00000000
00000000
01001000
,
00000000
00001000
00010000
00000010
00001000
00000000
00000100
00010000
,
00001000
00000000
01000000
00001000
00010000
00000100
00001000
00000001
,
00000100
00000000
00000010
00001000
00000100
00000000
00000010
00000001
,
00000100
00000000
00000010
00010000
00001000
00100000
00010000
10000000
,
01000000
00000000
00100000
00010000
01000000
00000000
00001000
00010000
,
00000100
00000000
00001000
00000001
00000100
00000010
00001000
00000001
,
00000010
00000000
00000100
00010000
00001000
00000000
01000000
00010000
,
10000000
00000000
01000000
00100000
00010000
01000000
00001000
00010000
,
00000100
00000000
00001000
00000001
00000100
00000000
00000001
00000100
,
00000001
00000100
00000010
00000000
00010000
00000000
00001000
00100000
,
00001000
00100000
01000000
00000000
10000000
00000000
00010000
01000000
,
00010000
01000000
00001000
00000000
00010000
00000000
00002200
00003300
,
0000LL00
00000000
00000202
00000303
00000L0L
00000000
00000001
00000010
,
00000001
00000010
00000100
00000010
00000001
00000000
00001000
00000010
,
00001000
00000010
00001000
00000100
00001000
00000000
00000100
00010000
,
00000100
00010000
00001000
00010000
00000100
00000000
00010000
00001000
,
01000000
00000000
00010000
00000000
20000000
00000000
30000000
L0000000
10000000
00000000
01000000
00000000
00010000
00000000
00000000
00000000
,
01000000
00000000
10000000
00000000
00010000
01000000
00001000
00000000
,
00010000
00000000
00000100
00000000
00001000
00000001
00000100
00000000
,
00000010
00000000
00010000
00000000
00001000
00100000
01000000
00000000
,
10000000
00000000
00010000
00000000
01000000
00001000
00010000
00000000
,
00000100
00001000
00000001
00000100
00000010
00001000
00000100
00000010
,
00000001
00000100
00000010
00000000
00010000
00001000
01000000
00000000
,
00010000
10000000
01000000
00100000
00010000
01000000
00001000
00010000
,
00000100
00000010
00000001
00000000
00000000
00000000
00000000
00000000
;

//--------------- dance-double - forcednature ----------------
#NOTEDATA:;
#STEPSTYPE:dance-double;
#DESCRIPTION:forcednature;
#DIFFICULTY:Hard;
#METER:9;
#RADARVALUES:0.652546,0.691662,0.197247,0.07267,0.477545,440,421,19,7,0,0,0,7,0,0.652546,0.691662,0.197247,0.07267,0.477545,440,421,19,7,0,0,0,7,0;
#DISPLAYBPM:130.000;
#CHARTNAME:;
#CHARTSTYLE:;
#CREDIT:;
#NOTES:
00000000
00000000
00000000
00000000
,
00000000
00000000
00000000
00000000
,
00000000
00000000
00000000
00000000
,
00000000
00000000
00000000
00000000
,
00001000
00010000
01000000
10000000
01000000
00010000
00001000
00000100
,
00000001
00000100
00001000
00010000
00100000
10000000
00100000
00010000
,
00001000
00000010
00000001
00000010
00001000
00010000
00001000
00000100
,
00000001
00000010
00001000
00010000
01000000
10000000
00010000
00000000
,
10000000
01000000
00010000
00001000
00010000
00100000
10000000
01000000
,
00010000
00001000
00010000
00100000
10000000
01000000
00010000
00001000
,
00000010
00000001
00000100
00001000
00010000
00001000
00000010
00000001
,
00000100
00001000
00010000
00001000
00000010
00000001
00000100
00001000
,
00011000
00000000
00000000
00000000
,
10001000
00000000
00000000
00000000
,
00010001
00000000
00000000
00000000
,
00000000
00000000
00000000
00000000
00000000
00000000
00000000
00000000
00022000
00000000
00033000
000LL000
00010000
00000000
00001000
01000000
,
00010000
00000000
10000000
00000000
01000000
00000000
00100000
01000000
10000000
00000000
00010000
00000000
01000000
00000000
00001000
00010000
,
00000100
00000000
00001000
00000000
00000001
00000000
00000100
00000000
00001000
00000000
00000100
00000000
00000010
00000000
00001000
00000100
,
00010000
00000000
00001000
00000000
01000000
00000000
00010000
00100000
01000000
00000000
10000000
00000000
00010000
00000000
01000000
00100000
,
10000000
00000000
01000000
00000000
00100000
00000000
00010000
00000000
01000000
00000000
00000000
00000000
00001000
00000000
00010000
00000100
,
00001000
00000000
00000001
00000000
00000100
00000000
00000010
00001000
00000100
00000000
00000010
00000000
00000001
00000000
00000100
00000010
,
00010000
00000000
00001000
00000000
01000000
00000000
00010000
00000000
01000000
00000000
10000000
00000000
01000000
00000000
00100000
10000000
,
01000000
00000000
00100000
00000000
00010000
00000000
01000000
00001000
00010000
00000000
00000100
00000000
00001000
00000000
00000001
00000000
,
00000100
00000000
00000010
00000000
00001000
00000100
00000010
00000000
00000001
00000000
00000000
00000000
00001001
00000000
00001000
00000100
,
00000000
00000100
00010000
00000000
00010000
00001000
00000000
00001000
01000000
00000000
01010000
00000000
10100000
00000000
10000000
01000000
,
00000000
01000000
00100000
00000000
00100000
00010000
00000000
00010000
01000000
00000000
01010000
00000000
00101000
00000000
00001000
00010000
,
00000000
00010000
00000100
00000000
00000100
00001000
00000000
00001000
00000001
00000000
00000101
00000000
00001010
00000000
00001000
00000010
,
00000000
00000010
00010000
00000000
00010000
00001000
00000000
00001000
01000000
00000000
01001000
00000000
00110000
00000000
00100000
00010000
,
01000000
00000000
00010000
00000000
00100000
00000000
01000000
10000000
00010000
00000000
10000000
00000000
01000000
00000000
00100000
00010000
,
01000000
00000000
00001000
00010000
00000100
00000000
00001000
00000001
00000100
00000000
00000010
00000000
00001000
00000000
00000001
00000010
,
00000100
00000000
00001000
00000000
00000100
00000000
00010000
00001000
01000000
00000000
00010000
00000000
10000000
00000000
01000000
00100000
,
00010000
00000000
01000000
00100000
10000000
00000000
01000000
00100000
00010000
00000000
00000000
00000000
01000000
00000000
00001000
00010000
,
00000100
00000000
00001000
00000000
00000001
00000000
00000100
00000010
00001000
00000000
00000100
00000000
00000010
00000000
00000001
00001000
,
00000010
00000000
00010000
00001000
01000000
00000000
00010000
00100000
01000000
00000000
10000000
00000000
00010000
00000000
01000000
00100000
,
10000000
00000000
01000000
00000000
00100000
00000000
00010000
01000000
00001000
00000000
00010000
00000000
00000100
00000000
00001000
00000001
,
00000100
00000000
00000010
00001000
00000100
00000000
00010000
00001000
01000000
00000000
00000000
00000000
00010000
00000000
10000000
00000000
,
00100000
10000000
00100000
10000000
00100000
00000000
01000000
00010000
01000000
00000000
00010000
00000000
00100000
00000000
00001000
00000000
,
00010000
00001000
00010000
00001000
00010000
00000000
00000100
00001000
00000100
00000000
00001000
00000000
00000001
00000000
00000100
00000000
,
00000010
00001000
00000010
00001000
00000010
00000000
00001000
00000100
00001000
00000000
00000100
00000000
00022000
00000000
00033000
000LL000
,
00000000
00000000
00000000
00000000
00000000
00000000
00000000
00000000
00022000
00000000
00000000
00000000
00033000
000LL000
00000000
00000000
00000000
00000000
00000000
00000000
00000000
00000000
00000000
00000000
00011000
00000000
00000000
00000000
00001000
00000000
00000000
00000000
,
01000000
00010000
10000000
00100000
01000000
00000000
00100000
10000000
01000000
00000000
00100000
00000000
00010000
00000000
01000000
00000000
,
00001000
00010000
00000100
00001000
00000001
00000000
00001000
00000010
00000100
00000000
00000001
00000000
00001000
00000000
00000100
00000000
,
00010000
00001000
01000000
00010000
00100000
00000000
01000000
10000000
00010000
00000000
01000000
00000000
00100000
10000000
00100000
10000000
,
00010000
01000000
00010000
01000000
00020000
00000000
00030000
000L0000
00000001
00000100
00000001
00000000
00001000
00000000
00000100
00000000
,
00010000
00001000
00010000
00000000
00001000
00000000
00000000
00000000
00100000
00010000
00100000
00000000
01000000
00000000
10000000
00000000
,
00010000
01000000
00010000
00000000
01000000
00000000
00000000
00000000
00001000
00010000
00001000
00000000
00010000
00000000
00000100
00000000
,
00001000
00000001
00001000
00000000
00000001
00000000
00000000
00000000
00000100
00000010
00000100
00000000
00000001
00000000
00001000
00000000
,
00000100
00001000
00000100
00000000
00001000
00000000
00000000
00000000
00000010
00000000
00010000
00001000
01000000
00000000
00010000
00000000
,
00100000
00000000
01000000
10000000
00010000
00000000
01000000
00000000
00100000
00000000
10000000
01000000
00100000
00000000
01000000
00100000
,
00010000
00000000
01000000
00010000
00100000
00000000
00001000
00000000
00010000
00000000
00000100
00001000
00000001
00000000
00000100
00000000
,
00000010
00000000
00001000
00000100
00000010
00000000
00000001
00000000
00000100
00000000
00000010
00010000
00001000
00000000
01000000
00010000
,
10000000
00000000
00100000
10000000
01000000
00000000
00000000
00000000
00000000
00000000
00000000
00000000
00000000
00000000
00000000
00000000
;

//--------------- dance-double - forcednature ----------------
#NOTEDATA:;
#STEPSTYPE:dance-double;
#DESCRIPTION:forcednature;
#DIFFICULTY:Challenge;
#METER:11;
#RADARVALUES:0.803818,0.798071,0.342587,0.093433,0.846085,542,509,33,9,0,0,0,7,0,0.803818,0.798071,0.342587,0.093433,0.846085,542,509,33,9,0,0,0,7,0;
#DISPLAYBPM:130.000;
#CHARTNAME:;
#CHARTSTYLE:;
#CREDIT:;
#NOTES:
00000000
00000000
00000000
00000000
,
00000000
00000000
00000000
00000000
,
00000000
00000000
00000000
00000000
,
00000000
00000000
00000000
00000000
,
00010000
00000100
00001000
00000000
00000001
00000000
00000100
00000000
00000010
00001000
00000100
00000000
00010000
00000000
00001000
00000000
,
01000000
00010000
00100000
00000000
01000000
00000000
10000000
00000000
00010000
01000000
00100000
00000000
10000000
00000000
01000000
00000000
,
00100000
00010000
01000000
00000000
00001000
00000000
00010000
00000000
00000100
00001000
00000001
00000000
00000100
00000000
00000001
00000000
,
00001000
00000100
00010000
00000000
00001000
00000000
00000000
00000000
01000000
00010000
00100000
00000000
01000000
00000000
00000000
00000000
,
10000000
00010000
01000000
00000000
00001000
00000000
00010000
00000000
00000100
00001000
00000001
00000000
00000100
00000000
00000010
00000000
,
00001000
00000100
00000010
00000000
00000100
00000000
00001000
00000000
00000010
00010000
00001000
00000000
00100000
00000000
00010000
00000000
,
10000000
00100000
01000000
00000000
00010000
00000000
00100000
00000000
01000000
10000000
00010000
00000000
01000000
00000000
00001000
00000000
,
00010000
00000100
00001000
00000000
00000001
00000000
00000000
00000000
00000100
00000010
00001000
00000000
00000001
00000000
00000000
00000000
,
00001001
00000000
00000001
00000100
00000010
00000000
00001000
00000000
00000100
00000000
00000000
00010000
00001000
00000000
01000000
00000000
,
00011000
00000000
00010000
00001000
00100000
00000000
00010000
00000000
10000000
00000000
00000000
00100000
01000000
00000000
00010000
00000000
,
20020000
00000000
00000000
00000000
,
00000000
00000000
00000000
00000000
00000000
00000000
00000000
00000000
30030000
00000000
00000000
00000000
00000000
00000000
00000000
00000000
00022000
00000000
00000000
00000000
00000000
00033000
000LL000
00000000
00001000
00000000
00000000
00000000
00100000
00000000
00010000
00000000
,
01000000
00000000
00100000
00000000
10000000
00000000
01000000
00100000
00010000
01000000
00001000
00010000
00000100
00000000
00001000
00000001
,
00000100
00000010
00001000
00000100
00000010
00000001
00000100
00000010
00001000
00000100
00010000
00001000
01000000
00000000
00010000
00100000
,
00010000
00000000
10000000
00000000
00100000
00000000
10000000
01000000
00100000
00010000
01000000
00001000
00010000
00000100
00001000
00000001
,
00000100
00000010
00001000
00000001
00001000
00000100
00000010
00000001
00000100
00000000
00000000
00000000
00000001
00000000
00000010
00000100
,
00001000
00000000
00000010
00000000
00010000
00000000
00001000
00100000
00010000
10000000
00100000
01000000
00010000
00000000
10000000
01000000
,
00100000
01000000
10000000
00010000
01000000
00001000
00010000
00000100
00001000
00000001
00000100
00000010
00001000
00000000
00000001
00000010
,
00000100
00000000
00001000
00000000
00000100
00000000
00010000
00001000
01000000
00010000
00100000
00010000
10000000
00100000
01000000
00000000
,
00010000
00000000
00100000
01000000
10000000
01000000
00100000
00000000
00010000
00000000
00000000
00000000
01010000
00000000
01000000
00010000
,
10000000
00000000
10010000
00000000
10000000
01000000
00100000
00000000
00110000
00000000
00101000
00000000
00011000
00000000
00010000
00000010
,
00001000
00000000
00001001
00000000
00001000
00000001
00000100
00000000
00000101
00000000
00000110
00000000
00001010
00000000
00001000
00000100
,
00000010
00000000
00000110
00000000
00000100
00010000
00001000
00000000
00011000
00000000
01001000
00000000
01010000
00000000
00010000
00100000
,
01000000
00000000
11000000
00000000
10000000
00010000
01000000
00000000
01010000
00000000
01001000
00000000
00011000
00000000
00010000
00000010
,
00001000
00000000
00000001
00000000
00000100
00000000
00000010
00001000
00000100
00000010
00000001
00000100
00000010
00000000
00001000
00000100
,
00010000
00001000
01000000
00010000
10000000
01000000
00100000
00010000
00100000
01000000
10000000
00010000
01000000
00000000
00100000
10000000
,
01000000
00000000
00100000
00000000
00010000
00000000
01000000
00001000
00010000
00000010
00001000
00000001
00000100
00000010
00001000
00000001
,
00000100
00000010
00001000
00000100
00000010
00000001
00000010
00000100
00001000
00000000
00000000
00000000
00000100
00000000
00010000
00001000
,
00100000
00000000
00010000
00000000
10000000
00000000
00100000
01000000
00010000
10000000
01000000
00100000
00010000
00000000
01000000
00001000
,
00010000
00000100
00001000
00000001
00001000
00000010
00001000
00000100
00010000
00001000
01000000
00010000
00100000
00000000
01000000
10000000
,
00010000
00000000
10000000
00000000
00100000
00000000
01000000
00001000
00010000
00000100
00001000
00000001
00000100
00000010
00001000
00000100
,
00000010
00000001
00000100
00000010
00001000
00000100
00010000
00001000
01000000
00000000
00000000
00000000
01010000
00000000
01100000
00000000
,
10000000
01000000
00100000
01000000
10000000
00000000
00010000
01000000
00010000
00000000
00100000
00000000
00001000
00000000
00010000
00000000
,
00000010
00001000
00000001
00000100
00000010
00000000
00001000
00000100
00000010
00000000
00000001
00000000
00000101
00000000
00000011
00000000
,
00000001
00000100
00000010
00001000
00000100
00000000
00010000
00001000
01000000
00000000
00010000
00000000
20020000
00000000
30030000
L00L0000
,
00000000
00000000
00000000
00000000
00002002
00000000
00003003
0000L00L
00000000
00000000
00000000
00000000
00001001
00000000
00000001
00000000
,
00000010
00000100
00001000
00000100
00000010
00000000
00000100
00010000
00001000
00000000
01000000
00000000
00010000
00000000
10000000
00000000
,
00100000
10000000
01000000
00100000
00010000
00000000
01000000
00001000
00010000
00000000
00000100
00000000
00001000
00000000
00000001
00000000
,
00000010
00000001
00001000
00000010
00000100
00000000
00000010
00001000
00000100
00000000
00010000
00000000
00001000
01000000
00010000
10000000
,
01000000
00000000
00000000
00000000
00000000
00000000
00100000
00000000
00000000
00000000
00000000
00000000
00001000
00000000
00000000
00000000
00000000
00000000
00010000
00000000
00000000
00000000
00000000
00000000
00000200
00000000
00000000
00000000
00000000
00000000
00000000
00000000
00000000
00000000
00000000
00000000
00000000
00000000
00000000
00000300
00000000
00000000
00000L00
00000000
00000000
00000000
00000000
00000000
00010000
00000000
00000000
00000000
00000000
00000000
00000000
00000000
00001000
00000000
00000000
00000000
00100000
00000000
00000000
00000000
00000000
00000000
00000000
00000000
00000000
00000000
00000000
00000000
01000000
00000000
00000000
00000000
00000000
00000000
00000000
00000000
00000000
00000000
00000000
00000000
10000000
00000000
00000000
00000000
00000000
00000000
00000000
00000000
00000000
00000000
00000000
00000000
,
00010000
00000000
00000000
00100000
00000000
00001000
00010000
00000000
00000000
00000000
00000000
00000000
00000100
00000000
00001000
00000001
00000000
00000000
00000100
00000000
00000000
00000010
00000000
00000000
,
00001000
00000000
00000000
00000100
00000000
00010000
00001000
00000000
00000000
00000000
00000000
00000000
01000000
00000000
00010000
10000000
00000000
00000000
01000000
00000000
00000000
00100000
00000000
00000000
,
00010000
00000000
00000000
01000000
00000000
00001000
00010000
00000000
00000000
00000000
00000000
00000000
00000100
00000000
00001000
00000010
00000000
00000000
00000100
00000000
00000000
00000001
00000000
00000000
,
00001000
00000000
00001001
00000000
00001100
00000000
00000000
00000000
00000001
00000000
00000100
00000010
00000100
00000000
00000001
00000000
,
00001000
00000000
00000100
00010000
00001000
01000000
00010000
10000000
01000000
00000000
00100000
00010000
01000000
00100000
10000000
01000000
,
00100000
00010000
01000000
00001000
00010000
00000100
00001000
00000001
00000010
00000000
00000001
00000100
00000010
00000000
00000100
00000000
,
00000001
00000000
00001000
00000100
00010000
00001000
00100000
00010000
10000000
01000000
00100000
00010000
01000000
00100000
10000000
01000000
,
00100000
00010000
01000000
00100000
10000000
00000000
00000000
00000000
00000000
00000000
00000000
00000000
00000000
00000000
00000000
00000000
;
