#TITLE:Carry Me Away;
#SUBTITLE:;
#ARTIST:lapix;
#TITLETRANSLIT:;
#SUBTITLETRANSLIT:;
#ARTISTTRANSLIT:;
#GENRE:;
#CREDIT:;
#BANNER:Banner.png;
#BACKGROUND:Background.png;
#LYRICSPATH:;
#CDTITLE:;
#MUSIC:lapix - Carry Me Away.ogg;
#OFFSET:1.015998;
#SAMPLESTART:89.495911;
#SAMPLELENGTH:10.971428;
#SELECTABLE:YES;
#BPMS:0.000000=175.000000
;
#STOPS:
;
#BGCHANGES:3.000=Carry Me Away.avi=1.000=0=0=1=====,
99999=-nosongbg-=1.000=0=0=0 // don't automatically add -songbackground-
;
#KEYSOUNDS:;
#ATTACKS:;

//---------------dance-single - ----------------
#NOTES:
     dance-single:
     :
     Challenge:
     13:
     1.179517,1.198009,0.429344,0.206415,1.477934,1000.000000,948.000000,52.000000,25.000000,0.000000,0.000000,1.179517,1.198009,0.429344,0.206415,1.477934,1000.000000,948.000000,52.000000,25.000000,0.000000,0.000000:
0000
0000
0000
0000
,
0000
0000
0000
0000
0000
0010
1001
0000
,
0101
0000
0000
0000
0100
0001
0100
0001
1000
0000
0010
1000
0010
0000
1010
0000
,
0000
1000
0000
0101
0000
0100
0001
0010
,
0001
0000
1000
0000
0001
0000
0010
0001
0000
0001
0010
0000
0110
0000
0000
0000
,
1010
0000
0000
0000
0010
0000
0101
0000
0000
0000
0010
0001
0010
0100
1000
0000
,
0010
0000
1000
0000
0001
0000
0100
0000
0001
0000
0100
0010
1000
0100
0010
0000
,
0000
0000
0010
0001
0000
0000
0101
0000
0000
0000
0001
0000
0100
0000
0001
0000
,
1010
0000
0000
0000
0010
1000
0001
0000
0000
0000
1001
0000
1000
0010
1000
0010
,
0100
0000
0001
0000
0010
0001
1000
0000
0100
0010
0001
1000
0100
0000
1000
0000
,
1010
0000
1000
0000
0001
0000
1000
0000
0010
0000
0100
0010
0100
0000
0001
0000
,
0010
0000
0011
0000
0000
0000
0101
0000
0000
0000
0000
0001
0100
0000
0001
0000
,
0010
0000
0001
0000
1000
0000
0001
0000
0010
0000
0100
0010
0001
0000
1000
0000
,
0000
0000
1010
0000
0000
0000
0110
0000
0000
0000
1001
0000
0001
1000
0100
0000
,
1000
0001
1000
0001
0010
0001
0010
0001
,
1000
0100
1000
0100
0010
0001
0100
0001
0100
0010
1000
0001
1000
0100
0010
0001
,
0100
0001
0100
0001
0010
0001
0010
0001
1000
0100
1000
0100
1000
0010
1000
0010
,
1000
0001
1000
0000
0100
0010
0011
0000
,
2002
0000
3003
0000
0001
0100
0010
0100
0001
1000
0100
0010
0001
1000
0010
0000
,
0000
1010
0000
0000
0101
0000
0001
0010
0200
0000
0000
0000
0310
0000
0001
0000
,
0101
0000
0001
0000
1000
0001
1000
0010
0100
0000
0010
0100
0001
0000
1001
0000
,
1000
0000
0100
0000
1100
0000
1000
0000
0001
0100
0010
1000
0100
0010
0001
1000
,
0002
0000
0000
0000
1003
0010
1000
0010
0100
0001
1000
0000
0100
0000
0001
0000
,
0100
0000
1000
0010
1000
0000
0001
0010
0001
0000
0010
0100
1000
0010
0100
0001
,
1000
0000
1001
0000
0101
0000
0100
0000
0001
0010
0001
0010
0200
0000
0000
0000
,
0320
0000
0000
0032
0000
0000
2003
0000
0000
3020
0000
0000
0130
0000
0000
0000
,
1001
0000
0000
0000
0001
0100
0001
1000
0100
0001
0100
1000
0010
0100
0001
1000
,
0100
0000
0010
0001
0000
0001
0010
0000
0001
0100
0010
0100
0001
1000
0100
0010
,
0001
0100
0010
0000
1000
0000
1000
0100
0010
0100
0000
0110
0000
0011
0000
0000
,
0011
0000
0010
0001
0000
0001
0100
0000
1000
0000
0100
0000
0001
0000
1000
0000
,
0010
0000
0001
0000
1000
0001
1000
0001
0010
0000
0100
0000
0010
0001
1000
0000
,
0100
0000
1000
0001
0000
0001
1000
0000
0010
0000
1000
0000
0100
0010
0001
0000
,
1010
0000
0010
1000
0001
0000
1000
0000
0101
0000
0001
1000
0100
0000
0010
0000
,
0001
0010
0001
0010
0001
1000
0001
1000
0001
0100
0010
1000
0001
0000
0010
0000
,
0100
1000
0100
0010
0001
0100
0010
1000
0001
1000
0010
1000
0100
0000
0010
0000
,
0001
0100
0001
1000
0010
1000
0100
1000
0001
0010
0001
1000
0100
0000
0000
0000
,
0010
0100
0010
0100
1000
0100
0010
0001
0100
0001
1000
0010
0100
0000
0001
0000
,
0202
0303
0001
1000
,
1010
0000
0000
0000
0010
1000
0100
1000
0001
1000
0100
1000
0001
0100
0010
0100
,
0001
0010
0001
0010
0100
1000
0100
1000
0100
0010
0001
0100
0010
1000
0100
0010
,
0001
1000
0001
1000
0010
0100
0010
1000
0001
0100
0010
1000
0001
1000
0100
0010
,
0001
0000
1000
0000
0001
0000
1001
0001
,
0022
0000
0033
0000
0010
0000
0100
0010
0100
0000
1000
0000
0001
0000
1000
0010
,
0000
0000
0000
0000
1010
0000
1000
0010
0100
0000
0001
0000
1000
0000
0100
0000
,
0010
0000
0001
0000
0100
0001
0010
0100
1000
0000
0001
0000
1001
0000
1000
0000
,
0001
0000
0101
0000
1001
0000
0100
1000
0100
0000
0010
0000
0000
0000
0001
0000
,
0102
0000
0000
0000
2003
0000
0000
0000
3010
0000
0110
0000
0101
0000
1000
0001
,
0100
0010
0100
0000
0001
0000
0010
0100
1000
0000
0010
0000
0001
0000
0010
0000
,
2000
0000
0000
0000
3100
0010
0001
1000
0200
0000
1300
0001
0020
0000
0000
0000
,
0030
0000
0001
0000
0001
0000
1000
0001
0010
0100
0010
0001
0100
0000
0000
0000
,
0010
0000
0010
0000
0100
0001
0100
0010
0000
0010
1000
0000
0100
1000
0100
0000
,
0010
0001
0100
0000
0001
0000
1000
0010
0000
0010
0000
1000
0001
0010
0100
1000
,
0001
0100
0001
0000
1000
0001
1000
0100
0010
0000
0001
0000
1000
0001
1000
0000
,
0100
1000
0010
0000
0100
0010
0100
0001
1000
0000
0000
0101
0000
0000
1100
0000
,
1000
0000
0010
1000
0010
0100
0010
1000
0001
1000
0000
0100
0000
0100
0010
0000
,
0000
0010
0001
0000
1000
0000
0001
0010
0001
0000
0100
0001
1000
0000
0010
0000
,
1000
0000
0001
0000
0100
0001
0100
0010
1000
0000
0100
0000
0210
0000
0000
0000
,
0010
0010
0010
1300
,
0020
0000
0030
0000
1000
0010
2000
0000
3000
0000
0001
0000
0100
0001
0100
0001
,
2000
0000
3000
0000
0001
0010
0002
0000
0003
0000
0010
0000
0100
0000
1000
0001
,
1000
0000
0010
0000
1000
0001
0000
1000
0000
0100
0000
0100
0010
0000
0001
0000
,
1000
0001
0010
0001
1000
0010
0000
0100
0000
0001
0000
0001
1000
0000
0010
0000
,
0110
0010
1000
1000
,
0001
0001
0100
0100
0010
0010
1000
1000
,
0100
1000
0100
1000
0001
0010
0001
0010
0100
0010
0001
0100
0010
1000
0100
0010
,
0000
0000
0000
0000
0000
0000
0011
0001
,
1000
0100
0010
0001
0100
0001
1000
0010
0100
0010
1000
0001
0010
0001
1000
0100
,
0010
0001
1000
0010
0100
0001
0010
0100
0010
0001
1000
0100
1000
0010
0100
0010
,
1000
0001
0010
0001
1000
0001
0100
0001
1000
0010
1000
0100
0010
0001
0010
0100
,
1000
0001
0100
0010
0100
0001
1000
0001
0100
0010
1000
0100
0010
0001
0100
0010
,
1000
0001
0010
0100
1000
0100
0010
0001
1000
0001
0010
0001
0100
0010
0100
0001
,
1000
0010
0100
0010
1000
0100
0010
0001
0100
0001
1000
0010
1000
0100
0010
0001
,
0010
0001
0100
0010
1000
0001
0100
0001
1000
0100
0010
0100
1000
0001
0010
0100
,
1000
0010
1000
0001
0010
0001
1000
0100
0010
0001
0100
0010
1000
0000
0001
0000
,
0001
0100
0010
1000
0001
1000
0010
1000
0100
0010
0001
0010
0001
1000
0100
1000
,
0010
1000
0001
0100
0010
1000
0100
0010
0001
0010
0100
1000
0001
0100
0010
1000
,
0001
0010
0001
1000
0100
0010
0100
1000
0010
0100
0001
1000
0100
0010
0001
0010
,
0001
0100
0010
1000
0010
1000
0001
1000
0100
0010
0100
0010
0001
1000
0100
0010
,
0001
1000
0010
1000
0001
0010
0100
0010
0001
1000
0010
0100
0001
0000
1000
0000
,
1000
0010
0100
0010
1000
0001
0010
0100
1000
0000
0001
0000
0011
0000
0010
0001
,
0100
0010
0100
0010
1000
0000
0001
1000
0100
0000
0020
0000
0031
0000
1000
0000
,
0001
1000
0001
1000
0001
1000
0010
1000
0010
0100
0010
1000
0100
0010
0001
0010
,
0200
0000
0300
0000
0010
0001
0010
0001
0100
0010
1000
0001
0000
0001
1000
0010
,
0100
0001
0000
0001
0010
0100
1000
0000
1010
0000
0010
1000
0000
1000
0100
1000
,
0001
0100
0010
0100
0001
1000
0100
0010
0001
1000
0000
1010
0000
0011
0000
0000
,
0001
0000
0010
0100
0000
0100
1000
0000
1010
0000
1000
0001
1000
0100
0010
0001
,
1000
0100
0010
0001
1000
0100
0010
0001
1000
0100
0010
0001
1000
0100
0010
0001
,
1000
0100
0010
0001
1000
0100
0010
0001
1000
0100
0010
0001
1000
0100
0010
0001
;

//---------------dance-single - ----------------
#NOTES:
     dance-single:
     :
     Hard:
     12:
     0.975460,1.198009,0.247698,0.082566,0.904099,827.000000,797.000000,30.000000,10.000000,0.000000,0.000000,0.975460,1.198009,0.247698,0.082566,0.904099,827.000000,797.000000,30.000000,10.000000,0.000000,0.000000:
0000
0000
0000
0000
,
0000
0000
0000
0000
,
1001
0000
0000
0000
0001
0100
0001
0100
0010
0000
1000
0000
0000
0000
1100
0000
,
0000
0010
0000
0011
0000
0010
0001
1000
,
0010
0000
1000
0000
0010
0000
0100
0001
0000
0001
0100
0000
1001
0000
0000
0000
,
1010
0000
0000
0000
1000
0000
1100
0000
0000
0000
1000
0100
1000
0100
0010
0001
,
1000
0010
0001
1000
0100
0001
0010
0100
,
0000
0000
0100
1000
0000
0000
1010
0000
0000
0000
0010
0000
0100
0000
0001
0000
,
0011
0000
0000
0000
0010
0000
0110
0000
0000
0000
0100
0000
1000
0001
1000
0010
,
0100
0000
0010
0000
0100
0001
0100
0000
0001
0100
0010
1000
0100
0000
0010
0000
,
0001
0000
1000
0000
0100
0000
0010
0000
0001
0000
0100
0001
1000
0000
0010
0000
,
1000
0000
1000
0000
0100
0000
0010
0000
0000
0000
0000
0010
0001
0000
1000
0000
,
0001
1000
0100
0010
0001
0100
0010
0001
,
0010
1000
0100
0010
1000
0010
0001
1000
,
0001
0100
0001
0100
0010
1000
0001
1000
,
0100
0010
0100
0010
0001
1000
0100
1000
,
0010
1000
0010
1000
0001
1000
0001
1000
0001
0100
0001
0100
0001
0010
0001
0010
,
0100
0000
0100
0000
0010
0100
1001
0000
,
1000
0000
0010
0000
1000
0001
1000
0000
0001
0010
0001
0010
0100
1000
0100
0000
,
0000
0100
0000
0000
0100
0000
0010
0100
0010
0000
0000
0000
0010
0000
0001
0000
,
1000
0000
0010
1000
2100
3010
0100
0102
,
0013
0000
0100
0000
2001
0000
3010
0000
0001
0100
0010
1000
0100
1000
0100
1000
,
0001
0000
0000
0000
0010
0100
0010
0100
0010
0001
1000
0000
0100
0000
1000
0000
,
0010
0000
0100
0000
0001
0000
1000
0001
0010
0000
0100
0000
1000
0000
0001
0000
,
1000
0010
0100
0010
1000
0001
0010
0010
,
0012
0000
0000
1000
0000
0000
0103
0000
,
1001
0000
0000
0000
0010
1000
0010
0000
0100
0000
0001
1000
0000
1000
0001
1000
,
0100
0000
0000
0110
0000
0010
0001
0000
1001
0000
1000
0010
0000
0010
1000
0000
,
0001
0010
0001
0000
0100
0000
0001
1000
0001
1000
0000
0010
0000
0010
0000
0000
,
1000
0000
0001
0100
0000
0010
0100
0000
0001
0000
1000
0000
0100
0000
1000
0000
,
0001
0000
0100
0000
0010
1000
0010
1000
0010
0000
0100
0000
0001
1000
0001
0000
,
0100
0000
0001
0010
0000
0010
0001
0000
1000
0000
0100
0000
0001
0000
0100
0000
,
1000
0000
0010
1000
0010
0000
1000
0000
0001
0000
1000
0001
1000
0000
0100
0000
,
0020
0000
0001
0001
0100
1000
0031
0000
,
1001
0000
0001
1000
0100
0000
1000
0010
1000
0000
0010
0100
0010
0000
1000
0000
,
0001
0000
0100
0001
0100
0000
0001
0010
0001
0000
0010
0100
1000
0000
0000
0000
,
0001
0000
0001
0000
0101
0000
0100
0001
1000
0000
0010
1000
0010
0000
0100
0000
,
0020
0000
0030
0000
,
0010
0000
0010
1000
0001
1000
0100
1000
,
0001
0010
0001
1000
0001
0100
0001
0010
,
0100
1000
0100
0010
0001
0010
0001
1000
0001
0010
0100
1000
0100
0010
0001
0100
,
0010
0000
0010
0000
0010
0000
1010
1000
,
1001
0000
0000
0000
1000
0000
0001
0100
0000
0100
0001
0000
1000
0000
0010
0100
,
0000
0000
0000
0000
0010
0000
1000
0100
1000
0000
0001
0000
0010
0000
0100
0000
,
1001
0000
0000
0000
0100
0010
0100
0010
0100
0000
0001
0000
0100
0000
0010
0000
,
0000
0000
0010
0000
0010
0000
1000
0001
0010
0000
0100
0000
0000
0000
0100
0000
,
1000
0000
0000
0000
0020
0000
0000
0000
1030
0000
0001
0000
0001
0000
0010
0001
,
0000
0001
0010
0000
0100
0000
1000
0001
1000
0000
0010
0000
1000
0000
0100
0000
,
0010
0000
0000
0000
0100
1000
0100
0010
0001
0000
0010
0100
2000
0000
0000
0000
,
0000
0000
3100
0000
0100
0000
1000
0001
1000
0001
0100
0000
0001
0000
1000
0000
,
0010
0000
0010
0000
1000
0010
1000
0010
0000
0010
0100
0000
0001
1000
0001
0000
,
0001
0010
0001
0000
1000
0000
0100
1000
0000
0010
0000
0010
1000
0001
1000
0001
,
0100
0010
1000
0000
0001
1000
0100
0010
0000
0010
0100
0000
1000
0001
1000
0000
,
0001
0100
0001
0000
1000
0010
1000
0010
1000
0000
0000
1001
0000
0000
0110
0000
,
1010
0000
0010
1000
0001
1000
0001
0100
0001
1000
0001
0010
0100
1000
0001
0000
,
0000
1000
0001
0000
0001
0000
0100
0010
1000
0000
0100
0000
0001
0000
0100
0000
,
2000
0000
0000
0000
3010
0100
0010
0100
0001
0000
0010
0000
0012
0000
0000
0000
,
0000
0000
0000
0000
,
0013
0000
0010
0000
0001
0100
0000
0010
,
0000
1000
0000
0001
0000
1000
0100
0000
,
1000
0010
0000
0100
0001
0000
1000
0010
,
1000
0001
1000
0001
0100
0001
1000
0000
,
0010
1000
0100
0100
,
0010
0001
0010
0001
1000
0100
1000
0010
,
1000
0001
0100
0010
1000
0001
0100
0010
1000
0100
0010
0001
1000
0100
0010
0001
,
1000
0000
0000
0000
0000
0000
1001
0001
,
0101
0000
0100
0001
1000
0000
0010
1000
0100
0000
1000
0100
0010
0000
0100
0010
,
0100
0000
0010
0001
0010
0000
0001
0100
0001
0000
1000
0000
0010
0000
1000
0000
,
0001
0000
0010
0001
1000
0000
0100
1000
0010
0000
0100
0010
0100
0000
0001
0100
,
0010
0000
1000
0001
1000
0000
0001
0000
0100
0000
0010
0000
0100
0000
0001
0000
,
0010
0000
0100
1000
0001
0000
0010
0001
0100
0000
0001
0100
0001
0000
1000
0010
,
1000
0000
0001
1000
0100
0000
0010
0100
0010
0000
0001
0000
1000
0000
0001
0000
,
1000
0000
0010
0100
0001
0000
0010
0001
0010
0000
0001
1000
0001
0000
1000
0100
,
1000
0000
0010
1000
0001
0000
0100
0000
0010
0000
1000
0000
0010
0000
1000
0000
,
1001
0000
0001
1000
0010
0000
1000
0001
0100
0000
0010
0100
0001
0000
1000
0001
,
1000
0000
0001
0000
0010
0000
0100
0010
0001
0000
0010
0000
0100
0000
1000
0000
,
0010
0000
1000
0100
1000
0000
0001
1000
0001
0000
0010
0001
0010
0000
0001
0000
,
0100
0000
0010
0000
0100
0000
0010
0000
1000
0000
0001
0000
0010
0001
0010
0100
,
1000
0010
1000
0001
0100
0000
0001
1000
0001
1000
0100
0010
0001
0000
1000
0000
,
1000
0001
0100
0010
1000
0000
0001
0100
0001
0000
0100
0000
0100
0000
0010
0100
,
0010
0000
1000
0010
1000
0000
0001
1000
0001
0000
0100
0001
0010
0000
0100
0010
,
0001
0010
0100
1000
0010
0100
0010
1000
0001
0100
0010
1000
0100
0010
0001
1000
,
0100
0000
0000
0000
0010
0100
0010
0100
1000
0000
0010
1000
0000
1000
0010
0100
,
0010
0100
0000
0100
0001
1000
0001
0000
0010
0000
0010
0001
0000
0001
1000
0001
,
1000
0010
0100
0001
0100
0010
1000
0100
0010
0001
0000
1000
0000
1000
0000
0000
,
0001
0000
0100
0010
0000
0010
1000
0000
1010
0000
1000
0010
1000
0100
0010
0001
,
1000
0100
0010
0001
1000
0100
0010
0001
1000
0100
0010
0001
1000
0100
0010
0001
,
1000
0100
0010
0001
1000
0100
0010
0001
1000
0100
0010
0001
1000
0100
0010
0001
;

//---------------dance-single - ----------------
#NOTES:
     dance-single:
     :
     Medium:
     9:
     0.753711,1.198009,0.132106,0.156876,0.350906,639.000000,623.000000,16.000000,19.000000,0.000000,0.000000,0.753711,1.198009,0.132106,0.156876,0.350906,639.000000,623.000000,16.000000,19.000000,0.000000,0.000000:
0000
0000
0000
0000
,
0000
0000
0000
0000
,
1001
0000
0001
0000
0010
0001
0000
1100
,
0000
1000
0000
1010
0000
0010
1000
0001
,
1000
0000
0100
0000
1000
0000
0100
0010
0000
0010
0100
0000
1000
0000
0000
0000
,
1001
0000
0100
0001
0000
0011
0000
0010
,
0001
1000
0100
0001
0100
1000
0010
0200
,
0000
0301
0000
0021
0000
0130
1000
0001
,
0010
0000
0001
0100
0000
0100
0000
0000
,
0010
0000
1000
0000
0001
0100
0001
0000
1000
0100
1000
0000
0001
0000
0010
0000
,
0100
0000
1000
0000
0100
0000
0010
0000
0100
0000
0000
1000
0000
0000
1000
0000
,
0010
0000
1000
0000
0001
0000
0100
0000
0000
0000
0000
0010
0100
0000
0010
0000
,
1000
0000
0001
0000
0100
0000
0001
0000
0010
0000
0000
0001
0000
0000
0001
0000
,
0000
0110
0000
1100
0000
1001
0000
0000
,
0010
1000
0001
0100
0001
0010
0100
0010
,
0001
1000
0100
1000
0001
0100
0010
1000
,
0002
0023
0230
2300
,
3010
0100
0010
0000
1000
0010
1000
0000
,
0001
0000
0000
0000
0010
0001
0010
0000
0100
1000
0100
0000
1000
0000
0010
0000
,
0000
0010
0000
0000
0010
0000
1000
0000
0002
0000
0000
0000
0100
0000
1003
0000
,
1000
0000
0020
0000
1030
0100
0001
1000
,
0001
0100
1000
0100
0010
0001
0200
0000
,
0301
0000
0000
0000
1000
0001
1000
0001
1000
0000
0100
0000
1000
0000
0001
0000
,
0010
0100
1000
0010
1000
0001
0100
0010
,
1000
0001
0010
0001
0010
0100
1000
0000
,
0020
0000
0000
0030
,
0110
0000
0000
0000
0010
0000
0100
0000
0001
0000
0100
0001
0000
0100
0001
0000
,
1000
0000
0100
1000
0000
0100
1000
0000
0010
0000
0100
0010
0000
0100
0010
0000
,
1000
0000
0010
0000
1000
0000
0001
0000
0100
0010
0000
0010
0000
0010
0000
0000
,
1000
0000
0001
1000
0000
0001
1000
0000
0001
0000
0010
0000
0100
0000
1000
0000
,
0010
0000
0100
0000
0001
0000
0100
0000
0001
0000
1000
0000
0000
1000
0001
0000
,
0010
0000
0001
0010
0000
0001
0010
0000
0100
0000
1000
0000
0020
0000
1030
0000
,
0001
1000
0100
1000
0001
0100
0010
0100
,
0002
0000
0013
0100
1000
1000
1010
0000
,
0001
0000
1000
0001
1000
0000
0001
1000
0001
0000
0010
0000
0000
0000
0010
0000
,
0100
0000
1000
0100
1000
0000
0100
1000
0100
0000
0010
0000
0001
0000
0000
0000
,
0100
0000
0010
0100
0010
0000
0100
0010
0100
0000
0010
0000
0000
0000
1000
0000
,
0001
0000
0000
0000
,
0001
0000
0100
0001
0100
0010
0100
1000
,
0100
0001
1000
0010
0001
1000
0100
0010
,
0001
0000
0010
0001
0010
0000
0001
1000
0001
0000
1000
0100
0010
0000
0001
1000
,
0100
0100
0100
1001
,
0022
0000
0033
0000
1000
0000
0100
1000
0000
0000
1000
0000
0001
0000
0010
0001
,
0000
0000
0001
0000
1000
0000
0100
1000
0000
0000
1000
0000
0010
0000
0100
0000
,
0001
0000
0000
0000
1000
0000
0010
1000
0000
0000
1000
0000
0001
0000
0100
0001
,
0000
0000
1000
0000
1000
0000
0010
0100
0010
0000
1000
0000
0000
0000
1000
0000
,
2020
0000
3030
0000
0100
0000
0010
0000
1000
0000
0001
0000
0010
0000
0100
1000
,
0000
1000
0100
0000
0010
0000
0001
1000
0001
0000
0100
0000
0010
0000
1000
0000
,
0002
0000
0010
0000
0010
1003
1001
0000
,
0000
0001
0010
0001
1000
0010
1000
0000
,
0100
0000
0100
0000
0010
0000
0001
0010
0000
0000
0010
0000
0100
0010
0100
0000
,
0000
0100
1000
0000
0010
0000
1000
0001
0000
1000
0000
1000
0001
0000
0010
0000
,
0001
0010
0001
0000
1000
0000
0010
0000
1000
0000
0001
0000
0100
0000
0010
0000
,
0000
0010
0100
0000
0001
0000
1000
0000
0010
0000
0000
0010
0000
0000
0010
0000
,
1000
0000
0100
0000
0100
0000
0100
0000
0010
0001
0000
0010
0000
0010
0001
0000
,
0000
0100
0001
1000
0010
1000
0100
0010
,
0001
0000
0000
0000
1000
0000
0000
1000
0001
0000
0010
0000
0220
0000
0000
0000
,
0000
0000
0000
0330
,
1000
0000
0010
1000
0000
0010
1000
0000
,
0100
0000
0010
0100
0000
0010
0100
0000
,
0010
0000
0001
0010
0000
0001
1000
0000
,
0001
0000
0100
0010
0000
0100
0010
0000
,
1000
0001
1000
0100
,
0010
0001
0100
0010
,
1000
0010
1000
0100
0010
0001
1000
0100
,
0000
0000
0000
0000
0000
0000
0010
0100
,
0100
0001
0100
0010
1000
0010
1000
0100
,
0010
0100
1000
0001
0010
0100
0001
0100
,
1000
0010
1000
0001
0100
0001
0010
1000
,
0010
0001
0100
0010
1000
0100
1000
0001
,
0100
0010
0100
0001
1000
0100
0001
0100
,
0010
0001
0010
0100
1000
0010
0100
0001
,
0100
0001
0010
0001
0100
0001
1000
0010
,
1000
0100
1000
0010
0100
0010
1000
0001
,
0001
0100
0010
1000
0001
0100
0010
0100
,
0001
0010
1000
0010
0001
1000
0100
1000
,
0010
0100
0010
1000
0001
0100
0001
1000
,
0010
1000
0100
1000
0001
0100
0010
1000
,
0100
0001
0100
1000
0010
0100
0010
0001
,
1000
0100
0001
0010
0100
0001
0100
1000
,
0001
0010
0100
1000
0001
1000
0010
0100
,
0001
1000
0001
0000
1000
0000
0010
0000
,
1000
0000
0000
0000
0001
0000
0100
0000
0001
0000
1000
0010
0000
1000
0010
0000
,
1000
0000
0100
1000
0000
0100
1000
0000
0010
0000
0100
0001
0000
0100
0001
0000
,
0010
0000
0001
0000
1000
0000
0010
0000
1000
0001
0000
0001
0000
0001
0000
0000
,
0100
0000
0001
0000
0010
0000
0100
0000
1000
0000
0010
0000
1000
0001
1000
0001
,
1000
0001
1000
0001
1000
0001
1000
0001
1000
0001
1000
0001
1000
0001
1000
0001
,
1000
0001
1000
0001
1000
0001
1000
0001
1000
0001
1000
0001
1000
0001
1000
0001
;

//---------------dance-single - ----------------
#NOTES:
     dance-single:
     :
     Easy:
     7:
     0.489499,0.544937,0.165132,0.123849,0.012385,415.000000,395.000000,20.000000,15.000000,0.000000,0.000000,0.489499,0.544937,0.165132,0.123849,0.012385,415.000000,395.000000,20.000000,15.000000,0.000000,0.000000:
0000
0000
0000
0000
,
0000
0000
0000
0000
,
0010
0000
0010
0000
1000
0100
0000
0010
,
0000
0001
0000
1000
0000
0001
1000
0000
,
0010
1000
0010
0000
0000
0000
0110
0000
,
0100
0000
0001
0010
0000
0010
0000
0001
,
1000
0000
0100
0000
1000
0010
0000
1000
,
0000
0001
0000
0100
0000
0010
0100
0000
,
0001
0000
1000
0001
0000
0001
1000
0000
,
0010
0000
1000
0100
0000
0010
0000
0010
,
0001
0000
0100
0000
0001
0100
0001
0000
,
1000
0010
1000
0100
,
0010
0000
0001
0010
0000
0001
0000
0100
,
0001
0100
0000
0100
0010
0100
0000
0010
,
1000
0001
0100
0010
,
1000
0010
1000
0010
1000
0001
1000
0001
,
0100
0001
0010
0100
,
1000
0001
1000
0000
0010
0100
1001
0000
,
1000
0000
0001
0000
0010
0100
0010
0100
,
0000
0100
0000
0000
0100
0000
0000
0000
1100
0000
0000
0000
0010
0000
1000
0000
,
0010
0000
1000
0000
0001
0000
1000
0001
,
0000
0001
1000
0000
0010
1000
0010
0000
,
1000
0000
0001
0000
0010
0100
1000
0000
,
0001
0000
1000
0000
0010
1000
0001
0000
,
0100
0001
0010
0000
,
2000
0000
0000
3002
0000
0000
1003
0000
,
0010
0000
0010
1000
0010
0000
0010
0000
,
1000
0000
0001
1000
0001
0000
1000
0000
,
0100
0000
1000
0100
1000
0010
0100
0000
,
0001
0000
0100
0001
0100
0010
1000
0001
,
1000
0000
0001
0100
0010
0000
0100
0000
,
0001
0000
1000
0100
0010
0000
0001
0000
,
1000
0010
1000
0001
,
0020
0001
0001
0031
,
0010
0001
0010
0001
0010
0000
0001
0000
,
1000
0001
0100
0010
,
1000
0010
1000
0010
1000
0000
0010
0000
,
2002
0000
3003
0000
,
0000
0010
0100
0001
,
1000
0100
0010
0001
1000
0100
0010
0001
,
1000
0001
0010
0100
,
1000
1001
1001
0110
,
0010
0000
0100
0000
0001
0100
0000
0101
,
0000
0100
0001
0000
1000
0001
0000
0001
,
1000
0000
0010
0000
1000
0010
0000
1000
,
0000
1000
0001
0000
0010
0100
0000
0100
,
0010
0000
0002
0000
1003
0010
0000
1010
,
0000
0010
1000
0000
0100
0000
1000
0001
,
2000
0001
3001
0220
,
0330
0100
0001
1000
,
0010
0010
1000
0000
0001
0000
0010
0100
,
0000
0100
0010
0000
0001
0000
1000
0001
,
1000
0000
0010
0000
1000
0100
0000
1100
,
0000
0000
0100
0000
0010
0000
0000
0000
0001
0000
0000
0001
0000
0000
0001
0000
,
1000
0001
1000
0010
1000
0001
1000
0001
,
0000
0001
1000
0000
0100
0000
1000
0010
,
1000
0001
0010
0110
,
0000
0000
0000
0000
,
0100
0000
0000
0100
0000
0000
0100
0000
,
1000
0000
0000
1000
0000
0000
1000
0000
,
0001
1000
0000
1000
0001
0000
0001
1000
,
0000
1000
0010
0000
1000
0000
0001
0000
,
0010
0010
0100
0100
,
0010
0001
0010
0001
1000
0100
1000
0100
,
0020
0032
0203
0320
,
1030
0000
0000
1001
,
0010
0000
1000
0000
0001
1000
0000
0100
,
0000
0010
0000
0001
0000
0010
0001
0100
,
0010
1000
0001
0000
1000
0000
0001
0000
,
0010
0000
0100
1000
0000
1001
0000
0001
,
0100
0000
0010
0000
1000
0010
0000
0100
,
0000
0001
0000
1000
0000
0010
1000
0010
,
0100
0001
0010
0100
,
0010
0000
0001
1000
0000
1001
0000
0110
,
0000
0000
0010
0000
1000
0100
0000
0010
,
0000
0010
0001
0000
1000
0001
1000
0001
,
0000
1000
0010
1000
0000
0001
0000
0010
,
0000
0100
0000
0100
0000
0010
0000
0000
,
0011
0000
0001
0000
0100
0000
0001
1000
,
0000
1000
0010
0000
0100
0000
0010
0000
,
1010
1000
1100
0001
,
0100
0001
0100
0000
0000
0000
0000
0000
,
1000
0000
0000
1000
0001
0000
1000
0000
,
0001
0000
0000
0001
0000
0000
0001
0000
1000
0000
0000
0000
0010
0000
0000
0000
,
1000
0000
0001
0000
0010
0100
0010
0000
,
0010
0001
0010
0100
1000
0000
2002
0000
,
0000
0000
0000
0000
,
0000
0000
0000
0000
,
3003
0000
0000
0000
;

//---------------dance-single - ----------------
#NOTES:
     dance-single:
     :
     Beginner:
     4:
     0.290161,0.363291,0.024770,0.008257,0.000000,246.000000,243.000000,3.000000,1.000000,0.000000,0.000000,0.290161,0.363291,0.024770,0.008257,0.000000,246.000000,243.000000,3.000000,1.000000,0.000000,0.000000:
// measure 0
0000
0000
0000
0000
,  // measure 1
0000
0000
0000
0000
,  // measure 2
1001
0000
0000
0000
0000
0000
0000
0001
,  // measure 3
0000
0000
0000
1000
0000
0000
0000
0000
,  // measure 4
0010
0000
1000
0000
0000
1000
0001
0000
,  // measure 5
0010
0000
0000
0010
0000
0000
0000
0000
,  // measure 6
0001
0000
1000
0000
0001
0000
0000
0100
,  // measure 7
0000
0000
0000
0010
0000
0000
0000
0000
,  // measure 8
1000
0000
0000
0010
0000
0000
1000
0000
,  // measure 9
0001
0000
0000
1000
0000
0000
0001
0000
,  // measure 10
1000
0100
1000
0000
,  // measure 11
0001
0010
0001
0000
,  // measure 12
0100
0001
0100
0010
,  // measure 13
1000
0001
1000
0000
,  // measure 14
0100
0000
1000
0000
,  // measure 15
0010
0010
0010
0000
,  // measure 16
1000
0100
0010
0001
,  // measure 17
1000
0000
0000
0000
,  // measure 18
1001
0000
0000
0000
0010
0000
0000
0100
,  // measure 19
0000
0100
1000
0010
,  // measure 20
1000
0000
0001
0001
,  // measure 21
1000
1000
0010
0010
,  // measure 22
1000
0000
0100
0000
,  // measure 23
0010
0001
0010
0000
,  // measure 24
0001
1000
0100
0000
,  // measure 25
0010
0000
0000
0100
0000
0000
0010
0000
,  // measure 26
0001
0000
0000
0001
0000
0000
0001
0000
,  // measure 27
1000
0000
0000
1000
0000
0000
1000
0000
,  // measure 28
0010
0000
0000
0010
0000
0000
0010
0000
,  // measure 29
1000
0000
0000
1000
0001
0000
1000
0000
,  // measure 30
0100
0000
0000
0100
0000
0000
0100
0000
,  // measure 31
0010
0000
0000
0010
0000
0000
0000
0000
,  // measure 32
0010
0001
0010
0001
,  // measure 33
1000
0100
1000
1000
,  // measure 34
0010
1000
0000
1000
,  // measure 35
0001
1000
0100
0010
,  // measure 36
0001
1000
0000
1000
,  // measure 37
0001
0000
0000
0000
,  // measure 38
1000
0000
1000
0000
,  // measure 39
0010
0000
0010
0000
,  // measure 40
0100
0010
0100
0010
,  // measure 41
0100
0100
0100
0000
,  // measure 42
0001
0000
0010
0000
,  // measure 43
0000
0000
0010
0000
,  // measure 44
0001
1000
0100
0000
,  // measure 45
1000
0000
0010
1000
,  // measure 46
0010
0100
0010
0000
,  // measure 47
0100
0000
0001
0000
,  // measure 48
1000
0001
0010
0100
,  // measure 49
0000
0100
0010
0000
,  // measure 50
0010
0000
0001
1000
,  // measure 51
0010
0000
1000
0100
,  // measure 52
0010
0000
0001
1000
,  // measure 53
0100
1000
0010
0000
,  // measure 54
0100
0100
0100
0001
,  // measure 55
0000
0001
1000
0100
,  // measure 56
1000
0000
0001
0000
,  // measure 57
0010
0000
0001
1000
,  // measure 58
0001
0000
0000
0000
,  // measure 59
1000
0000
0000
0000
,  // measure 60
0010
0000
0010
0000
,  // measure 61
1000
0000
1000
0000
,  // measure 62
0100
0000
0100
0000
,  // measure 63
0010
0000
0001
0000
,  // measure 64
1000
0001
1000
0001
,  // measure 65
0000
0000
0000
1001
,  // measure 66
0001
0100
0010
1000
,  // measure 67
0001
0100
0010
1000
,  // measure 68
0100
0010
0000
0010
,  // measure 69
0001
0000
0000
1000
0000
0000
0000
0000
,  // measure 70
1000
0100
0010
0001
,  // measure 71
1000
0100
0010
0001
,  // measure 72
0100
0010
0000
0000
,  // measure 73
0010
0000
0000
0100
0000
0000
0000
0000
,  // measure 74
0100
0001
1000
0010
,  // measure 75
0100
0001
1000
0010
,  // measure 76
1000
0001
0010
0100
,  // measure 77
1000
0001
0010
0100
,  // measure 78
1000
0001
1000
0001
,  // measure 79
0100
0010
0100
0010
,  // measure 80
1000
1000
0001
0001
,  // measure 81
0010
0100
1000
0001
,  // measure 82
1000
0000
0000
1000
0000
0000
1000
0000
,  // measure 83
0001
0000
0000
0001
0000
0000
0001
0000
,  // measure 84
1000
0000
0000
0100
0000
0000
0100
0000
,  // measure 85
0010
0000
0000
0010
0000
0000
0020
0000
,  // measure 86
0000
0000
0000
0000
,  // measure 87
0000
0000
0000
0000
,  // measure 88
0030
0000
0000
0000
;
