#TITLE:XORUS;
#SUBTITLE:;
#ARTIST:ジオ vs 罰気;
#TITLETRANSLIT:;
#SUBTITLETRANSLIT:;
#ARTISTTRANSLIT:Jio vs Batsuki;
#GENRE:Jungle Mixture;
#CREDIT:;
#BANNER:[Timing Window] - XORUS.png;
#BACKGROUND:[Timing Window] - XORUS-bg.png;
#LYRICSPATH:;
#CDTITLE:cdtitle.png;
#MUSIC:[Timing Window] - XORUS.mp3;
#OFFSET:-0.056000;
#SAMPLESTART:42.736099;
#SAMPLELENGTH:15.000000;
#SELECTABLE:YES;
#BPMS:0.000000=180.000000
,308.000000=170.000000
,312.000000=160.000000
,314.000000=150.000000
,316.000000=140.000000
,318.000000=130.000000
;
#STOPS:
;
#BGCHANGES:;
#KEYSOUNDS:;
#ATTACKS:;

//---------------dance-single - ----------------
#NOTES:
     dance-single:
     :
     Hard:
     9:
     0.647084,0.786461,0.373025,0.150986,0.266446,510.000000,468.000000,42.000000,17.000000,0.000000,0.000000,0.647084,0.786461,0.373025,0.150986,0.266446,510.000000,468.000000,42.000000,17.000000,0.000000,0.000000:
// measure 0
0000
0000
0000
0000
,  // measure 1
0000
0000
0000
0000
,  // measure 2
0000
0000
0000
0000
,  // measure 3
0000
0000
0000
0000
,  // measure 4
0000
0000
0000
0000
,  // measure 5
0000
0000
0000
0000
,  // measure 6
0000
0000
0000
0000
,  // measure 7
0000
0000
0000
0000
,  // measure 8
1000
0001
0010
0100
,  // measure 9
1000
0100
0010
0001
,  // measure 10
1000
0010
0100
0001
,  // measure 11
0100
0001
0010
0001
,  // measure 12
0100
0101
0110
1010
,  // measure 13
1000
0011
0110
1100
,  // measure 14
1000
1001
0101
0011
,  // measure 15
0200
0000
0000
0000
0010
0000
0010
0000
0310
0000
0000
0100
0000
0000
0010
0000
,  // measure 16
1000
0000
0001
0000
1000
0000
0000
0000
0010
0000
0100
0000
0001
0010
0000
0001
,  // measure 17
1000
0000
0100
0000
1000
0000
0000
0000
0100
0000
0010
0000
0001
1000
0000
0001
,  // measure 18
1000
0000
0010
0000
1000
0000
0000
0000
0001
0000
0100
0000
0010
0100
0000
0010
,  // measure 19
0100
0000
0010
0000
0001
0000
0010
0000
1000
0000
0010
0000
0001
0000
0010
0001
,  // measure 20
0010
0000
1000
0000
0100
0000
0000
0000
0010
0000
0001
0000
1000
0001
0000
1000
,  // measure 21
0001
0000
0010
0000
0001
0000
0000
0000
0100
0000
0010
0000
1000
0010
0000
1000
,  // measure 22
0010
0000
1000
0000
0100
0000
0000
0000
0010
0000
0001
0000
1000
0100
0000
1000
,  // measure 23
0100
0000
1000
0000
0100
0000
0001
0000
0100
0000
1000
0000
0100
0000
1000
0100
,  // measure 24
1000
0001
1000
0010
0100
0010
1000
0010
,  // measure 25
0100
0001
1000
0100
1000
0001
0010
0100
,  // measure 26
1000
0100
0010
0001
0100
0001
0010
0100
,  // measure 27
1000
0000
0100
0000
0010
0100
0010
0000
0100
0000
0010
0000
0001
0000
1000
0001
,  // measure 28
1000
0010
0100
0001
1000
0010
0100
0010
,  // measure 29
1000
0100
1000
0000
0001
1000
0010
1000
,  // measure 30
0100
1000
0001
0100
0001
1000
0100
1000
,  // measure 31
0001
0000
0010
0000
0100
0010
0100
0000
1000
0000
0001
0000
1000
0001
1000
0001
,  // measure 32
2000
0010
0100
0010
,  // measure 33
0100
0001
0100
0001
,  // measure 34
3020
0100
1000
0001
,  // measure 35
0100
1000
0100
1000
,  // measure 36
0230
0010
0001
0010
,  // measure 37
0001
0010
1000
0010
,  // measure 38
0302
0000
0100
0100
0100
0000
1000
0000
,  // measure 39
0100
1000
0010
0100
,  // measure 40
0013
0011
0110
1010
,  // measure 41
1000
1001
0101
0011
,  // measure 42
0001
1001
0110
1001
,  // measure 43
0100
0110
0101
1100
,  // measure 44
1000
1010
1100
1001
,  // measure 45
0001
0101
0011
0101
,  // measure 46
1000
1100
0110
0101
,  // measure 47
0002
0000
0000
0000
0100
0000
0100
0000
0103
0000
0000
0000
0010
0100
0000
0010
,  // measure 48
0100
0000
0001
0000
0001
0000
0100
0000
0010
0000
1000
0000
0001
1000
0000
0001
,  // measure 49
1000
0000
0010
0000
0010
0000
0100
0000
0010
0000
1000
0000
0001
0100
0000
0001
,  // measure 50
0100
0000
0010
0000
0010
0000
1000
0000
0001
0000
0001
0000
1000
0100
0000
1000
,  // measure 51
0100
0000
1000
0000
0100
0000
0001
0000
0100
0000
1000
0000
0100
0000
1000
0001
,  // measure 52
1000
0000
1000
0000
0010
0000
0100
0000
0001
0000
0010
0000
0100
1000
0000
0100
,  // measure 53
1000
0000
0100
0000
0010
0000
0001
0000
0100
0000
0001
0000
0010
0100
0000
0010
,  // measure 54
0100
0000
1000
0000
1000
0000
0000
0000
0010
0000
0010
0000
0100
0001
0000
0100
,  // measure 55
0001
0000
0010
0000
1000
0000
0010
0000
0001
0000
0010
0000
1000
0000
0010
0001
,  // measure 56
0010
0000
0100
0000
0100
0000
1000
0000
0010
0000
0010
0000
0100
0001
0100
0001
,  // measure 57
0100
0000
0010
0000
1000
0000
0100
0000
1000
0000
0001
0000
0100
0010
0000
0100
,  // measure 58
0010
0000
1000
0000
0001
0010
0001
0000
1000
0000
0001
0100
0001
0000
0010
0001
,  // measure 59
0010
0000
0100
0000
0100
0000
1000
0000
0010
0000
0010
0000
1000
0100
1000
0100
,  // measure 60
1000
0000
0001
0000
0100
0000
0001
0000
0010
0000
0001
0000
0100
0001
0000
0100
,  // measure 61
0001
0000
1000
0010
1000
0000
0010
0000
0100
0000
0100
0000
0010
0100
0000
0010
,  // measure 62
0100
0000
0001
0000
0010
0001
0010
0000
0100
0000
1000
0001
1000
0001
0000
1000
,  // measure 63
0001
0000
0100
0000
1000
0000
0100
0000
0001
0000
0100
0000
1000
0000
0100
0001
,  // measure 64
0200
0000
0000
0000
0001
0000
0001
0000
0301
0000
0000
0100
0010
0000
0000
0000
,  // measure 65
0100
0000
0000
0000
0001
0000
1000
0000
0001
0000
0000
0010
0100
0000
0000
0000
,  // measure 66
1000
0000
0000
0000
0100
0000
0010
0000
0001
0000
0000
0010
0001
0000
0000
0000
,  // measure 67
0200
0000
0000
0000
0310
0000
0100
0000
0010
0000
0000
1000
0001
0000
0000
0000
,  // measure 68
1000
0010
0100
0000
0010
0100
0001
0000
,  // measure 69
1000
0010
0100
0000
0001
0010
0100
0010
,  // measure 70
0002
0000
0103
0010
0100
0000
0010
0000
,  // measure 71
1000
0000
0001
1000
0001
0000
0110
0000
0200
0000
0000
0000
0010
0000
0000
0000
,  // measure 72
0301
0101
0011
0101
,  // measure 73
1000
1010
1100
1010
,  // measure 74
0002
0100
0013
0100
,  // measure 75
1000
1100
0110
0101
,  // measure 76
0001
0010
0001
1000
,  // measure 77
0010
0001
0010
1000
,  // measure 78
0100
0110
0101
0200
,  // measure 79
0320
2030
3020
0032
,  // measure 80
0023
0000
0030
0000
;

//---------------dance-single - ----------------
#NOTES:
     dance-single:
     :
     Medium:
     7:
     0.431389,0.571972,0.319736,0.079934,0.000000,340.000000,304.000000,36.000000,9.000000,0.000000,0.000000,0.431389,0.571972,0.319736,0.079934,0.000000,340.000000,304.000000,36.000000,9.000000,0.000000,0.000000:
0000
0000
0000
0000
,
0000
0000
0000
0000
,
0000
0000
0000
0000
,
0000
0000
0000
0000
,
0000
0000
0000
0000
,
0000
0000
0000
0000
,
0000
0000
0000
0000
,
0000
0000
0000
0000
,
0001
1000
0001
1000
,
0100
1000
0001
0100
,
0001
0010
0001
1000
,
0001
1000
0001
0100
,
0001
1000
0100
1000
,
0010
0100
0001
0010
,
0100
1000
0010
1000
,
0001
0100
0010
0100
,
0001
0110
0000
0001
,
1000
1001
0000
0001
,
1000
1100
0000
1010
,
0001
0100
0100
0100
,
0001
1100
0100
0010
,
0001
1000
0100
1000
,
0001
0100
0001
1001
,
0010
0000
1000
0001
1000
0001
1000
0000
,
0010
0100
0010
0110
,
0100
0001
0100
0011
,
0010
0001
1000
0010
,
1000
0100
1001
1001
,
1001
0010
0100
1010
,
0010
0100
0010
0101
,
0001
0000
1000
0000
0010
0000
1000
0001
,
1000
0010
0110
0110
,
0210
0000
0310
0000
,
0010
0000
0010
0000
,
1000
0000
1000
0000
,
0001
0000
0001
0000
,
1000
0010
1000
0010
,
0100
0001
0100
0001
,
0010
0001
0010
0001
,
1000
0001
1000
0001
,
1000
0110
1000
0000
,
0100
0011
0010
0000
,
0001
1001
0100
0000
,
0010
1100
1100
1100
,
0001
0100
0010
1000
,
0100
0010
0001
0010
,
0100
1000
0010
1000
,
0002
0000
0000
0000
,
1003
0000
0010
0000
1000
0010
0000
0010
,
1000
0001
0100
1001
,
0100
0000
0010
0000
1000
0001
0000
0001
,
1000
0000
0100
0000
0010
0001
0010
0001
,
0010
0000
0100
0000
1000
0100
0000
0100
,
1000
0001
0010
1100
,
0010
0000
0100
0000
0010
0100
0000
0100
,
0010
0000
1000
0000
0100
0010
0100
0010
,
0100
0000
1000
0001
1000
0000
1000
0100
,
1000
0000
0010
0010
0100
0010
0010
0010
,
0100
0000
0001
0100
0001
0000
0001
1000
,
0001
1000
0100
0100
0100
0100
0100
0100
,
0010
0000
0110
0000
0001
0000
0010
0010
,
0010
0000
0101
0000
0001
0000
1000
1000
,
1000
0010
0110
0110
,
1001
0000
1000
1000
0010
0010
1000
0100
,
1000
0001
0101
0001
,
0010
0001
1001
1000
,
0010
0100
0110
0001
,
2000
0010
3001
0100
,
0001
0001
0001
0000
1000
0000
0010
0000
,
0100
0100
0100
0000
0010
0000
0100
0000
,
0001
0001
0001
0000
1000
1000
1000
0000
,
0010
0000
0110
0100
0110
0000
1001
0000
,
1000
0001
1000
0001
,
0100
0010
0100
0010
,
1001
0100
0001
0010
,
0100
1000
0010
1000
,
0001
0010
0100
1000
,
0010
0100
0010
1000
,
0001
0010
0001
2000
,
3020
0230
0302
0203
,
0320
0000
0030
0000
;

//---------------dance-single - ----------------
#NOTES:
     dance-single:
     :
     Easy:
     3:
     0.243608,0.357482,0.142105,0.168749,0.000000,192.000000,176.000000,16.000000,19.000000,0.000000,0.000000,0.243608,0.357482,0.142105,0.168749,0.000000,192.000000,176.000000,16.000000,19.000000,0.000000,0.000000:
0000
0000
0000
0000
,
0000
0000
0000
0000
,
0000
0000
0000
0000
,
0000
0000
0000
0000
,
0000
0000
0000
0000
,
0000
0000
0000
0000
,
0000
0000
0000
0000
,
0000
0000
0000
0000
,
0001
0000
0001
0000
,
0100
0000
0100
0000
,
0010
0000
0010
0000
,
1000
0000
1000
0000
,
0001
0000
0001
0000
,
1000
0010
1000
0010
,
1000
0000
1000
0000
,
0010
0100
0010
0100
,
0010
0000
1000
0000
,
0100
0000
0010
0000
,
0001
0000
0100
0010
,
0100
0000
0001
0101
,
0001
0000
0001
0000
,
1000
0000
1000
0000
,
0010
0000
0100
0010
,
0100
0001
0100
0010
,
1000
0000
1010
0000
,
0001
0100
0001
0000
,
0010
0000
1001
0000
,
0010
0000
0100
0010
,
0100
0000
1001
0000
,
0010
0000
0010
0000
,
0100
0000
0100
0000
,
0001
0010
0100
1000
,
0002
0000
0000
0000
,
2003
0000
0000
0000
,
3002
0000
0000
0000
,
0203
0000
0000
0000
,
0320
0000
0000
0000
,
0130
0010
0100
0010
,
0200
0000
0000
0000
,
0301
0100
0001
0100
,
0001
0000
1001
0000
,
0100
0000
0110
0000
,
1000
0000
1010
0000
,
0001
0000
0011
0000
,
0001
0000
1010
0000
,
0010
0000
0110
0000
,
0100
0001
0100
0001
,
0200
0000
0000
0000
,
0301
0010
0100
1000
,
0001
0000
1000
0000
,
0010
0100
0010
0100
,
0010
0000
1000
0000
,
0001
0100
0010
1000
,
0001
0000
0001
0000
,
0100
0010
0100
0010
,
0100
0000
0010
0000
,
1000
0100
0010
0001
,
1000
0001
1000
0001
,
0100
0000
0101
0000
,
0011
0000
1010
0000
,
1000
0001
1000
0010
,
0100
0010
0100
0010
,
1000
0001
1001
0000
,
0110
0000
1001
0001
,
1000
0000
1000
0000
,
0010
0000
0010
0000
,
0100
0000
0100
0000
,
0001
0000
0001
0000
,
1000
0100
1000
0000
,
0001
0100
0001
0000
,
0010
0100
0010
0100
,
1000
0001
1000
0001
,
2000
0000
0000
0000
,
3002
0000
0000
0000
,
0203
0000
0000
0000
,
0302
0000
0000
0000
,
0023
0000
0000
0000
,
0230
0000
2000
3300
,
2000
0000
0002
3003
,
0002
0000
0200
0303
,
0020
0000
0030
0000
;
