#VERSION:0.83;
#TITLE:Wheelpower & Go!;
#SUBTITLE:;
#ARTIST:Dejo & Bon;
#TITLETRANSLIT:;
#SUBTITLETRANSLIT:;
#ARTISTTRANSLIT:;
#GENRE:;
#ORIGIN:;
#CREDIT:;
#BANNER:;
#BACKGROUND:;
#PREVIEWVID:;
#JACKET:;
#CDIMAGE:;
#DISCIMAGE:;
#LYRICSPATH:;
#CDTITLE:;
#MUSIC:Wheelpower & Go.ogg;
#OFFSET:0.000000;
#SAMPLESTART:24.632000;
#SAMPLELENGTH:12.308000;
#SELECTABLE:YES;
#DISPLAYBPM:156.000000;
#BPMS:0.000=156.000,
132.000=78.000,
150.000=156.000,
182.000=78.000,
200.000=156.000;
#STOPS:;
#DELAYS:;
#WARPS:;
#TIMESIGNATURES:0.000=4=4;
#TICKCOUNTS:0.000=4;
#COMBOS:0.000=1;
#SPEEDS:0.000=1.000=0.000=0;
#SCROLLS:0.000=1.000;
#FAKES:;
#LABELS:0.000=Song Start;
#BGCHANGES:;
#KEYSOUNDS:;
#ATTACKS:
;

//---------------dance-single - ----------------
#NOTEDATA:;
#CHARTNAME:;
#STEPSTYPE:dance-single;
#DESCRIPTION:;
#CHARTSTYLE:;
#DIFFICULTY:Hard;
#METER:9;
#RADARVALUES:0.537530,0.612924,0.245763,0.059322,0.241525,444.000000,415.000000,29.000000,7.000000,5.000000,0.000000,0.000000,0.000000,0.000000,0.537530,0.612924,0.245763,0.059322,0.241525,444.000000,415.000000,29.000000,7.000000,5.000000,0.000000,0.000000,0.000000,0.000000;
#CREDIT:;
#DISPLAYBPM:156.000000;
#NOTES:
0000
0000
0000
0000
,
0000
0000
0000
0000
,
0000
0000
0000
0000
,
0000
0000
0000
0000
,
0001
0000
0001
0000
1000
0010
0000
0010
,
0100
0000
0100
0000
0001
0010
0000
0010
,
0100
0000
0100
0000
1000
0010
0000
0010
,
1000
0010
1000
0010
1000
0000
0000
0000
0001
0100
0001
0100
0001
0000
0000
0000
,
1000
0000
0100
0000
0010
0000
0100
0000
1000
0000
0010
0000
0100
0010
0100
0000
,
0001
0001
1000
1000
0010
0010
0100
0000
,
0001
0000
1000
0000
1000
0000
0100
0000
0100
0000
0010
0000
0001
0010
0001
0000
,
1000
1000
0001
0001
0100
0100
0010
0000
,
1000
0000
0010
0000
0100
0000
0010
0000
1000
0000
0100
0000
0010
0100
0010
0000
,
0001
0001
1000
1000
0100
0100
0010
0000
,
0001
0000
1000
0000
1000
0000
0010
0000
0010
0000
0100
0000
0001
0100
0001
0000
,
1000
0000
1000
0000
0001
0000
0001
0000
1000
0100
1000
0100
1000
0000
0000
0000
,
1001
0000
0001
0000
0010
0100
1000
0100
,
0110
0000
0010
0000
0001
0000
0100
0010
,
0110
0000
0100
0000
0001
1000
0000
0100
,
0000
0100
0000
0010
0000
0010
0000
0000
,
0011
0000
0001
0000
1000
0010
0100
0010
,
1010
0000
1000
0000
0001
0010
0100
0000
,
1000
0001
0000
0100
0000
0100
0000
0010
,
0000
0010
0000
1000
0100
1000
0000
0000
,
0001
0100
0001
0100
0001
0000
0000
0000
1000
0100
1000
0100
1000
0000
0000
0000
,
0001
0000
0010
0000
0100
0000
0010
0000
0001
0000
0100
0000
0010
0100
0010
0000
,
1000
1000
0001
0001
0100
0100
0010
0000
,
1000
0000
0001
0000
0001
0000
0010
0000
0010
0000
0100
0000
1000
0100
1000
0000
,
0001
0001
1000
1000
0010
0010
0100
0000
,
0001
0000
0100
0000
0010
0000
0100
0000
0001
0000
0010
0000
0100
0010
0100
0000
,
1000
1000
0001
0001
0010
0010
0100
0000
,
1000
0000
0001
0000
0001
0000
0100
0000
0100
0000
0010
0000
1000
0010
1000
0000
,
0001
0000
0001
0000
1000
0000
1000
0000
0001
0010
0001
0010
0001
0000
0000
0000
,
1000
0000
1010
0000
0000
0000
0000
0000
1000
0000
1001
0000
0000
0001
0000
0001
,
0010
0000
0110
0000
0000
0100
1000
0000
0001
0000
1001
0000
0000
1000
0000
1000
,
0010
0000
0110
0000
0000
0100
0001
0000
1000
0000
1001
0000
0000
0001
0000
0001
,
0100
0000
0110
0000
0000
0010
1000
0000
0001
0000
1001
0000
0000
1000
0000
1000
,
0100
0000
0110
0000
0000
0010
0001
0000
0M12
0000
0000
0000
1000
0000
0000
0000
,
0010
1003
2100
0001
,
0100
3001
0102
1000
,
0100
1003
2010
0001
,
0010
3001
1020
0100
,
1000
0130
0210
0001
,
0010
0301
0102
1000
,
0100
0000
0000
0000
1003
0000
0000
0000
1010
0000
0000
1001
0000
0000
0011
0000
,
0000
0000
MMMM
0000
,
0001
0000
0001
0000
1000
0010
1000
0010
0100
0000
0001
0000
0001
0000
1000
0100
,
1000
0000
0001
0000
0001
1000
0000
1000
0000
0010
0000
0010
0000
0100
0000
0000
,
0001
0000
0001
0000
1000
0100
1000
0100
0010
0000
0001
0000
1000
0010
1000
0000
,
0001
1000
0000
0100
0000
0100
0000
0010
0000
0010
0000
0001
0100
0001
0000
0000
,
1001
0000
1000
0000
0010
0100
0001
0100
,
0110
0000
0010
0000
1000
0000
0100
0010
,
0110
0000
0100
0000
1000
0001
0000
0100
,
0000
0100
0000
0010
0000
0010
0000
0000
,
1010
0000
1000
0000
0001
0010
0100
0010
,
0011
0000
0001
0000
1000
0010
0100
0000
,
0001
1000
0000
0100
0000
0100
0000
0010
,
0000
0010
0000
0001
0100
0001
0000
0000
,
1000
0000
0010
0000
0100
0000
0010
0000
1000
0000
0100
0000
0010
0100
0010
0000
,
0001
0001
1000
1000
0100
0100
0010
0000
,
0001
0000
1000
0000
1000
0000
0010
0000
0010
0000
0100
0000
0001
0100
0001
0000
,
1000
1000
0001
0001
0010
0010
0100
0000
,
1000
0000
0100
0000
0010
0000
0100
0000
1000
0000
0010
0000
0100
0010
0100
0000
,
0001
0001
1000
1000
0010
0010
0100
0000
,
0001
0000
1000
0000
1000
0000
0100
0000
0100
0000
0010
0000
0001
0010
0001
0000
,
1000
0000
1000
0000
0001
0000
0001
0000
1000
0010
1000
0010
1000
0000
0000
0000
;

//---------------dance-single - ----------------
#NOTEDATA:;
#CHARTNAME:;
#STEPSTYPE:dance-single;
#DESCRIPTION:;
#CHARTSTYLE:;
#DIFFICULTY:Challenge;
#METER:10;
#RADARVALUES:0.750605,1.592558,0.355932,0.033898,0.877119,620.000000,578.000000,42.000000,4.000000,4.000000,0.000000,29.000000,0.000000,0.000000,0.750605,1.592558,0.355932,0.033898,0.877119,620.000000,578.000000,42.000000,4.000000,4.000000,0.000000,29.000000,0.000000,0.000000;
#CREDIT:;
#DISPLAYBPM:156.000000;
#NOTES:
0000
0000
0000
0000
,
0000
0000
0000
0000
,
0000
0000
0000
0000
,
0000
0000
0000
0000
,
1001
0000
0101
0000
0100
0010
0000
0010
,
1000
0000
1001
0000
0001
0010
0000
0010
,
0100
0000
1100
0000
1000
0010
0000
0010
,
0100
0010
0100
0010
1000
0000
0000
0000
0001
1000
0001
1000
0100
0000
0000
0000
,
1000
0100
1000
0100
1000
0001
1000
0001
0100
0000
0010
0000
4000
0000
0000
0000
,
3001
0010
0001
0000
1000
0010
1000
0000
0001
0100
0001
0000
1000
0000
0000
0000
,
0001
0000
1000
0100
1000
0000
0001
0010
0001
0000
1000
0000
0040
0000
0000
0000
,
1030
0100
1000
0000
0001
0100
0001
0000
1000
0010
1000
0000
0100
0000
0000
0000
,
1000
0010
1000
0010
1000
0001
1000
0001
0010
0000
0100
0000
4000
0000
0000
0000
,
3001
0100
0001
0000
1000
0100
1000
0000
0001
0010
0001
0000
1000
0000
0000
0000
,
0001
0000
1000
0010
1000
0000
0001
0100
0001
0000
1000
0000
0400
0000
0000
0000
,
1300
0010
1000
0000
0001
0010
0001
0000
4000
0000
0000
0000
3010
0100
0010
0100
,
0001
0000
0101
0000
0100
0001
0010
0100
,
1100
0000
1001
0000
0101
0000
0100
0010
,
1010
0000
1100
0000
0100
0010
0000
0011
,
0000
0000
1001
0000
0000
0000
0101
0000
0001
0100
0010
1000
0001
0100
0010
1000
,
0001
0000
0011
0000
0001
0010
0100
1000
,
1010
0000
0110
0000
0100
0001
1001
0000
,
1000
0100
0000
1100
0000
0110
0000
0011
,
0000
1001
0000
0001
0100
0101
0000
0000
,
0001
0100
0001
0100
0010
0000
0000
0000
1000
0100
1000
0100
0010
0000
0000
0000
,
0001
0010
0001
0010
0001
1000
0001
1000
0010
0000
0100
0000
0004
0000
0000
0000
,
1003
0100
1000
0000
0001
0100
0001
0000
1000
0010
1000
0000
0001
0000
0000
0000
,
1000
0000
0001
0010
0001
0000
1000
0100
1000
0000
0001
0000
0400
0000
0000
0000
,
0301
0010
0001
0000
1000
0010
1000
0000
0001
0100
0001
0000
0010
0000
0000
0000
,
0001
0100
0001
0100
0001
1000
0001
1000
0100
0000
0010
0000
0004
0000
0000
0000
,
1003
0010
1000
0000
0001
0010
0001
0000
1000
0100
1000
0000
0001
0000
0000
0000
,
1000
0000
0001
0100
0001
0000
1000
0010
1000
0000
0001
0000
0040
0000
0000
0000
,
0031
0100
0001
0000
1000
0100
1000
0000
0004
0000
0000
0000
0103
0010
0100
0010
,
200M
0000
0000
3010
0000
0000
0000
0000
0000
0000
0000
0000
1000
0100
1000
0001
0100
0001
1000
0010
1000
0001
0010
0001
,
1000
0100
0010
0001
0010
0100
1000
0010
0100
0001
0100
0010
1000
0100
0010
0001
0100
0010
1000
0010
0100
0001
0010
0100
,
1000
0001
0100
0001
0010
0100
2000
0000
0000
0000
0000
0000
3001
0100
0001
1000
0100
1000
0001
0010
0100
1000
0010
0100
,
0001
0000
0000
0000
0000
0000
0000
0000
0010
0000
0000
0000
0000
0000
0000
0000
0001
0000
0000
0000
0000
0000
0000
0000
1000
0000
0000
0000
0000
0000
0000
0000
0010
0000
0000
0000
0000
0000
0000
0000
1000
0000
0000
0000
0000
0000
0000
0000
0001
0000
0000
0000
0000
0000
0000
0000
0100
0000
0000
0000
0000
0000
0000
0000
0010
0000
0000
0000
0000
0000
0000
0000
1000
0000
0000
0000
0000
0000
0000
0000
0100
0000
0000
0000
0000
0000
0000
0000
0010
0000
0000
0000
0000
0000
0000
0000
0001
0000
0000
0000
0000
0000
1000
0000
0000
0000
0000
0000
0001
0000
0000
0000
0000
0000
1000
0000
0000
0000
0000
0000
0001
0000
0000
0000
0000
0000
0100
0000
0000
0000
0000
0000
0001
0000
0000
0000
0000
0000
0100
0000
0000
0000
0000
0000
0010
0000
0000
0000
0000
0000
0100
0000
0000
0000
0000
0000
0010
0000
0000
0000
0000
0000
0100
0000
0000
0000
0000
0000
0010
0000
0000
0000
0000
0000
1000
0000
0000
0000
0000
0000
0010
0000
0000
0000
0000
0000
1000
0000
0000
0000
0000
0000
,
0001
0010
0100
1000
0001
0010
0100
1000
0001
0100
0010
1000
0001
0100
0010
1000
0M04
0000
0000
0000
0000
0000
0000
0000
4003
0000
0000
0000
0000
0000
0000
0000
,
3040
0430
0304
4003
,
3400
0340
0034
4003
,
3040
0430
0304
4003
,
3200
0000
2300
0000
,
3001
0100
0010
1000
0100
0010
0001
0010
0100
1000
0010
0100
,
0001
0000
0000
0000
1000
0000
0000
0000
0100
0000
0000
0000
1000
0000
0000
0000
0001
0000
0000
0000
0100
0000
0000
0000
0001
0000
0000
0010
0000
0000
0100
0000
0000
1000
0000
0000
0001
0000
0000
0010
0000
0000
0100
0000
0000
0010
0000
0000
,
0001
1000
0010
0100
0001
1000
0001
0010
0001
0000
0000
0011
0000
0000
0011
0000
,
0001
0010
0100
0010
0001
0010
0100
1000
000M
0000
0000
0000
0000
0000
0000
0000
,
1000
0000
1000
0000
0001
0010
0100
1000
0010
0000
1000
0000
1000
0000
0010
0100
,
0001
0000
0000
0000
1000
0000
0000
0000
1000
0000
0100
0000
0000
0000
0100
0000
0000
0000
0010
0000
0000
0000
0010
0000
0001
0010
0100
1000
0001
0010
0100
1000
,
0001
0000
0001
0000
1000
0010
0100
0001
0010
0000
0001
0000
0001
0010
0100
0000
,
1000
0010
0000
0100
0000
0100
0000
0001
0000
0001
0000
1000
0100
0010
0000
0000
,
M001
0000
0011
0000
0010
0001
0100
0010
,
1010
0000
1001
0000
0011
0000
0010
0100
,
1100
0000
1010
0000
0010
0100
0000
0101
,
0000
0000
1001
0000
0000
0000
0011
0000
0001
0010
0100
1000
0001
0010
0100
1000
,
0001
0000
0101
0000
0001
0100
0010
1000
,
1100
0000
0110
0000
0010
0001
1001
0000
,
1000
0010
0000
1010
0000
0110
0000
0101
,
0000
1001
0000
0001
0010
0011
0000
0000
,
0001
0010
0001
0010
0001
1000
0001
1000
0010
0000
0100
0000
0004
0000
0000
0000
,
1003
0100
1000
0000
0001
0100
0001
0000
1000
0010
1000
0000
0001
0000
0000
0000
,
1000
0000
0001
0010
0001
0000
1000
0100
1000
0000
0001
0000
0400
0000
0000
0000
,
0301
0010
0001
0000
1000
0010
1000
0000
0001
0100
0001
0000
0010
0000
0000
0000
,
0001
0100
0001
0100
0001
1000
0001
1000
0100
0000
0010
0000
0004
0000
0000
0000
,
1003
0010
1000
0000
0001
0010
0001
0000
1000
0100
1000
0000
0001
0000
0000
0000
,
1000
0000
0001
0100
0001
0000
1000
0010
1000
0000
0001
0000
0040
0000
0000
0000
,
0031
0100
0001
0000
1000
0100
1000
0000
0004
0000
0000
0000
0103
0010
0100
0010
;

//---------------dance-single - ----------------
#NOTEDATA:;
#CHARTNAME:;
#STEPSTYPE:dance-single;
#DESCRIPTION:;
#CHARTSTYLE:;
#DIFFICULTY:Medium;
#METER:7;
#RADARVALUES:0.400726,0.585064,0.067797,0.101695,0.093220,331.000000,323.000000,8.000000,12.000000,0.000000,0.000000,0.000000,0.000000,0.000000,0.400726,0.585064,0.067797,0.101695,0.093220,331.000000,323.000000,8.000000,12.000000,0.000000,0.000000,0.000000,0.000000,0.000000;
#CREDIT:;
#DISPLAYBPM:156.000000;
#NOTES:
0000
0000
0000
0000
,
0000
0000
0000
0000
,
0000
0000
0000
0000
,
0000
0000
0000
0000
,
0001
0000
0001
0000
1000
0010
0000
0010
,
1000
0000
1000
0000
0001
0010
0000
0010
,
0001
0000
0001
0000
1000
0100
0000
0100
,
2000
3000
0002
0003
,
1000
0100
0010
0100
1000
0100
0010
0000
,
0001
0001
1000
1000
,
0001
0100
0010
0100
0001
0100
0010
0000
,
0100
0100
0010
0010
,
1000
0010
0100
0010
1000
0010
0100
0000
,
0001
0001
1000
1000
,
0001
0010
0100
0010
0001
0010
0100
0000
,
0010
0010
0100
0100
,
1000
0000
0010
0000
0100
0010
0100
0010
,
1000
0000
0001
0000
1000
0000
0100
0010
,
0100
0000
1000
0000
0001
0100
0000
0100
,
0000
0010
0000
0010
0000
1000
0000
0000
,
0001
0000
0010
0000
0100
0010
0100
0010
,
0001
0000
1000
0000
0010
0100
0010
0000
,
1000
0100
0000
0010
0000
0100
0000
1000
,
0000
0010
0000
0100
0001
0100
0000
0000
,
0002
0003
2000
3000
,
0001
0100
0010
0100
0001
0100
0010
0000
,
1000
1000
0001
0001
,
1000
0100
0010
0100
1000
0100
0010
0000
,
0100
0100
0010
0010
,
0001
0010
0100
0010
0001
0010
0100
0000
,
1000
1000
0001
0001
,
1000
0010
0100
0010
1000
0010
0100
0000
,
0010
0010
0100
0100
,
0000
0000
0000
0000
0000
0000
0000
0000
0001
0000
0101
0000
0000
1000
0000
0000
,
0100
0000
1100
0000
0000
0000
1000
0000
0010
0000
1010
0000
0000
0001
0000
0000
,
0010
0000
0011
0000
0000
0000
0001
0000
0100
0000
0101
0000
0000
1000
0000
0000
,
0010
0000
0110
0000
0000
0000
0001
0000
0010
0000
0110
0000
0000
0000
0000
1000
,
0000
0100
0110
0000
0020
0000
0001
0000
,
0001
0031
0002
0100
,
0100
0103
0200
0010
,
0010
0310
0020
1000
,
1000
1030
2000
0100
,
0001
3100
2000
0010
,
0001
3010
2000
0100
,
0001
3010
2000
0010
,
0001
3100
0000
0000
,
1000
0000
0100
0000
0010
0100
0010
0100
1000
0000
0001
0000
1000
0000
0010
0100
,
0010
0000
1000
0000
0001
0010
0000
0010
0000
0100
0000
0100
0000
1000
0000
0000
,
0001
0000
1000
0000
0010
0100
0010
0100
0001
0000
1000
0000
0100
0010
0100
0000
,
1000
0010
0000
0100
0000
0010
0000
1000
0000
0100
0000
0010
0001
0010
0000
0000
,
1000
0000
0100
0000
0010
0100
0010
0100
,
1000
0000
0001
0000
1000
0000
0010
0100
,
0010
0000
1000
0000
0001
0010
0000
0010
,
0000
0100
0000
0100
0000
1000
0000
0000
,
0001
0000
0100
0000
0010
0100
0010
0100
,
0001
0000
1000
0000
0100
0010
0100
0000
,
1000
0010
0000
0100
0000
0010
0000
1000
,
0000
0100
0000
0001
0100
0001
0000
0000
,
1000
0100
0010
0001
0010
0100
1000
0000
,
0001
0001
1000
1000
,
0001
0100
0010
1000
0010
0100
0001
0000
,
0100
0100
0010
0010
,
1000
0010
0100
0001
0100
0010
1000
0000
,
0001
0001
1000
1000
,
0001
0010
0100
1000
0100
0010
0001
0000
,
0010
0010
0100
0100
;

//---------------dance-single - ----------------
#NOTEDATA:;
#CHARTNAME:;
#STEPSTYPE:dance-single;
#DESCRIPTION:;
#CHARTSTYLE:;
#DIFFICULTY:Easy;
#METER:4;
#RADARVALUES:0.240920,0.278602,0.033898,0.076271,0.000000,199.000000,195.000000,4.000000,9.000000,0.000000,0.000000,0.000000,0.000000,0.000000,0.240920,0.278602,0.033898,0.076271,0.000000,199.000000,195.000000,4.000000,9.000000,0.000000,0.000000,0.000000,0.000000,0.000000;
#CREDIT:;
#DISPLAYBPM:156.000000;
#NOTES:
0000
0000
0000
0000
,
0000
0000
0000
0000
,
0000
0000
0000
0000
,
0000
0000
0000
0000
,
0001
1000
0001
0000
,
0100
0010
0100
0000
,
0001
1000
0001
0000
,
0220
0330
2002
3003
,
1000
1000
1000
0000
,
0001
0001
0001
0000
,
0100
0100
0100
0000
,
0010
0010
0010
0000
,
1000
1000
1000
0000
,
0001
0001
0001
0000
,
0010
0010
0010
0000
,
0100
0100
0100
0000
,
0000
1000
0100
1000
,
0000
0001
0100
0001
,
0000
1000
0010
0100
,
0010
1000
0100
0010
,
0000
0001
0100
0001
,
0000
1000
0100
1000
,
0001
0000
0000
1000
0000
0001
0000
1000
,
0000
0001
0000
0100
0100
0100
0000
0000
,
0220
0330
2002
3003
,
0001
0001
0001
0000
,
1000
1000
1000
0000
,
0100
0100
0100
0000
,
0010
0010
0010
0000
,
0001
0001
0001
0000
,
1000
1000
1000
0000
,
0010
0010
0010
0000
,
0100
0100
0100
0000
,
0000
0000
0001
0001
,
1000
1000
0100
0100
,
0010
0010
0001
0001
,
1000
0010
0100
0001
,
1000
0100
0010
0010
,
0010
0010
0100
0100
,
0100
0100
1000
1000
,
1000
1000
0001
0001
,
0001
0000
2000
0000
,
3001
0001
0100
0100
,
0010
0010
1000
1000
,
0001
0010
0100
1000
,
0001
1000
0001
0000
,
1000
0000
0001
0000
,
1000
0000
0001
0000
,
0100
0000
0010
0000
,
0100
0000
0010
0000
,
0000
1000
0010
1000
,
0000
0001
0010
0001
,
0000
1000
0100
0010
,
0100
1000
0010
0100
,
0000
0001
0010
0001
,
0000
1000
0010
1000
,
0001
0000
0000
1000
0000
0001
0000
1000
,
0000
0001
0000
0010
0010
0010
0000
0000
,
1000
0100
1000
0000
,
0001
0100
0001
0000
,
1000
0010
1000
0000
,
0001
0010
0001
0000
,
1000
0100
0010
0000
,
0001
0100
0010
0000
,
1000
0010
0100
0000
,
0001
0010
0100
1000
;

//---------------dance-single - ----------------
#NOTEDATA:;
#CHARTNAME:;
#STEPSTYPE:dance-single;
#DESCRIPTION:;
#CHARTSTYLE:;
#DIFFICULTY:Beginner;
#METER:1;
#RADARVALUES:0.116223,0.139301,0.000000,0.000000,0.000000,96.000000,96.000000,0.000000,0.000000,0.000000,0.000000,0.000000,0.000000,0.000000,0.116223,0.139301,0.000000,0.000000,0.000000,96.000000,96.000000,0.000000,0.000000,0.000000,0.000000,0.000000,0.000000,0.000000;
#CREDIT:;
#DISPLAYBPM:156.000000;
#NOTES:
// measure 0
0000
0000
0000
0000
,  // measure 1
0000
0000
0000
0000
,  // measure 2
0000
0000
0000
0000
,  // measure 3
0000
0000
0000
0000
,  // measure 4
1000
0000
0000
0000
,  // measure 5
0001
0000
0000
0000
,  // measure 6
0100
0000
0000
0000
,  // measure 7
0010
0000
0010
0000
,  // measure 8
1000
0000
1000
0000
,  // measure 9
1000
0000
0000
0000
,  // measure 10
0001
0000
0001
0000
,  // measure 11
0001
0000
0000
0000
,  // measure 12
0010
0000
0010
0000
,  // measure 13
0010
0000
0000
0000
,  // measure 14
0100
0000
0100
0000
,  // measure 15
0100
0000
0100
0000
,  // measure 16
1000
0000
0100
0000
,  // measure 17
1000
0000
0000
0000
,  // measure 18
0001
0000
0100
0000
,  // measure 19
0001
0000
0000
0000
,  // measure 20
1000
0000
0010
0000
,  // measure 21
1000
0000
0000
0000
,  // measure 22
0001
0000
0010
0000
,  // measure 23
0001
0000
0010
0000
,  // measure 24
0001
0000
0001
0000
,  // measure 25
1000
0000
1000
0000
,  // measure 26
1000
0000
0000
0000
,  // measure 27
0010
0000
0010
0000
,  // measure 28
0010
0000
0100
0000
,  // measure 29
0100
0000
0100
0000
,  // measure 30
0001
0000
0001
0000
,  // measure 31
0001
0000
0001
0000
,  // measure 32
0000
0000
0000
0000
,  // measure 33
1000
0000
1000
0000
,  // measure 34
0001
0000
0001
0000
,  // measure 35
0100
0000
0100
0000
,  // measure 36
0010
0000
0010
0000
,  // measure 37
0000
0000
1000
0000
,  // measure 38
0000
0000
0100
0000
,  // measure 39
0000
0000
0010
0000
,  // measure 40
0000
0000
0001
0000
,  // measure 41
0000
0000
1000
0000
,  // measure 42
0000
0000
0010
0000
,  // measure 43
0000
0000
0100
0000
,  // measure 44
0000
0000
0001
0000
,  // measure 45
0000
0000
0000
0000
,  // measure 46
1000
0000
0001
0000
,  // measure 47
1000
0000
0001
0000
,  // measure 48
0010
0000
0100
0000
,  // measure 49
0000
0010
0000
0000
,  // measure 50
1000
0000
0010
0000
,  // measure 51
1000
0000
0000
0000
,  // measure 52
0001
0000
0010
0000
,  // measure 53
0001
0000
0000
0000
,  // measure 54
1000
0000
0100
0000
,  // measure 55
1000
0000
0000
0000
,  // measure 56
0001
0000
0100
0000
,  // measure 57
0001
0000
0100
0000
,  // measure 58
0010
0000
0010
0000
,  // measure 59
0010
0000
0000
0000
,  // measure 60
0100
0000
0100
0000
,  // measure 61
0100
0000
0000
0000
,  // measure 62
0001
0000
0001
0000
,  // measure 63
0001
0000
0000
0000
,  // measure 64
1000
0000
1000
0000
,  // measure 65
1000
0000
1000
1000
;
