#VERSION:0.83;
#TITLE:VANITY STARSIGN;
#SUBTITLE:;
#ARTIST:Daniel Van Eden;
#TITLETRANSLIT:;
#SUBTITLETRANSLIT:;
#ARTISTTRANSLIT:;
#GENRE:;
#ORIGIN:;
#CREDIT:;
#BANNER:banner.png;
#BACKGROUND:background.png;
#PREVIEWVID:;
#JACKET:jacket.png;
#CDIMAGE:;
#DISCIMAGE:;
#LYRICSPATH:;
#CDTITLE:;
#MUSIC:Vanity Starsign.ogg;
#OFFSET:0.000000;
#SAMPLESTART:21.861893;
#SAMPLELENGTH:12.203388;
#SELECTABLE:YES;
#BPMS:0.000=177.000,
168.000=88.500,
184.000=177.000;
#STOPS:;
#DELAYS:;
#WARPS:;
#TIMESIGNATURES:0.000=4=4;
#TICKCOUNTS:0.000=4;
#COMBOS:0.000=1;
#SPEEDS:0.000=1.000=0.000=0;
#SCROLLS:0.000=1.000;
#FAKES:;
#LABELS:0.000=Song Start;
#BGCHANGES:;
#KEYSOUNDS:;
#ATTACKS:
;

//---------------dance-single - ----------------
#NOTEDATA:;
#CHARTNAME:;
#STEPSTYPE:dance-single;
#DESCRIPTION:;
#CHARTSTYLE:;
#DIFFICULTY:Hard;
#METER:10;
#RADARVALUES:0.733911,0.995685,0.228893,0.262803,0.330623,606.000000,579.000000,27.000000,31.000000,0.000000,0.000000,0.000000,0.000000,0.000000,0.733911,0.995685,0.228893,0.262803,0.330623,606.000000,579.000000,27.000000,31.000000,0.000000,0.000000,0.000000,0.000000,0.000000;
#CREDIT:;
#NOTES:
// measure 0
0000
0000
0000
0000
,  // measure 1
0000
0000
0000
0000
,  // measure 2
0000
0000
0000
0000
,  // measure 3
0000
0000
0000
0000
,  // measure 4
0000
0000
0000
0000
,  // measure 5
0000
0000
0000
0000
,  // measure 6
0000
0000
0000
0000
,  // measure 7
0000
0000
0000
0000
,  // measure 8
0000
1000
0100
1000
0001
0100
0010
1000
,  // measure 9
0100
0010
0001
0010
0100
1000
0100
0010
,  // measure 10
0100
1000
0010
1000
0100
0010
0001
1000
,  // measure 11
0010
0100
0001
0100
0010
1000
0001
0010
,  // measure 12
0001
1000
0100
1000
0010
0100
0001
1000
,  // measure 13
0100
1000
0001
1000
0100
0010
0100
0010
,  // measure 14
0001
0100
0010
0100
0001
1000
0010
1000
,  // measure 15
0100
0000
0010
0000
0001
0000
1000
0000
0010
1000
0001
0100
0010
1000
0100
0010
,  // measure 16
0001
0000
0000
0000
0000
0000
0000
0000
0000
0000
0010
0100
1001
0000
0000
0000
,  // measure 17
1000
0011
0110
1100
,  // measure 18
0010
1000
0100
0010
0100
1000
0001
0000
,  // measure 19
0000
0000
0010
0001
1000
0000
0100
0000
1000
0000
0010
0000
0100
0000
0001
0000
,  // measure 20
0100
0010
1000
0001
0010
0100
1000
0100
,  // measure 21
0010
0101
1100
1010
,  // measure 22
0010
1000
0001
0010
0100
0010
0001
1000
,  // measure 23
0100
0100
1000
1000
0010
0010
0100
0100
,  // measure 24
0001
0000
0001
0000
0100
0000
0010
0000
1000
0000
0001
1000
0001
0000
0100
0000
,  // measure 25
0100
0000
0000
0000
0011
0000
0000
0000
0100
0000
0010
0100
1001
0000
0000
0000
,  // measure 26
1000
0010
0100
0001
0010
0100
1000
0000
,  // measure 27
0010
0000
1000
0001
0010
0000
0100
0000
1000
0000
0100
0000
1000
0000
0001
0000
,  // measure 28
0100
0001
1000
0001
0010
0100
1000
0001
,  // measure 29
0100
1010
1100
0101
,  // measure 30
0001
1000
0100
0010
0001
0100
0010
1000
,  // measure 31
0100
1000
0010
0100
0000
0100
0001
0000
,  // measure 32
0010
0000
0001
0000
0010
0000
0100
0000
1000
0100
1000
0100
0010
0100
0010
0001
,  // measure 33
2000
3200
0320
0032
,  // measure 34
1003
0010
1000
0001
0100
0010
0010
1000
,  // measure 35
0001
0100
0001
1000
0100
1000
0010
0100
,  // measure 36
0010
1000
0010
0100
0001
0100
0010
1000
,  // measure 37
0002
0023
0230
2300
,  // measure 38
3001
0010
0001
0100
0010
1000
1000
0001
,  // measure 39
0100
0010
0100
0001
0010
0100
0010
0001
,  // measure 40
1000
0000
0001
0000
0010
0000
0100
0000
1000
0010
1000
0001
0100
0010
1000
0100
,  // measure 41
0020
0000
0030
0000
,  // measure 42
0002
0000
0000
1003
0010
0100
0010
0000
2000
0000
0000
3200
0000
0000
0320
0000
,  // measure 43
0031
0000
0010
0100
0000
0100
0010
0100
1000
0001
1000
0200
0000
1300
0100
1000
,  // measure 44
0002
0000
0010
0023
0000
0130
0000
1100
0000
1010
0000
0110
0000
0100
0100
0010
,  // measure 45
1000
0010
0100
0001
0000
1000
0000
0001
0000
0010
0100
1000
0001
1001
1001
0000
,  // measure 46
0110
0000
0010
0100
0010
1000
0100
0010
,  // measure 47
0002
0000
1003
0100
0100
1000
0100
0010
,  // measure 48
0002
0000
0103
0010
0010
1000
0010
0100
,  // measure 49
0002
0000
0013
0100
0100
1000
0100
1000
,  // measure 50
1001
0000
0010
0001
0100
0010
1000
0100
,  // measure 51
0020
0000
0130
1000
1000
0001
1000
0010
,  // measure 52
0200
0000
0301
0010
0001
0010
0100
1000
,  // measure 53
0020
0000
0130
0001
1000
0020
0000
1000
,  // measure 54
1030
0000
0000
1000
0100
0010
0001
0100
0010
0000
2002
0000
0000
0000
3003
0000
,  // measure 55
0001
0010
0001
0100
1000
0100
0001
0010
,  // measure 56
0100
0010
0100
1000
0010
1000
0100
0010
,  // measure 57
0001
0000
0001
0100
0001
0100
0010
1000
0100
0000
0000
0010
0000
0000
0100
0000
,  // measure 58
2000
0000
3010
0200
0000
0301
0010
0001
,  // measure 59
1000
0010
1000
0100
0001
0100
1000
0010
,  // measure 60
0100
0000
0010
0000
1000
0000
0001
0000
0100
0000
0010
0000
0100
0000
0001
0010
,  // measure 61
0100
0000
0000
1100
0000
0000
1010
0000
2002
0000
0000
0000
3003
0000
0000
0000
,  // measure 62
0001
0100
0001
0100
0010
1000
0100
0010
0001
0010
0100
1000
0001
0000
0000
0000
,  // measure 63
0010
0001
1000
0001
0100
0001
0010
0001
,  // measure 64
0100
0010
1000
0010
1000
0100
0010
0001
,  // measure 65
1000
0000
0100
0010
0100
0000
1000
0000
0001
0000
0010
0000
0001
0000
0100
0000
,  // measure 66
0010
1000
0100
0010
0100
1000
0001
0010
,  // measure 67
0100
1000
0001
1000
0010
1000
0100
1000
,  // measure 68
0001
0010
0001
0100
0010
1000
0100
0010
,  // measure 69
0001
0001
0010
0010
0100
0100
1000
1000
,  // measure 70
0010
0000
0010
0000
0100
0000
0001
1000
0001
0000
0010
0000
0001
0100
0010
1000
,  // measure 71
0001
0010
0100
0010
0001
0100
0010
0100
,  // measure 72
0001
1000
0100
0010
0100
0010
0001
0100
,  // measure 73
0010
0000
0100
0001
0010
0000
0100
0000
1000
0000
0100
0000
0010
0000
0001
0000
,  // measure 74
0100
0000
0001
0000
1000
0000
0010
0000
1000
0001
0100
0000
0010
0100
0010
1000
,  // measure 75
0001
0100
0010
0100
0010
1000
0100
0010
,  // measure 76
0011
0001
0100
0001
0100
0010
1000
0100
,  // measure 77
0010
0001
0010
0001
1000
0000
0010
1000
0010
0100
0001
0000
0100
0010
0100
0010
,  // measure 78
1000
0000
0001
1000
0010
0000
0100
0010
0100
0010
1000
0000
0100
0010
0001
0010
,  // measure 79
0100
0000
1000
0100
0010
0000
0011
0000
0001
0100
0010
0000
1010
0000
0000
0000
,  // measure 80
0000
0000
0100
0010
2002
0000
0000
0000
0000
0000
0000
0000
0000
0000
0000
0000
,  // measure 81
3003
0000
0000
0000
;

//---------------dance-single - ----------------
#NOTEDATA:;
#CHARTNAME:;
#STEPSTYPE:dance-single;
#DESCRIPTION:;
#CHARTSTYLE:;
#DIFFICULTY:Medium;
#METER:8;
#RADARVALUES:0.525606,0.824015,0.203461,0.194983,0.097492,434.000000,410.000000,24.000000,23.000000,0.000000,0.000000,0.000000,0.000000,0.000000,0.525606,0.824015,0.203461,0.194983,0.097492,434.000000,410.000000,24.000000,23.000000,0.000000,0.000000,0.000000,0.000000,0.000000;
#CREDIT:Daniel Van Eden;
#NOTES:
0000
0000
0000
0000
,
0000
0000
0000
0000
,
0000
0000
0000
0000
,
0000
0000
0000
0000
,
0000
0000
0000
0000
,
0000
0000
0000
0000
,
0000
0000
0000
0000
,
0000
0000
0000
0000
,
0000
0000
0000
0000
,
0010
1000
0100
0010
,
0001
0010
0001
0100
0020
0000
0000
0000
,
1030
0010
1000
0010
,
0100
0001
0100
0010
,
1000
0100
0010
0100
,
1000
0100
1000
0001
0020
0000
0000
0000
,
0031
0000
0100
0000
0010
1000
0001
1000
,
0100
0000
0000
1001
,
1000
0010
0100
0010
,
1000
0100
0010
0100
0010
0001
0100
0000
,
0001
1000
0010
0000
1000
0000
0100
0000
,
0010
0001
0010
0000
0001
0100
0010
1000
,
0001
0100
0010
1000
,
0100
1000
0100
0010
0001
0100
0010
0100
,
0002
2003
3020
0230
,
0320
0000
1030
0001
1000
0001
0100
0010
,
0010
0000
0000
1001
,
0010
1000
0010
0100
0001
1000
0100
0000
,
0010
0100
1000
0000
0100
0000
0010
0000
,
0001
0100
0001
0000
1000
0010
0100
0010
,
1000
0001
0100
0001
,
0010
0100
0010
0000
0100
1000
0100
0000
,
0010
0000
0001
0100
0000
0100
0010
0000
,
1000
0101
0011
1100
,
1001
1000
0010
0100
,
0001
0100
0001
1000
0010
0000
1000
0000
,
0100
0000
0010
0100
0000
0100
1000
0100
,
0000
0100
0010
0001
1000
0001
0100
0010
,
1000
0001
0100
0001
,
1000
0010
1000
0001
0100
0000
0010
0000
,
0100
0000
0001
0010
0000
0010
0100
0010
,
0000
0001
0010
0100
0000
0100
1000
0000
,
2002
0000
3003
0000
,
0010
0000
0000
1000
0010
0100
0001
0000
0020
0000
0000
0230
0000
0000
2300
0000
,
3001
0000
0010
0001
0000
0001
0010
1000
0100
1000
0010
0100
0000
0010
0100
0010
,
1000
0000
0001
0001
0000
1000
0000
0002
0000
0023
0000
0230
0000
0310
0001
1000
,
2000
0000
0000
0000
3200
0000
0000
0000
0320
0000
0000
0000
0032
1000
1003
0000
,
0010
0001
0100
0010
,
0100
0010
1000
0001
0100
0001
0001
0000
,
0010
0000
0100
1000
0000
1000
0010
1000
,
0000
0010
0100
0010
1000
0001
0100
0001
,
1000
0010
1000
0100
,
0010
0100
0010
0001
1000
0010
0010
0000
,
0100
0000
0010
0100
0000
0001
0100
0001
,
0000
1000
0001
1000
0000
1000
0010
0000
,
0100
0000
0000
0000
0000
0001
0001
0010
,
0100
0000
0010
0100
0000
0100
1000
0010
,
1000
0000
1000
0001
0000
0001
0100
0010
,
0100
0000
0000
0000
0100
0000
0001
0000
0010
0000
0000
0100
0000
0000
0010
0000
,
0002
0000
0000
1003
0000
1000
1000
0010
,
0100
0000
0010
0100
0000
0100
0001
0100
,
0000
0010
1000
0010
0000
1000
0100
0000
,
0010
0000
0000
0001
0000
0000
1000
0000
0200
0000
0000
0000
0000
0000
0000
0000
,
0310
0001
0010
0001
1000
0100
1000
0010
,
0100
0101
1010
1001
,
1000
0010
1000
0001
0100
0010
0100
0000
,
0001
0010
0100
1000
0100
0010
0001
0100
,
0010
0100
0001
1000
0001
0010
0100
1000
,
0010
0110
1001
1100
,
0100
1000
0010
1000
0001
0100
0010
0100
,
0001
0001
0010
0010
0100
0100
1000
1000
,
0010
1000
0010
1000
0001
0100
0001
0100
,
0010
1010
0101
1001
,
0001
0100
0010
1000
0001
1000
0100
0000
,
0010
0001
0010
0100
1000
0100
1000
0010
,
1000
0001
0100
0010
0100
0001
1000
0010
,
1010
1000
0100
0010
,
0011
0000
0001
0010
0001
0000
0100
0010
,
1010
0100
1001
0100
,
0011
1100
1010
0101
,
1000
0000
0010
1000
0010
0000
0100
0000
0001
0100
0001
0000
0020
0000
0000
0000
,
0030
0000
0001
1000
0002
0000
0000
0000
0000
0000
0000
0000
0000
0000
0000
0000
,
0003
0000
0000
0000
;

//---------------dance-single - ----------------
#NOTEDATA:;
#CHARTNAME:;
#STEPSTYPE:dance-single;
#DESCRIPTION:;
#CHARTSTYLE:;
#DIFFICULTY:Easy;
#METER:6;
#RADARVALUES:0.352423,0.446342,0.161073,0.271281,0.025433,291.000000,272.000000,19.000000,32.000000,0.000000,0.000000,0.000000,0.000000,0.000000,0.352423,0.446342,0.161073,0.271281,0.025433,291.000000,272.000000,19.000000,32.000000,0.000000,0.000000,0.000000,0.000000,0.000000;
#CREDIT:Daniel Van Eden;
#NOTES:
0000
0000
0000
0000
,
0000
0000
0000
0000
,
0000
0000
0000
0000
,
0000
0000
0000
0000
,
0000
0000
0000
0000
,
0000
0000
0000
0000
,
0000
0000
0000
0000
,
0000
0000
0000
0000
,
0000
0000
0000
0000
,
0010
1000
0100
0010
,
0001
1000
0001
0000
,
2000
0000
3020
0000
,
2030
0000
3001
0010
,
0001
0100
0010
1000
,
0001
1000
0001
0000
,
0010
0001
1000
0001
,
1000
0000
0000
1001
,
0010
1000
0001
0100
,
0010
0000
0100
0000
0001
1000
0001
0000
,
0000
0010
0001
0010
,
0100
0010
0001
1000
,
0100
1000
0010
0100
,
0001
0000
1000
0000
0001
1000
0001
1000
,
0001
0010
0100
1000
,
0100
1000
0010
0100
,
0001
0000
0000
1001
,
1000
0000
0010
0000
0100
0010
0100
0000
,
0000
0010
0100
0010
,
1000
0001
0010
0100
,
1000
0001
1000
0100
,
0010
0001
0100
0010
,
1000
0001
0010
0100
,
1000
0000
0010
0000
1000
0001
1000
0001
,
1000
0100
0010
0001
,
0010
0001
0010
0000
0100
0000
0000
0000
,
1000
1100
0000
0011
,
0000
0101
0001
1001
,
1000
0010
0100
0001
,
0010
0001
0010
0000
0100
0000
0000
0000
,
0100
0110
0000
0011
,
0001
0000
1000
0000
0010
0100
0010
0000
,
2000
0000
3000
0000
,
2000
0000
3010
0100
0002
0000
0013
0100
,
0020
0032
2003
0000
,
3100
0000
0000
0010
0000
0100
0000
0010
0000
0001
0000
0100
0000
0010
1000
0000
,
0002
2003
3020
0230
,
0301
0000
0010
0001
0001
0000
1000
0000
,
0001
0000
0000
1000
0000
0000
0001
0000
,
1000
0000
0010
1000
1000
0000
0100
0000
,
0010
0001
0100
0010
,
0100
0000
0001
0100
0100
0000
0010
0000
,
1000
0000
0000
0001
0000
0000
1000
0000
,
0100
0000
0010
0001
0001
0000
0010
0000
,
0100
1000
0010
1000
,
0001
0000
0000
0000
0000
2002
3003
0000
,
2000
0000
0000
3020
0000
0000
1030
0000
,
0200
0000
0000
0320
0000
0000
0130
0000
,
0010
0000
0000
0010
0002
0000
0000
0000
,
2003
0000
0000
3020
0000
0000
1030
0000
,
0200
0000
0000
0320
0000
0000
0130
0000
,
0020
0000
0000
0032
0000
0000
2003
0000
,
3020
0000
0030
0100
0002
0000
0000
0000
,
0000
0000
0000
1003
,
1000
0010
1000
0001
,
0100
0000
0010
0000
1000
0001
1000
0000
,
0000
0100
1000
0010
,
0100
0001
0010
0100
,
1000
0001
0010
0100
,
1000
0000
0010
0000
0100
0010
0100
0010
,
0100
0001
1000
0010
,
1000
0000
0100
0000
0010
0001
0010
0000
,
1001
0001
0100
0010
,
1000
0000
0100
0000
1000
0001
1000
0000
,
0000
0001
0100
0010
,
1000
0001
0010
0100
,
1100
0100
0010
0001
,
0101
0100
0010
1000
,
1001
0000
1100
0000
,
0110
1001
1001
0101
,
1000
0000
1000
0010
0000
0010
0200
0000
,
0300
2002
0000
0000
,
3003
0000
0000
0000
;

//---------------dance-single - ----------------
#NOTEDATA:;
#CHARTNAME:;
#STEPSTYPE:dance-single;
#DESCRIPTION:;
#CHARTSTYLE:;
#DIFFICULTY:Beginner;
#METER:3;
#RADARVALUES:0.204672,0.274672,0.050865,0.016955,0.000000,169.000000,163.000000,6.000000,2.000000,0.000000,0.000000,0.000000,0.000000,0.000000,0.204672,0.274672,0.050865,0.016955,0.000000,169.000000,163.000000,6.000000,2.000000,0.000000,0.000000,0.000000,0.000000,0.000000;
#CREDIT:Daniel Van Eden;
#NOTES:
0000
0000
0000
0000
,
0000
0000
0000
0000
,
0000
0000
0000
0000
,
0000
0000
0000
0000
,
0000
0000
0000
0000
,
0000
0000
0000
0000
,
0000
0000
0000
0000
,
0000
0000
0000
0000
,
0000
0000
0000
0000
,
0010
0000
1000
0000
,
0001
0001
0001
0000
,
1000
0000
0000
0000
,
0001
0000
0000
0100
,
0100
0000
0010
0000
,
1000
1000
1000
0000
,
0001
0000
1000
0000
,
0100
0000
0000
0110
,
0100
0000
0010
0000
,
0001
0001
0001
0000
,
1000
0000
0100
0000
,
1000
0000
0010
0000
,
0100
0000
0010
0000
,
1000
1000
1000
0000
,
0001
0000
0001
0000
,
1000
0000
0100
0000
,
0010
0000
0000
1001
,
0001
0001
0001
0000
,
0010
0000
1000
0000
,
0001
0000
0010
0000
,
0100
0000
1000
0000
,
0001
0001
1000
1000
,
0001
0000
1000
0000
,
0010
0010
0010
0000
,
1001
0000
0100
0000
,
0010
0100
0010
0000
,
1000
0000
0001
0000
,
1000
0000
0100
0000
,
0010
0000
0001
0000
,
1000
0001
1000
0000
,
0010
0000
1000
0000
,
0100
0000
0010
0000
,
1001
0000
0000
0000
,
0010
0000
1000
0000
,
0100
0010
0100
0000
,
0010
0000
0001
0000
,
1000
0001
1000
0000
,
0010
0000
1000
0000
,
0100
0100
0100
0000
,
0010
0000
0001
0000
,
0100
0001
0100
0000
,
0010
0000
1000
0000
,
0001
0001
0001
0000
,
1000
0000
0100
0000
,
1000
0001
1000
0000
,
0010
0000
0000
0000
,
0010
0000
0000
0010
0000
0000
0000
0000
,
1000
0000
0000
1000
0000
0000
0000
0000
,
0001
0000
1000
0000
,
0100
0000
0000
0000
,
0010
0000
0000
0010
0000
0000
0000
0000
,
0001
0000
0000
0001
0000
0000
0000
0000
,
1000
1000
1000
0000
,
0000
0000
0000
1001
,
1000
0000
0010
0000
,
0100
0100
0100
0000
,
0001
0000
0010
0000
,
0001
0000
1000
0000
,
0100
0000
1000
0000
,
0010
0010
0010
0000
,
1000
0000
0001
0000
,
0100
0000
0010
0000
,
0100
0000
0001
0000
,
1000
1000
1000
0000
,
0010
0000
1000
0000
,
0100
0000
0010
0000
,
0001
0000
1000
0000
,
0001
0001
1000
1000
,
0010
0000
0100
0000
,
0010
0010
0100
0100
,
0001
0000
0000
1000
0000
0000
0001
0000
,
0000
2002
0000
0000
,
3003
0000
0000
0000
;
