#VERSION:0.83;
#TITLE:月雪に舞う花のように;
#SUBTITLE:;
#ARTIST:猫叉Master;
#TITLETRANSLIT:Tsukiyuki ni mau hana no youni;
#SUBTITLETRANSLIT:;
#ARTISTTRANSLIT:Nekomata Master;
#GENRE:World;
#ORIGIN:;
#CREDIT:;
#BANNER:[Timing Window] - Tsukiyuki ni mau hana no youni.png;
#BACKGROUND:[Timing Window] - Tsukiyuki ni mau hana no youni-bg.png;
#PREVIEWVID:;
#JACKET:[Timing Window] - Tsukiyuki ni mau hana no youni-jacket.png;
#CDIMAGE:;
#DISCIMAGE:;
#LYRICSPATH:;
#CDTITLE:cdtitle.png;
#MUSIC:[Timing Window] - Tsukiyuki ni mau hana no youni.ogg;
#OFFSET:-0.513615;
#SAMPLESTART:15.389615;
#SAMPLELENGTH:15.360002;
#SELECTABLE:YES;
#BPMS:0.000=125.000;
#STOPS:28.000=1.440,
165.000=0.480;
#DELAYS:;
#WARPS:;
#TIMESIGNATURES:0.000=4=4;
#TICKCOUNTS:0.000=4;
#COMBOS:0.000=1;
#SPEEDS:0.000=1.000=0.000=0;
#SCROLLS:0.000=1.000;
#FAKES:;
#LABELS:0.000=Song Start;
#BGCHANGES:;
#KEYSOUNDS:;
#ATTACKS:
;

//---------------dance-single - ----------------
#NOTEDATA:;
#CHARTNAME:08-11;
#STEPSTYPE:dance-single;
#DESCRIPTION:;
#CHARTSTYLE:;
#DIFFICULTY:Challenge;
#METER:8;
#RADARVALUES:0.447097,0.447172,0.468615,0.368198,0.389118,374.000000,318.000000,56.000000,44.000000,72.000000,0.000000,0.000000,0.000000,0.000000,0.447097,0.447172,0.468615,0.368198,0.389118,374.000000,318.000000,56.000000,44.000000,72.000000,0.000000,0.000000,0.000000,0.000000;
#CREDIT:;
#NOTES:
0000
0000
0000
0000
,
0000
0000
0000
0000
,
0000
0000
0000
0000
,
0000
0000
0000
1000
,
1000
0000
0000
0001
0010
0000
0000
0001
0010
0000
0000
0000
0001
0000
0000
0000
,
0001
0000
0000
1000
0010
0000
0000
1000
0010
0000
0000
0000
1000
0000
0000
0100
,
0020
0000
0100
0030
,
1001
0000
0000
0000
1001
0000
0000
1000
0010
0000
00M0
0001
0010
0000
0000
0000
,
1100
0000
0000
0000
0000
0000
0000
0000
0101
0000
0000
0000
0000
0000
0001
0000
0010
0000
0000
M00M
0000
0000
0010
0000
1000
0000
0000
0000
0000
0000
0000
0000
,
0110
0000
0000
0000
0000
0000
1000
0000
0010
0000
0000
M00M
0000
0000
0010
0000
0002
0000
0000
0000
0000
0000
0000
0000
0100
0000
0000
0000
0000
0000
0100
0000
,
0000
0000
0100
0000
0103
0000
0000
0000
0101
0000
0000
0000
0110
0000
0000
0010
,
1000
0000
0000
0000
1001
0000
0000
0001
0010
0000
00M0
1000
0010
0000
0000
0000
,
0101
0000
0000
0000
0000
0000
0000
0000
1100
0000
0000
0000
0000
0000
1000
0000
0010
0000
0000
M00M
0000
0000
0010
0000
0001
0000
0000
0000
0000
0000
0000
0000
,
0110
0000
0000
0001
0200
0000
0000
0000
1000
0000
0000
0000
0010
0000
0000
0010
,
0000
0301
0101
0000
1000
0010
0100
0001
,
1000
1001
100M
1001
,
M001
1001
M10M
1001
,
MMMM
0000
0001
0010
0002
0000
0000
0000
0003
0000
0001
0010
0002
0000
0000
0000
,
0000
0000
0000
0000
0003
0000
0001
0010
0001
0000
0100
0000
0010
0000
1000
0100
,
1000
0000
0001
0010
0002
0000
0000
0000
0003
0000
0001
0100
0002
0000
0000
0000
,
0003
0000
0000
0001
0010
0000
0000
0010
1000
0000
0000
1000
0100
0000
0000
0100
,
0001
0000
1000
0010
2000
0000
0000
0000
3000
0000
1000
0010
2000
0000
0000
0000
,
0000
0000
3000
0000
0000
0000
1000
0010
1000
0000
0100
0000
0010
0000
0001
0100
,
0001
0000
0100
0000
0020
0000
0000
0000
0030
0000
0010
0100
0020
0000
0000
0000
,
0000
0000
0000
0000
2030
0000
0000
0000
3100
0000
0010
0000
0001
0000
0000
0011
,
0000
0000
0010
0001
2000
0000
0000
0000
3000
0000
0010
1000
0002
0000
0000
0000
,
0000
0000
0000
0000
0003
0000
0010
0001
1000
0000
0010
0000
0100
0000
0010
1000
,
0001
0000
1000
0100
0020
0000
0000
0000
0030
0000
0100
0010
0002
0000
0000
0000
,
0000
0000
0003
1000
0010
0000
0000
0010
0001
0000
0000
0001
0100
0000
0000
0100
,
1000
0000
0010
1000
0002
0000
0000
0000
0003
0000
0010
0001
2000
0000
0000
0000
,
0000
0000
3000
0000
0000
0000
0010
1000
0001
0000
0010
0000
0100
0000
1000
0001
,
0100
0000
0010
0000
2000
0000
0000
0000
3000
0000
0100
0010
0002
0000
0000
0000
,
0003
0011
0101
1100
,
1010
0000
1000
0001
2000
0000
0000
0000
000M
0000
0000
0000
3002
0000
0000
0000
,
0203
0000
0000
0000
0001
0000
0000
0300
2001
0000
0000
0000
0000
0000
0000
0000
3020
0000
0000
0000
0000
0000
0000
0000
2030
0000
0000
0000
0000
0000
0000
0000
,
3002
0000
0000
0000
0100
0000
0000
0003
1002
0000
0000
0000
0000
0000
0000
0000
M000
0000
0000
0000
0000
0000
0000
0000
0023
0000
0000
0000
0000
0000
0000
0000
,
0230
0000
0000
0000
0010
0000
0000
0300
2100
0000
0000
0000
0000
0000
0000
0000
0M00
0000
0000
0000
0000
0000
0000
0000
3100
0000
0000
0000
1000
0000
0100
0000
,
1000
0000
0001
0100
0002
0000
0000
0000
0M00
0000
0000
0000
2003
0000
0000
0000
,
3200
0000
0000
0000
1000
0000
0000
0300
1002
0000
0000
0000
0000
0000
0000
0000
0023
0000
0000
0000
0000
0000
0000
0000
0032
0000
0000
0000
0000
0000
0000
0000
,
2003
0000
0000
0000
0100
0000
0000
3000
2001
0000
0000
0000
0000
0000
0000
0000
0000
0000
0000
0000
0000
0000
0000
0000
3010
0000
0000
0000
0000
0000
0000
0000
,
0000
1002
0000
0013
,
0000
0000
0000
0000
MMMM
0000
0000
0000
1001
0000
0000
0001
0010
0000
00M0
1000
,
0010
0000
0000
0000
0000
0000
0000
0000
0101
0000
0000
0000
0000
0000
0000
0000
1100
0000
0000
0000
0000
0000
1000
0000
0010
0000
0000
M00M
0000
0000
0010
0000
,
0001
0000
0000
0000
0000
0000
0000
0000
0110
0000
0000
0000
0000
0000
0001
0000
0010
0000
0000
M00M
0000
0000
0010
0000
2000
0000
0000
0000
0000
0000
0000
0000
,
0100
0000
0000
0100
0000
0000
0100
0000
3100
0000
0000
0000
0011
0000
0000
1000
,
0001
0000
0000
0100
0001
0000
0000
0000
1001
0000
0000
1000
0010
0000
00M0
0001
,
0010
0000
0000
0000
0000
0000
0000
0000
1100
0000
0000
0000
0000
0000
0000
0000
0101
0000
0000
0000
0000
0000
0001
0000
0010
0000
0000
M00M
0000
0000
0010
0000
,
1000
0000
0000
0000
0110
0000
0000
1000
0200
0000
0000
0000
0001
0000
0000
0000
,
0010
0000
0000
0010
0000
0000
1300
0000
1100
0000
0000
0000
0001
0000
0100
0010
,
0100
0000
0010
0000
1000
0000
0000
0000
1001
0000
0000
0001
0010
0000
00M0
1000
,
0100
0000
0000
0000
MMMM
0000
0000
0000
0011
0000
0000
0000
0000
0000
0000
0000
1010
0000
0000
0000
0000
0000
0001
0000
0100
0000
0000
M00M
0000
0000
0100
0000
,
1000
0000
0000
0000
MMMM
0000
0000
0000
0110
0000
0000
0000
0000
0000
1000
0000
0010
0000
0000
M00M
0000
0000
0010
0000
0002
0000
0000
0000
0000
0000
0000
0000
,
0100
0000
0000
0100
0000
0000
0103
0001
1000
0000
0100
0000
1100
0000
0000
0000
,
0110
0000
0000
0010
0001
0000
0000
0000
1001
0000
0000
1000
0010
0000
00M0
0001
,
0100
0000
0000
0000
MMMM
0000
0000
0000
1010
0000
0000
0000
0000
0000
0000
0000
0011
0000
0000
0000
0000
0000
1000
0000
0100
0000
0000
M00M
0000
0000
0100
0000
,
0001
0000
MMMM
0000
0110
0000
0000
0001
0020
0000
0000
0000
1000
0000
0000
0000
,
0100
0000
0000
0100
0000
0000
0031
0000
0011
0000
MMMM
0000
1001
0000
MMMM
0000
,
1010
MMMM
1000
0001
1001
0000
100M
0000
,
1001
M001
1001
M10M
,
1001
0000
1100
0011
0000
0000
0000
0000
;

//---------------dance-single - ----------------
#NOTEDATA:;
#CHARTNAME:05-08;
#STEPSTYPE:dance-single;
#DESCRIPTION:;
#CHARTSTYLE:;
#DIFFICULTY:Hard;
#METER:5;
#RADARVALUES:0.338312,0.372643,0.251044,0.853549,0.025104,283.000000,253.000000,30.000000,102.000000,0.000000,0.000000,0.000000,0.000000,0.000000,0.338312,0.372643,0.251044,0.853549,0.025104,283.000000,253.000000,30.000000,102.000000,0.000000,0.000000,0.000000,0.000000,0.000000;
#CREDIT:;
#NOTES:
0000
0000
0000
0000
,
0000
0000
0000
0000
,
0000
0000
0000
0000
,
0000
0000
0000
1000
,
0100
0001
0001
0100
,
1000
0010
0001
0010
,
2000
0000
0001
3000
,
1001
2000
3020
0230
,
0302
0023
0230
0302
,
0203
0000
0000
0000
0320
0000
0000
0000
0032
0000
0000
0000
1000
0000
0000
1000
,
0000
1000
1003
0000
0101
0000
0011
0000
,
1010
0002
0023
0230
,
2300
3020
0230
2300
,
3200
0000
0000
0000
0302
0000
0000
0000
0010
0000
0000
0000
1000
0000
0000
1000
,
0000
1000
1003
0000
0010
1000
0001
0010
,
0001
0012
1003
0102
,
1003
2010
3001
2100
,
3001
0100
0002
0000
0103
0001
0200
0000
,
0001
0000
0310
0100
0010
0000
1000
0100
,
1000
0100
0020
0000
0130
1000
0002
0000
,
0103
0101
1100
0101
,
1000
0100
2000
0000
3100
1000
0200
0000
,
1000
0000
0310
0100
0010
0000
0001
0100
,
0001
0100
0020
0000
0130
0001
2000
0000
,
3100
0000
0010
0000
0001
1000
0010
0000
,
0010
1000
0002
0000
0013
0001
2000
0000
,
3001
0000
1000
0010
0100
0000
0001
0010
,
0100
0010
0002
0000
0103
0010
2000
0000
,
3001
0101
1100
0101
,
1000
0001
0020
0000
0031
1000
0020
0000
,
1030
0000
0001
0010
0100
0000
1000
0010
,
0100
0010
2000
0000
3100
0010
0002
0000
,
1003
1010
0110
0101
,
1000
0001
2000
0000
3000
0000
2000
0000
,
3200
0302
0203
2300
,
3020
0032
0003
0002
,
0023
2030
0000
3100
,
1000
1002
0003
0002
,
0203
2300
3200
0302
,
0023
2030
0000
3010
,
0000
0020
0000
0031
,
0000
1000
0002
0023
,
0230
2300
3020
0230
,
2300
3200
0320
2030
,
0001
0000
0000
0001
0000
0000
0001
0000
3001
0000
0000
0000
0011
0000
0000
0000
,
1001
0101
2000
3020
,
0230
0302
0023
0230
,
0302
0203
2300
0010
,
0001
0000
0000
0001
0000
0000
0001
0000
3001
0000
0000
0000
0001
0000
0010
0000
,
1000
0010
0001
0000
0201
0000
2300
0000
,
3200
0302
0023
2030
,
3002
2003
3020
0032
,
1000
0000
0000
1000
0000
0000
1003
0000
0001
0000
0100
0000
0010
0000
0000
0000
,
1010
0011
1200
0302
,
0203
2300
3020
0032
,
2003
3002
0023
1000
,
0100
0000
0000
0100
0000
0000
0100
0000
0130
0000
0000
0000
0001
0000
0100
0000
,
0010
1000
0100
0000
0012
0000
1003
0000
,
0102
1003
2010
3001
,
2100
0000
3001
1001
0000
0000
0000
0000
;

//---------------dance-single - ----------------
#NOTEDATA:;
#CHARTNAME:04-05;
#STEPSTYPE:dance-single;
#DESCRIPTION:;
#CHARTSTYLE:;
#DIFFICULTY:Medium;
#METER:4;
#RADARVALUES:0.255826,0.298115,0.200835,0.543929,0.000000,214.000000,190.000000,24.000000,65.000000,0.000000,0.000000,0.000000,0.000000,0.000000,0.255826,0.298115,0.200835,0.543929,0.000000,214.000000,190.000000,24.000000,65.000000,0.000000,0.000000,0.000000,0.000000,0.000000;
#CREDIT:;
#NOTES:
0000
0000
0000
0000
,
0000
0000
0000
0000
,
0000
0000
0000
0000
,
0000
0000
0000
1000
,
0100
0010
0010
0001
,
0100
0010
0010
1000
,
0002
0000
0000
0000
,
1003
0001
0010
0001
,
0100
0001
0010
1000
,
0010
0001
0002
0100
,
0100
0103
0101
1010
,
0101
1000
0010
1000
,
0100
1000
0010
0001
,
0010
2000
0100
0100
,
3100
1000
0100
0010
,
0001
0022
0033
2020
,
3030
0202
0303
2200
,
3300
0002
0003
0002
,
0003
0001
0100
0010
,
1000
0002
0003
0200
,
0300
0010
0100
0010
,
1001
2000
3000
2000
,
3000
1000
0100
0010
,
0001
0200
0300
0200
,
0300
0001
0010
0100
,
1000
2200
3300
2200
,
3300
1000
0010
0001
,
0010
2020
3030
0202
,
0303
1000
1000
0010
,
0010
0202
0303
0202
,
0303
0001
0010
1000
,
0010
0022
0033
2200
,
3300
0001
0100
1000
,
0010
0002
0003
0002
,
0023
0032
0203
0320
,
2030
3002
0003
0002
,
0203
0302
0000
1003
,
0001
2000
3000
2000
,
3020
2030
3200
0320
,
0032
2003
0000
3001
,
0000
0002
0000
1003
,
0000
1001
1000
0010
,
1000
0100
1000
0010
,
0001
0010
1000
2000
,
0100
0100
3100
1000
,
0010
1000
0001
0010
,
0001
0100
0001
0010
,
1000
0010
0002
0100
,
0100
0103
0001
0100
,
0010
1000
0001
0010
,
1000
0010
0001
0100
,
1000
0001
0010
2000
,
0100
0100
3100
1100
,
0011
1100
1000
0010
,
0001
0010
1000
0100
,
0001
1000
0020
0001
,
0001
0031
0100
1000
,
0100
0001
0022
0033
,
2020
3030
0202
0303
,
1100
0000
0001
0001
0000
0000
0000
0000
;

//---------------dance-single - ----------------
#NOTEDATA:;
#CHARTNAME:02-02;
#STEPSTYPE:dance-single;
#DESCRIPTION:;
#CHARTSTYLE:;
#DIFFICULTY:Easy;
#METER:2;
#RADARVALUES:0.144649,0.223115,0.184099,0.368198,0.000000,121.000000,99.000000,22.000000,44.000000,0.000000,0.000000,0.000000,0.000000,0.000000,0.144649,0.223115,0.184099,0.368198,0.000000,121.000000,99.000000,22.000000,44.000000,0.000000,0.000000,0.000000,0.000000,0.000000;
#CREDIT:;
#NOTES:
0000
0000
0000
0000
,
0000
0000
0000
0000
,
0000
0000
0000
0000
,
0000
0000
0000
0000
,
1000
0000
1000
0000
,
0001
0000
0001
0000
,
0020
0000
0000
0000
,
0030
0001
0000
0010
,
0000
0001
0000
1000
,
0000
0002
0000
0003
,
0000
0100
0000
0001
,
0000
1000
0000
0010
,
0000
1000
0000
0001
,
0000
2000
0000
3000
,
0000
0100
0000
0010
,
0000
0011
0000
0101
,
0000
1010
0000
1100
,
0000
0002
0003
0002
,
0003
0010
0010
0010
,
0000
0002
0003
0200
,
0300
0001
0000
0001
,
0000
2000
3000
2000
,
3000
0010
0010
0010
,
0000
2000
3000
2000
,
3000
0100
0000
0010
,
0000
0022
0033
0022
,
0033
0010
0010
0010
,
0000
0022
0033
2200
,
3300
0001
0000
0001
,
0000
2020
3030
2020
,
3030
0010
0010
0010
,
0000
2020
3030
2020
,
3030
1000
0000
0001
,
0000
2002
0000
3003
,
0000
2200
0000
3300
,
0000
0220
0000
0330
,
0000
2200
0000
3300
,
0000
2002
0000
3003
,
0000
0202
0000
0303
,
0000
0020
0000
0000
,
0000
0000
0000
0000
,
0000
0030
1000
0000
,
0010
0000
1000
0000
,
0001
0000
2000
0000
,
3000
0000
0100
0000
,
1000
0000
0001
0000
,
0010
0000
0001
0000
,
1000
0000
0002
0000
,
0003
0000
0100
0000
,
0010
0000
1000
0000
,
0100
0000
0001
0000
,
0100
0000
2000
0000
,
3000
0000
0010
0000
,
0100
0000
0001
0000
,
0010
0000
1000
0000
,
0010
0000
0002
0000
,
0003
0000
1000
0000
,
0001
0000
0011
0000
,
0101
0000
1010
0000
,
1100
0001
0000
0000
;

//---------------dance-single - ----------------
#NOTEDATA:;
#CHARTNAME:01-01;
#STEPSTYPE:dance-single;
#DESCRIPTION:;
#CHARTSTYLE:;
#DIFFICULTY:Beginner;
#METER:1;
#RADARVALUES:0.059772,0.100836,0.008368,0.184099,0.000000,50.000000,49.000000,1.000000,22.000000,0.000000,0.000000,0.000000,0.000000,0.000000,0.059772,0.100836,0.008368,0.184099,0.000000,50.000000,49.000000,1.000000,22.000000,0.000000,0.000000,0.000000,0.000000,0.000000;
#CREDIT:;
#OFFSET:-0.513615;
#BPMS:0.000000=124.999992
;
#STOPS:;
#DELAYS:;
#WARPS:;
#TIMESIGNATURES:0.000000=4=4
;
#TICKCOUNTS:0.000000=4
;
#COMBOS:0.000000=1
;
#SPEEDS:0.000000=1.000000=0.000000=0
;
#SCROLLS:0.000000=1.000000
;
#FAKES:;
#LABELS:0.000000=Song Start
;
#NOTES:
// measure 0
0000
0000
0000
0000
,  // measure 1
0000
0000
0000
0000
,  // measure 2
0000
0000
0000
0000
,  // measure 3
0000
0000
0000
0000
,  // measure 4
1000
0000
0000
0000
,  // measure 5
0001
0000
0000
0000
,  // measure 6
0020
0000
0000
0000
,  // measure 7
0030
0000
0000
0000
,  // measure 8
0001
0000
0000
0000
,  // measure 9
0010
0000
0000
0000
,  // measure 10
0002
0000
0000
0000
,  // measure 11
0003
0000
0000
0000
,  // measure 12
1000
0000
0000
0000
,  // measure 13
0010
0000
0000
0000
,  // measure 14
2000
0000
0000
0000
,  // measure 15
3000
0000
0000
0000
,  // measure 16
0100
0000
0000
0000
,  // measure 17
0100
0000
0000
0000
,  // measure 18
1000
0000
2000
0000
,  // measure 19
3000
0000
0000
0000
,  // measure 20
0001
0000
0002
0000
,  // measure 21
0003
0000
0000
0000
,  // measure 22
1000
0000
2000
0000
,  // measure 23
3000
0000
0000
0000
,  // measure 24
0001
0000
0002
0000
,  // measure 25
0003
0000
0000
0000
,  // measure 26
0010
0000
0020
0000
,  // measure 27
0030
0000
0000
0000
,  // measure 28
0100
0000
0200
0000
,  // measure 29
0300
0000
0000
0000
,  // measure 30
0010
0000
0020
0000
,  // measure 31
0030
0000
0000
0000
,  // measure 32
0100
0000
0200
0000
,  // measure 33
0300
0000
0000
0000
,  // measure 34
2000
0000
3000
0000
,  // measure 35
0020
0000
0030
0000
,  // measure 36
0200
0000
0300
0000
,  // measure 37
0002
0000
0003
0000
,  // measure 38
0020
0000
0030
0000
,  // measure 39
0200
0000
0300
0000
,  // measure 40
2000
0000
0000
0000
,  // measure 41
0000
0000
0000
0000
,  // measure 42
3000
0000
0001
0000
,  // measure 43
0000
0000
0010
0000
,  // measure 44
0000
0000
0002
0000
,  // measure 45
0000
0000
0003
0000
,  // measure 46
0000
0000
1000
0000
,  // measure 47
0000
0000
0010
0000
,  // measure 48
0000
0000
2000
0000
,  // measure 49
0000
0000
3000
0000
,  // measure 50
0000
0000
1000
0000
,  // measure 51
0000
0000
0100
0000
,  // measure 52
0000
0000
0020
0000
,  // measure 53
0000
0000
0030
0000
,  // measure 54
0000
0000
0001
0000
,  // measure 55
0000
0000
0100
0000
,  // measure 56
0000
0000
0020
0000
,  // measure 57
0000
0000
0030
0000
,  // measure 58
0000
0000
0100
0000
,  // measure 59
0000
0000
0100
0000
,  // measure 60
0000
1001
0000
0000
;
