#VERSION:0.83;
#TITLE:SYNCHRONIZED LOVE;
#SUBTITLE:(djJM + G-Style mix);
#ARTIST:J.R. remixed by Kawachan;
#TITLETRANSLIT:;
#SUBTITLETRANSLIT:;
#ARTISTTRANSLIT:;
#GENRE:;
#ORIGIN:;
#CREDIT:;
#BANNER:synchronizedlove-bn.png;
#BACKGROUND:synchronizedlove-bg.png;
#PREVIEWVID:;
#JACKET:synchronizedlove-jacket.png;
#CDIMAGE:;
#DISCIMAGE:;
#LYRICSPATH:;
#CDTITLE:cdtitle.png;
#MUSIC:synchronizedlove.ogg;
#OFFSET:-0.351000;
#SAMPLESTART:66.180000;
#SAMPLELENGTH:11.000000;
#SELECTABLE:YES;
#BPMS:0.000=175.000,
96.000=174.995;
#STOPS:158.000=0.342;
#DELAYS:;
#WARPS:;
#TIMESIGNATURES:0.000=4=4;
#TICKCOUNTS:0.000=4;
#COMBOS:0.000=1;
#SPEEDS:0.000=1.000=0.000=0;
#SCROLLS:0.000=1.000;
#FAKES:;
#LABELS:0.000=Song Start;
#BGCHANGES:;
#KEYSOUNDS:;
#ATTACKS:
;

//---------------dance-single - ----------------
#NOTEDATA:;
#CHARTNAME:;
#STEPSTYPE:dance-single;
#DESCRIPTION:;
#CHARTSTYLE:;
#DIFFICULTY:Hard;
#METER:9;
#RADARVALUES:0.663894,0.731489,0.242315,0.250969,0.354819,537.000000,509.000000,28.000000,29.000000,0.000000,0.000000,0.000000,0.000000,0.000000,0.663894,0.731489,0.242315,0.250969,0.354819,537.000000,509.000000,28.000000,29.000000,0.000000,0.000000,0.000000,0.000000,0.000000;
#CREDIT:TonyAkita;
#NOTES:
0000
0000
0000
0000
,
0000
0000
0000
0000
,
0000
0000
0000
0000
,
0000
0000
0000
0000
,
1000
0010
0100
1000
0100
0001
0101
0000
,
0001
0010
0100
1000
0100
0001
0110
0000
,
2000
0100
0000
3100
0000
0001
1000
0001
,
0000
0000
0010
0000
0000
0000
0010
0000
0001
1000
0001
1000
0001
0000
1000
0000
,
0100
0010
0002
0010
0000
0013
0001
1000
,
0000
0000
0010
0000
1000
0000
0010
0000
0100
0001
0000
0100
0001
0000
0100
0000
,
0010
0100
0020
1000
0000
1030
0001
1000
,
0000
0000
0001
0000
0010
0000
0001
0000
0010
0100
0000
0010
0100
0000
1000
0000
,
0100
0010
0200
1000
0000
1300
0001
1000
,
0000
0000
0001
0000
0100
0000
0001
0000
1000
0010
0000
1000
0010
0000
1000
0000
,
0010
0100
0020
1000
0000
1030
0001
0100
,
0000
0000
0001
0000
1000
0000
0001
0000
0010
0100
0000
0010
0100
0000
1000
0000
,
0100
0001
0100
0110
0000
0010
0001
0010
,
0000
0000
0100
0000
1000
0000
0100
0000
0010
0001
0000
1000
0001
0000
1000
0000
,
0010
0100
0001
1001
0000
1000
0010
1000
,
0000
0000
0001
0000
1000
0000
0010
0000
0100
0001
0000
1000
0001
0000
0100
0000
,
0010
1000
0001
0011
0000
0100
1000
0100
,
0000
0000
1000
0000
0001
0000
0010
0000
0001
0100
0000
0001
0100
0000
0010
0000
,
2000
0010
0000
0010
0000
3010
1000
0001
,
0000
0000
0010
0000
0001
0000
0010
0000
0001
1000
0000
0001
1000
0000
1001
0000
,
0120
0000
1000
0000
,
2030
0000
0001
0000
,
3002
0000
0010
0000
,
0023
0000
0230
0000
,
1300
0000
0000
1000
0000
0000
1000
0000
0000
0000
0000
0001
0000
0000
0001
0000
,
0000
0000
0000
0010
0000
0000
0010
0000
0000
0000
0000
0001
0000
0000
0001
0000
,
0000
0000
0000
1000
0000
0000
0010
0000
0000
0000
0000
1000
0000
0000
0001
0000
,
0100
0000
0000
0001
0000
0000
0100
0000
0010
0000
0000
1000
0000
0000
0010
0000
,
1001
0000
0000
0001
0000
0000
0001
0000
0010
0000
0000
0001
0000
0000
0010
0000
,
0011
0000
0000
1000
0000
0000
1000
0000
0010
0000
0000
1000
0000
0000
0010
0000
,
1010
0000
0000
0100
0000
0000
0100
0000
0001
0000
0000
0100
0000
0000
0001
0000
,
0101
0000
0000
0100
0000
0000
0100
0000
0110
0000
0000
0010
0000
0000
0010
0000
,
1010
0000
0000
1000
0000
0000
0001
0000
0011
0000
0000
0001
0000
0000
1000
0000
,
1001
0000
0000
0010
0000
0000
0100
0000
0110
0000
0000
1000
0000
0000
0001
0000
,
2000
0000
0000
0010
0000
0000
0010
0000
3020
0000
0000
0100
0000
0000
0100
0000
,
0230
0000
0000
0001
0000
0000
0001
0000
0301
0000
0000
0000
1010
0000
0010
1000
,
0000
0010
1000
0000
0001
0000
1000
0001
0000
1000
0001
0000
0010
0000
0001
0010
,
0000
0001
0010
0000
0100
0000
1000
0000
0100
0000
0010
0000
0001
0000
1000
0010
,
0000
1000
0010
0000
0100
0000
0001
0100
0000
0001
0100
0000
0010
0000
1000
0001
,
0000
1000
0001
0000
2000
0000
0000
0010
0000
0000
0010
0000
3010
0000
0100
0001
,
0000
0010
0001
0000
1000
0000
0100
1000
0000
0010
1000
0000
0001
0000
0010
0001
,
0000
1000
0001
0000
1000
0000
0010
0000
0100
0000
0001
0000
0100
0000
0010
1000
,
0000
0001
0100
0000
0001
0000
0010
0001
0000
1000
0100
0000
0020
0000
0000
0001
,
0000
0031
1000
0001
1000
0010
0100
0001
,
1000
0001
1001
0000
2000
0010
0000
3010
,
0100
0001
0010
0000
0002
1000
0000
1003
,
0010
1000
0001
0100
0001
0010
0100
1000
,
0001
0000
0000
0000
0000
1010
0000
0001
,
1000
0001
0010
0000
0000
1100
0000
0001
,
0010
0001
1000
0000
0000
1010
0000
0001
,
1000
0001
0010
0100
1000
0100
0001
0100
,
1000
0000
0000
0001
0001
0010
0001
1000
,
0010
1000
0001
0000
0020
0001
0000
0031
,
0010
0100
1000
0000
0020
1000
0000
1030
,
0001
0010
0001
1000
0001
0010
0100
1000
,
0010
0000
0000
0000
0000
0011
0000
1000
,
0001
1000
0010
0000
0000
0101
0000
1000
,
0001
0010
0001
0000
0000
2000
0000
0100
,
0000
3100
0010
0001
0010
0001
1000
0010
,
0200
0000
0000
0000
0300
0000
0001
1000
,
0001
0000
1000
0000
0002
0000
0000
0010
0000
0000
0013
0000
0100
0000
1000
0000
,
0001
0100
0010
1000
1001
0000
0001
0010
,
0001
0000
0010
0000
0200
0000
0000
1000
0000
0000
1300
0000
0010
0000
1000
0000
,
0001
0000
0100
0000
0010
1000
0001
0000
1000
0000
0000
0000
0001
0000
0010
0000
,
0001
0000
0010
0000
0002
0000
0000
1000
0000
0000
1003
0000
0010
0000
1000
0000
,
0001
0100
0010
1000
1001
0000
1000
0010
,
1000
0000
0010
0000
0200
0000
0000
0001
0000
0000
0301
0000
1000
0000
0001
0000
,
1000
0010
1000
0010
0100
0000
0001
0000
0010
0000
0000
0000
0100
0000
1000
0000
,
0100
0000
1000
0000
0001
0000
0010
0001
0000
0010
0001
0000
0010
0000
0100
0000
,
1000
0100
0001
0100
1100
0000
1000
0010
,
1000
0000
0010
0000
0100
0000
0001
0100
0000
0001
0100
0000
0010
0000
1000
0000
,
0100
0000
1000
0000
0001
0100
0010
0000
1000
0000
0000
0000
0001
0000
0010
0000
,
0001
0000
0010
0000
0001
0000
0100
0001
0000
0100
0001
0000
0010
0000
1000
0000
,
0100
1000
0010
0100
1001
0000
0010
0001
,
0010
0000
0001
0000
2000
0000
0000
0001
0000
0000
3001
0000
1000
0000
0010
0000
,
0100
0001
0100
0001
0010
0000
0100
0000
1000
0000
0001
0000
2002
0000
0000
0000
,
0000
0000
3003
0000
;

//---------------dance-single - ----------------
#NOTEDATA:;
#CHARTNAME:;
#STEPSTYPE:dance-single;
#DESCRIPTION:;
#CHARTSTYLE:;
#DIFFICULTY:Medium;
#METER:6;
#RADARVALUES:0.457432,0.552132,0.363473,0.121158,0.034616,370.000000,328.000000,42.000000,14.000000,0.000000,0.000000,0.000000,0.000000,0.000000,0.457432,0.552132,0.363473,0.121158,0.034616,370.000000,328.000000,42.000000,14.000000,0.000000,0.000000,0.000000,0.000000,0.000000;
#CREDIT:;
#NOTES:
0000
0000
0000
0000
,
0000
0000
0000
0000
,
0000
0000
0000
0000
,
0000
0000
0000
0000
,
1000
0000
0001
0000
1000
0000
0010
1000
,
0001
0000
0010
0000
0001
0000
1000
0001
,
2000
0000
0010
0000
3010
0000
1000
0001
,
0000
0000
0000
0000
0010
0001
0010
0001
,
1001
0000
1000
0010
0000
0000
1000
0001
,
0000
0010
0000
0001
1000
0100
0010
0000
,
1001
0000
0001
0010
0000
0000
0001
1000
,
0000
0010
0000
1000
0010
0100
0001
0000
,
0011
0000
0001
1000
0000
0000
0001
0100
,
0000
0010
0000
0100
0010
1000
0010
0000
,
0110
0000
0001
1000
0000
0000
0001
0010
,
0000
0100
0000
0010
0001
0010
0001
0000
,
1001
0000
1000
0002
0000
0000
0013
0000
,
0001
0000
1000
0000
0010
1000
0100
1000
,
0010
0000
1000
0020
0000
0000
1030
0000
,
0001
0000
0010
0000
0001
0010
0100
0010
,
0001
0000
1000
0002
0000
0000
0103
0000
,
0010
0000
1000
0000
0001
1000
0010
1000
,
0002
0000
0010
0000
0013
0000
0001
1000
,
0000
0000
0000
0000
0010
1000
0010
1000
,
0002
0000
0000
0000
,
1000
0000
0000
0000
,
2003
0000
0000
0000
,
0010
0000
0020
0000
,
3030
0000
0000
0000
0000
0000
1000
0001
,
0000
0000
0000
0000
0000
0000
0010
0001
,
0000
0000
0000
0000
0000
0000
1000
0010
,
0000
0000
0000
0000
1000
0001
1000
0001
,
0110
0000
0001
0000
1000
0000
0001
1000
,
0001
0000
0100
0000
0010
0000
0100
0001
,
0100
0000
0010
0000
1000
0000
0010
1000
,
1001
0001
0011
1000
,
1010
0001
0101
1000
,
1001
0010
0110
0001
,
0002
0000
0010
0000
,
0010
0003
1001
0010
,
1000
0000
0010
0000
1000
0100
0010
0000
,
0001
0000
0010
0000
0001
1000
0010
0000
,
1000
0000
0010
0000
0100
0100
0101
0000
,
0001
1001
1000
1010
,
1000
0000
0010
0000
0100
0001
0010
0000
,
0001
0000
0010
0000
0100
1000
0010
0000
,
1000
0000
0010
0000
1000
0001
1001
0000
,
0010
0000
0110
0000
1000
0000
0010
1000
,
0010
1000
0100
0000
0000
0011
0000
0000
,
1000
0001
1000
0000
0000
1010
0000
0000
,
0001
0000
1000
0000
0001
0010
0100
1000
,
0100
0000
0000
0000
0000
2000
0000
0000
,
0001
0000
3001
0000
0000
0020
0000
0000
,
0001
0000
0031
0000
0000
1010
0000
0000
,
1000
0000
0001
0000
1000
0010
0100
0001
,
0100
0000
0000
0000
1001
0000
0010
0001
,
0010
0001
1000
0000
0000
1010
0000
0000
,
0100
0001
0100
0000
0000
0011
0000
0000
,
1000
0000
0001
0000
0010
0001
1000
0100
,
0010
0000
0000
0000
0000
0200
0000
0000
,
1000
0000
1300
0000
0000
0002
0000
0000
,
0100
0000
0103
0000
0000
1002
0000
0000
,
0010
0000
0013
0000
0001
1000
0001
1000
,
0001
0000
0000
0110
,
1001
0000
0000
0000
0010
0000
0000
1000
0000
0000
0010
0000
1000
0000
0000
0000
,
1000
0000
0001
0010
0010
0000
0011
0000
,
1001
0000
0000
0000
0001
0000
0000
0010
0000
0000
0001
0000
1000
0000
0000
0000
,
0001
0000
1000
0100
0010
0000
1001
0000
,
1010
0000
0000
0000
0100
0000
0000
0001
0000
0000
0100
0000
0001
0000
0000
0000
,
1000
0000
1000
0010
0010
0000
0110
0000
,
1001
0000
0000
0000
1000
0000
0000
0001
0000
0000
1000
0000
0010
0000
0100
0000
,
0010
0100
0010
0000
1001
0000
0001
0000
,
0010
0000
0000
0000
0001
0000
0000
1000
0000
0000
1000
0000
0001
0000
0000
0000
,
0001
0000
1000
0010
0010
0000
1001
0000
,
1010
0000
0000
0000
1000
0000
0000
0001
0000
0000
0001
0000
1000
0000
0000
0000
,
1000
0000
0010
0100
0001
0000
1001
0000
,
0011
0000
0000
0000
0001
0000
0000
1000
0000
0000
0001
0000
0100
0000
0000
0000
,
0100
0000
0010
1000
1000
0000
1001
0000
,
0110
0000
0000
0000
0001
0000
0000
0010
0000
0000
0001
0000
1000
0000
0001
0000
,
1000
0010
1000
0000
1001
0000
0110
0000
;

//---------------dance-single - ----------------
#NOTEDATA:;
#CHARTNAME:;
#STEPSTYPE:dance-single;
#DESCRIPTION:;
#CHARTSTYLE:;
#DIFFICULTY:Easy;
#METER:4;
#RADARVALUES:0.353582,0.448608,0.207699,0.173082,0.000000,286.000000,262.000000,24.000000,20.000000,0.000000,0.000000,0.000000,0.000000,0.000000,0.353582,0.448608,0.207699,0.173082,0.000000,286.000000,262.000000,24.000000,20.000000,0.000000,0.000000,0.000000,0.000000,0.000000;
#CREDIT:;
#NOTES:
0000
0000
0000
0000
,
0000
0000
0000
0000
,
0000
0000
0000
0000
,
0000
0000
0000
0000
,
1000
0001
1000
1010
,
0001
0010
0001
1001
,
2000
0000
0000
0010
0000
0000
0000
0000
,
3000
0010
0010
0010
,
1000
0010
1000
0001
,
0010
0000
0001
0000
1000
0001
0001
0000
,
1000
0010
0100
0001
,
0100
0000
0010
0000
1000
0010
0010
0000
,
1000
0001
0010
0001
,
1000
0000
0100
0000
1000
0001
0001
0000
,
1000
0010
1000
0001
,
0010
0000
0001
0000
1000
0001
1000
0000
,
2000
0010
3010
1000
,
1001
0000
0000
0000
0001
0001
0001
0000
,
0020
0001
0031
1000
,
1001
0000
0000
0000
0010
0010
0010
0000
,
2000
0001
3001
0100
,
0110
0000
0000
0000
0001
1000
0001
0000
,
2000
0000
0010
0000
,
3010
0000
1000
0001
,
2002
0000
0000
0000
,
0000
0000
0000
0000
,
3003
0000
0000
0000
,
1000
0000
0001
0000
,
0110
0000
0000
0000
,
1001
0000
0000
0000
,
1010
0000
0000
0000
,
0011
0000
1001
0000
,
0011
0001
0001
0001
,
1010
1000
1000
1000
,
1001
0001
0001
0001
,
1000
1000
0010
0010
,
1010
1000
0001
0001
,
0011
0001
1000
1000
,
0020
0000
0000
0000
,
0000
0030
1001
1000
,
0010
1000
0010
1000
,
0001
1000
0001
0010
,
0001
0010
0001
1000
,
0001
0000
1000
1000
1000
0000
0010
0000
,
1000
0010
1000
0001
,
0100
0001
0100
0001
,
0010
0001
0010
0002
,
0000
1000
1003
0010
,
1000
0010
0000
2000
,
0001
3001
0000
0010
,
0001
1000
0100
0010
,
0100
0000
0000
2000
,
0001
3001
0000
2000
,
0010
3010
0000
0100
,
0001
0100
0010
1000
,
0010
0000
0000
1000
,
0001
1000
0000
0020
,
1000
1030
0000
0001
,
0001
1000
0010
0100
,
0001
0000
0000
0020
,
0001
0031
0000
2000
,
0001
3001
0000
1000
,
0010
0100
0001
0100
,
0010
0000
0000
1000
,
1000
0002
0010
0013
,
0001
0000
1000
0001
0001
0000
1000
0000
,
1000
0020
1000
1030
,
0001
0000
0010
0001
0001
0000
0001
0000
,
0001
2000
0010
3010
,
0100
0000
0001
0100
0100
0000
0001
0000
,
0001
2000
0001
3001
,
0010
0001
1000
0010
,
0010
1001
1001
0001
,
1000
0000
0010
1000
0010
0000
1000
0000
,
1000
1010
1010
0010
,
1000
0000
0001
0010
0001
0000
1000
0000
,
1000
1100
1100
0001
,
0001
0000
1000
0001
1000
0000
0020
0000
,
0000
0100
0130
0010
,
1000
0001
1000
1001
;

//---------------dance-single - ----------------
#NOTEDATA:;
#CHARTNAME:;
#STEPSTYPE:dance-single;
#DESCRIPTION:;
#CHARTSTYLE:;
#DIFFICULTY:Challenge;
#METER:10;
#RADARVALUES:0.767743,0.940486,0.103849,0.242315,0.761562,621.000000,609.000000,12.000000,28.000000,20.000000,0.000000,0.000000,0.000000,0.000000,0.767743,0.940486,0.103849,0.242315,0.761562,621.000000,609.000000,12.000000,28.000000,20.000000,0.000000,0.000000,0.000000,0.000000;
#CREDIT:;
#NOTES:
// measure 0
0000
0000
0000
0000
,  // measure 1
0000
0000
0000
0000
,  // measure 2
0000
0000
0000
0000
,  // measure 3
0000
0000
0000
0000
,  // measure 4
1000
0001
1000
0010
0100
0001
1001
0001
,  // measure 5
0010
0001
1000
0100
0010
0001
0011
0001
,  // measure 6
2000
0010
0000
3010
0000
1000
0001
1000
,  // measure 7
0000
0000
0001
0000
0001
0000
0001
0000
0010
0001
0010
0001
0010
0000
0001
0000
,  // measure 8
1000
0010
1000
0002
0000
0000
0100
0103
,  // measure 9
0000
0000
0000
0000
0000
0000
0001
0010
0001
0010
0000
0001
1000
0000
0100
0000
,  // measure 10
0010
0001
1000
0002
0000
0000
0010
0013
,  // measure 11
0000
0000
0000
0000
0000
0000
1000
0010
1000
0010
0000
1000
0000
0001
1000
0000
,  // measure 12
0001
0010
0100
2000
0000
0000
0100
3100
,  // measure 13
0000
0000
0000
0000
0000
0000
1000
0001
1000
0001
0000
1000
0010
0000
0010
0000
,  // measure 14
1000
0001
0010
0002
0000
0000
1000
1003
,  // measure 15
0000
0000
0000
0000
0000
0000
0010
1000
0010
1000
0000
0001
0000
1000
0001
0000
,  // measure 16
1000
0010
1000
1001
0000
0000
1000
0001
,  // measure 17
0000
0000
0000
0000
0000
0000
1000
0001
0010
0100
0000
1000
0100
0010
0100
1000
,  // measure 18
0001
0010
0100
1100
0000
0000
0001
1000
,  // measure 19
0000
0000
0000
0000
0000
0000
0010
1000
0010
1000
0000
0001
0000
1000
0100
0010
,  // measure 20
0001
0010
0001
1001
0000
0000
0001
1000
,  // measure 21
0000
0000
0000
0000
0000
0000
0010
1000
0001
0100
0000
0001
0100
0010
0100
0001
,  // measure 22
1000
0100
0010
0001
0000
0000
1000
0001
,  // measure 23
0000
0000
0000
0000
0000
0000
1000
0010
1000
0010
0000
1000
0000
0001
1000
0001
,  // measure 24
2001
0000
0000
0001
0000
0000
0001
0000
0000
0000
0000
0010
0000
0000
0010
0000
,  // measure 25
3020
0000
0000
1000
0000
0000
1000
0000
0000
0000
0100
0000
0000
0100
0000
0030
,  // measure 26
0200
0000
0000
1000
0000
0000
1000
0000
0000
0000
0000
0001
0000
0000
0001
0000
,  // measure 27
0302
0000
0000
0010
0000
0000
0010
0000
0023
0000
0000
1000
0000
0000
1000
0000
,  // measure 28
0030
0000
0000
0001
0000
0000
0010
0000
0001
0000
0000
1000
0000
0000
0001
0000
,  // measure 29
1000
0000
0000
0010
0000
0000
1000
0000
0001
0000
0000
1000
0000
0000
0001
0000
,  // measure 30
1000
0000
0000
0010
0000
0000
0100
0000
0010
0000
0000
1000
0000
0000
0010
0000
,  // measure 31
0100
0000
0000
0001
0000
0000
1000
0000
0100
0000
0000
0010
0000
0000
0001
0000
,  // measure 32
1000
0000
0001
0010
0000
0001
0010
0000
0010
0000
0001
1000
0000
0001
1000
0000
,  // measure 33
1000
0000
0010
1000
0000
0010
1000
0000
1000
0000
0001
1000
0000
0001
1000
0000
,  // measure 34
0010
0000
0100
0010
0000
0100
0010
0000
1000
0000
0001
1000
0000
0001
1000
0000
,  // measure 35
0010
0000
1000
0010
0000
0100
0001
0000
0010
0000
0001
0010
0000
0100
1000
0000
,  // measure 36
0100
0000
0010
0001
0000
1000
0010
0000
0100
0000
0001
0010
0000
0100
1000
0000
,  // measure 37
0010
0000
1000
0010
0000
0100
0001
0000
0010
0000
0001
0010
0000
0100
1000
0000
,  // measure 38
0200
0000
0000
1000
0000
0000
1000
0000
0320
0000
0000
0001
0000
0000
0001
0000
,  // measure 39
0230
0000
0000
0010
0000
0000
0310
0000
2002
3003
MMMM
0000
1000
0000
0010
1000
,  // measure 40
0000
0001
0010
0001
0010
0000
0100
1000
0000
0010
1000
0010
1000
0000
0001
0100
,  // measure 41
0000
0001
1000
0001
1000
0000
0010
1000
0000
0010
1000
0001
0100
0000
0001
0100
,  // measure 42
0000
0001
0100
0010
1000
0000
0010
1000
0000
0010
1000
0001
0010
0000
0001
0010
,  // measure 43
0000
0001
1000
0000
0002
0000
1000
0000
0000
1000
0000
0000
1003
0000
0010
1000
,  // measure 44
0000
0010
1000
0001
0100
0000
0001
0100
0000
0001
1000
0100
1000
0000
0100
1000
,  // measure 45
0000
0100
1000
0001
0010
0000
0001
0010
0000
0001
1000
0001
2000
0000
0000
0010
,  // measure 46
0000
0000
0010
0000
3002
0000
0000
0010
0000
0000
0013
0000
0001
0000
0000
1000
,  // measure 47
0000
0001
1000
0100
0010
0001
0010
0001
,  // measure 48
1000
0000
0010
0000
0100
0000
0000
0001
1000
0000
0010
0000
1000
0000
0001
0000
,  // measure 49
0010
0000
0100
0000
1000
0000
0000
0001
1000
0000
0010
0000
1000
0000
0001
0000
,  // measure 50
0100
0010
0100
0001
1000
0100
0020
0001
,  // measure 51
0031
0000
MMMM
0000
0000
1000
0010
1000
,  // measure 52
0001
0000
0100
0000
0010
0000
0000
0001
1000
0000
0001
0000
0010
0000
0001
0000
,  // measure 53
1000
0000
0100
0000
0010
0000
0000
0001
1000
0000
0010
0000
1000
0000
0001
0000
,  // measure 54
0100
0010
1000
0010
0100
0001
0020
0001
,  // measure 55
0031
0000
0000
0000
MMMM
0000
1000
0001
,  // measure 56
1000
0000
0010
0000
1000
0000
0000
0001
1000
0000
0001
0000
0010
0000
0100
0000
,  // measure 57
1000
0000
0001
0000
0010
0000
0000
0001
1000
0000
0001
0000
0010
0000
0001
0000
,  // measure 58
1000
0010
0010
0100
0001
1000
0020
1000
,  // measure 59
1030
0000
MMMM
0000
0000
0001
0010
0001
,  // measure 60
1000
0000
0100
0000
0010
0000
0000
1000
0001
0000
1000
0000
0001
0000
0010
0000
,  // measure 61
0100
0000
0010
0000
0001
0000
0000
1000
0001
0000
1000
0000
0010
0000
0100
0000
,  // measure 62
0100
0001
1000
0001
0100
0010
0200
0001
,  // measure 63
0301
0000
0000
0000
0000
0000
0000
0000
MMMM
0000
0000
0000
1000
0010
1000
0000
,  // measure 64
0001
1000
0001
0000
0020
0000
0000
0001
0000
0000
0031
0000
1000
0100
0010
0100
,  // measure 65
1000
0000
0001
0000
0010
0001
0010
0000
1001
0000
0000
0000
1000
0010
1000
0000
,  // measure 66
0001
0100
0001
0000
2000
0000
0000
0010
0000
0000
3010
0000
0100
0000
0001
0000
,  // measure 67
0010
0000
0001
0000
1000
0010
1000
0000
1001
0000
0000
0000
1000
0001
1000
0000
,  // measure 68
0001
0100
0001
0000
0020
0000
0000
1000
0000
0000
1030
0000
0001
0100
0010
0100
,  // measure 69
0001
0000
1000
0000
0100
0010
0001
0000
1001
0000
0000
0000
0001
0010
0001
0000
,  // measure 70
0010
0100
0010
0000
2000
0000
0000
0100
0000
0000
3100
0000
1000
0100
0010
0001
,  // measure 71
0010
0100
1000
0001
0100
0010
1000
0000
1010
0000
0000
0000
1000
0001
1000
0000
,  // measure 72
0001
1000
0001
0000
1000
0000
0010
1000
0000
0010
1000
0000
0010
0100
0001
1000
,  // measure 73
0010
0000
1000
0000
0001
0010
0100
0000
1000
0000
0000
0000
0001
1000
0010
0000
,  // measure 74
1000
0001
0010
0000
0001
0000
0010
0001
0000
0010
0001
0000
1000
0000
0100
0000
,  // measure 75
0001
0000
0100
0000
1000
0100
1000
0000
0001
0000
0000
0000
0100
0010
1000
0000
,  // measure 76
0010
0100
0001
0000
1000
0000
0001
0100
0000
0001
0100
0000
0010
1000
0001
1000
,  // measure 77
0010
0000
0100
0000
0001
1000
0001
0000
0010
0000
0000
0000
0001
1000
0100
0000
,  // measure 78
1000
0001
0100
0000
0001
0000
1000
0001
0000
1000
0001
0000
1000
0100
0010
0001
,  // measure 79
0100
0010
1000
0001
1000
0001
0100
0010
1000
0000
0001
0000
2002
0000
0000
0000
,  // measure 80
0000
0000
3003
0000
;
