#TITLE:Rate Cranky Hi-roller;
#SUBTITLE:;
#ARTIST:rate-dat + Cranky + hi-low;
#TITLETRANSLIT:;
#SUBTITLETRANSLIT:;
#ARTISTTRANSLIT:;
#GENRE:Old-school rave;
#CREDIT:tikal.;
#MUSIC:[Timing Window] - Rate Cranky Hi-roller.ogg;
#BANNER:[Timing Window] - Rate Cranky Hi-roller.png;
#BACKGROUND:[Timing Window] - Rate Cranky Hi-roller-bg.png;
#CDTITLE:cdtitle.png;
#SAMPLESTART:100.804;
#SAMPLELENGTH:12.800;
#SELECTABLE:YES;
#OFFSET:-0.004;
#BPMS:0.000=150.000;
#STOPS:;
#BGCHANGES:;
#FGCHANGES:;

//--------------- dance-single - tikal. ----------------
#NOTES:
     dance-single:
     tikal.:
     Hard:
     9:
     0,0,0,0,0:
0000
0000
0000
0000
,
0000
0000
0000
0000
,
0000
0000
0000
0000
,
0000
0000
0000
0000
,
0000
0000
0000
0000
,
0000
0000
0000
0000
,
0000
0000
0000
0000
,
0000
0000
0000
0000
,
1000
0000
0100
0000
0000
0010
0000
0000
0100
0000
0000
0010
0000
0000
0010
0000
,
0001
0000
0100
0000
0000
0010
0000
0000
0100
0000
0000
0010
0000
1000
0001
1000
,
0001
0000
0010
0000
0000
1100
0000
0000
0011
0000
0000
1100
0000
0000
1000
0000
,
0001
0000
0100
0000
0000
1010
0000
0000
0101
0000
0000
1010
0000
1000
0001
0000
,
1000
0000
0100
0000
0000
0011
0000
0000
1100
0000
0000
0011
0000
0000
0001
0000
,
1000
0000
0010
0000
0000
0101
0000
1010
0000
0001
0000
0100
0001
1000
0001
0000
,
1000
0000
0100
0000
0000
0011
0000
0000
1100
0000
0000
2002
0000
0000
3003
0000
,
0001
0000
0100
0000
0000
1010
0000
0000
0101
0000
0000
2002
0000
0000
3003
0000
,
0001
0000
0010
0000
0000
1100
0000
0000
0011
0000
0000
2002
0000
0000
3003
0000
,
0101
0000
0000
1010
0000
0000
1100
0000
0000
0011
0000
0000
1000
0000
0001
0000
,
0101
1010
1100
0011
,
1000
0010
0100
0001
0100
0010
0010
0000
,
1000
0010
0001
1000
0100
0010
1000
0001
,
0010
1000
0001
0100
0010
0001
1000
0000
,
0110
0000
2001
0000
0000
0100
3100
0000
,
0010
0001
0100
0010
1000
0001
0001
0000
,
1100
1010
0011
0101
,
0001
1000
0001
0000
0010
0000
1001
0000
,
1000
0000
0010
0000
0000
0101
0000
0000
1010
0000
0000
0101
0000
0000
0001
0000
,
1000
0000
0100
0000
0000
0011
0000
0000
1100
0000
0000
0011
0000
0001
1000
0000
,
0001
0000
0100
0000
0000
1010
0000
0000
0101
0000
0000
1010
0000
0000
1000
0000
,
0001
0000
0010
0000
0000
1100
0000
0011
0000
1000
0000
0100
1000
0001
1000
0000
,
0001
0000
0100
0000
0000
1010
0000
0000
0101
0000
0000
2002
0000
0000
3003
0000
,
1000
0000
0100
0000
0000
0011
0000
0000
1100
0000
0000
2002
0000
0000
3003
0000
,
1000
0000
0010
0000
0000
0101
0000
0000
1010
0000
0000
2002
0000
0000
3003
0000
,
1100
0000
0000
0011
0000
0000
0101
0000
0000
1010
0000
0000
0001
0000
1000
0000
,
1100
0000
0000
0000
0000
0000
0000
0000
0000
0000
0000
0000
0000
0000
0000
0000
0010
0000
0000
0000
0000
0000
0000
0000
0010
0000
0000
0000
0000
0000
0000
0000
0001
0000
0000
0000
0000
0000
0000
0000
0000
0000
0000
0000
0000
0000
0000
0000
0000
1001
0000
0000
0000
0000
0000
0000
0000
0000
0000
0000
0000
0000
0000
0000
,
0001
0000
0100
0001
0000
0000
0100
0000
0001
0100
0000
0000
0001
0000
1000
0001
,
0000
0000
1000
0000
0001
1000
0000
0000
0001
0000
0010
0001
0000
0010
0001
0000
,
1000
0000
0100
1000
0000
0000
0100
0000
1000
0100
0000
0000
1000
0000
0001
1000
,
0000
0000
0001
0000
1000
0001
0000
0000
1000
0000
0010
1000
0000
0010
1000
0000
,
0001
0000
0010
0001
0000
0000
0010
0000
0001
0010
0000
0000
0001
0000
1000
0001
,
0000
0000
1000
0000
0001
1000
0000
0000
0001
0000
0100
0001
0000
0100
0001
0000
,
1000
0000
0010
1000
0000
0000
0010
0000
1000
0010
0000
0000
1000
0000
0001
1000
,
0000
0000
0001
0000
1000
0001
0000
1000
0000
0100
1000
0000
0100
0000
0010
0000
,
0001
0000
0010
0001
0000
0010
0001
0000
0010
0001
0000
0000
0010
0000
0001
1000
,
0000
0001
1000
0000
0001
1000
0000
0000
0010
0000
1000
0001
0000
1000
0001
0000
,
1000
0000
0010
1000
0000
0010
1000
0000
0010
1000
0000
0000
0010
0000
1000
0001
,
0000
1000
0001
0000
1000
0001
0000
0000
0010
0000
0001
1000
0000
0001
1000
0000
,
0001
0000
0100
0001
0000
0100
0001
0000
0100
0001
0000
0000
0100
0000
0001
1000
,
0000
0001
1000
0000
0001
1000
0000
0000
0100
0000
1000
0001
0000
1000
0001
0000
,
1000
0000
0100
1000
0000
0100
1000
0000
0100
1000
0000
0000
0100
0000
1000
0001
,
0000
1000
0001
0000
1000
0001
0000
0000
0100
0000
0001
1000
0000
0001
1000
0001
,
2000
0000
0000
0000
,
3200
0000
0000
0000
,
0320
0000
0000
0000
,
0032
0000
0000
0000
,
1003
0000
0010
0000
0000
0100
0000
0000
0010
0000
0100
0000
0002
0000
0000
0000
,
1003
0000
0100
0000
0000
0010
0000
0000
0100
0000
0010
0000
0002
0000
0000
0003
,
0001
0000
0010
0000
0000
0100
0000
0000
0010
0000
0100
0000
2000
0000
0000
0000
,
3000
0000
0000
0000
,
0001
0000
0100
0000
0000
0010
0000
0000
0100
0000
0000
0010
0000
0000
0010
0000
,
1000
0000
0100
0000
0000
0010
0000
0000
0100
0000
0000
0010
0000
0001
1000
0000
,
0001
0000
0010
0000
0000
0100
0000
0000
0010
0000
0000
0100
0000
0000
0100
0000
,
0000
0000
0000
1001
,
0001
0000
0100
0000
0000
1010
0000
0000
0101
0000
0000
1010
0000
0000
1000
0000
,
0001
0000
0010
0000
0000
1100
0000
0000
0011
0000
0000
1100
0000
1000
0001
0000
,
1000
0000
0010
0000
0000
0101
0000
0000
1010
0000
0000
0101
0000
0000
0001
0000
,
1000
0000
0100
0000
0000
0011
0000
1100
0000
0001
0000
0010
0001
1000
0001
0000
,
1000
0000
0010
0000
0000
0101
0000
0000
1010
0000
0000
2002
0000
0000
3003
0000
,
0001
0000
0010
0000
0000
1100
0000
0000
0011
0000
0000
2002
0000
0000
3003
0000
,
0001
0000
0100
0000
0000
1010
0000
0000
0101
0000
0000
2002
0000
0000
3003
0000
,
0011
0000
0000
1100
0000
0000
1010
0000
0000
0101
0000
0000
1000
0000
0001
0000
,
0022
0000
0000
0000
,
0000
0000
0000
0000
,
0000
0003
0000
1000
0000
0000
0000
0000
,
0030
0000
0000
0000
;

//--------------- dance-single - tikal. ----------------
#NOTES:
     dance-single:
     tikal.:
     Challenge:
     10:
     0,0,0,0,0:
0000
0000
0000
0000
,
0000
0000
0000
0000
,
0000
0000
0000
0000
,
0000
0000
0000
0000
,
0000
0000
0000
0000
,
0000
0000
0000
0000
,
0000
0000
0000
0000
,
0000
0000
0000
0000
,
1000
0000
0100
0000
0010
0001
0000
0010
0100
0000
0010
0001
0000
0010
0001
0000
,
1000
0000
0010
0000
0100
0001
0000
0100
0010
0000
0100
0001
1000
0001
1000
0001
,
1000
0000
0001
0000
0100
0010
0000
0100
0001
0000
0100
0010
0000
0100
0001
1000
,
0001
0000
1000
0000
0100
0010
0000
0100
1000
0000
0100
0010
0000
0001
0010
0100
,
1000
0000
0001
0000
0010
0100
0000
0010
0001
0000
0010
0100
0000
0010
0001
1000
,
0001
0000
1000
0000
0010
0100
0000
0010
0000
1000
0000
0001
1000
0001
0100
0010
,
0100
0000
0001
0000
0100
0010
0000
0100
0001
0000
0100
2000
0000
0000
3100
0000
,
0010
0000
1000
0000
0010
0100
0000
0010
1000
0000
0010
0002
0000
0000
0013
1000
,
0100
0000
1000
0000
0100
0010
0000
0100
1000
0000
0100
0002
0000
0000
0103
0000
,
0010
0001
0000
0001
0100
0000
0100
0010
0000
0010
1000
0000
0100
0000
0010
0000
,
0011
1100
1010
0101
,
1000
0000
0100
0000
0010
0000
0001
1000
0001
0100
0010
0000
0010
0000
0000
0000
,
1000
0000
0010
0000
0001
0000
1000
0000
0100
0000
0010
0000
1000
0000
0001
1000
,
0001
0000
0010
0000
1000
0000
0001
0100
0010
0001
1000
0010
0100
0010
1000
0001
,
0010
0100
0010
0001
0000
0000
0010
0100
0010
0001
0000
0000
1000
0010
0100
0000
,
0010
1000
0010
0100
0000
0001
0000
0100
0000
0001
0100
0010
0000
0100
0010
1000
,
0001
0000
0001
0000
1000
0100
0000
0100
0010
0001
1000
0010
0100
0001
1000
0100
,
0010
0100
0010
0000
0001
0000
1001
0000
,
1000
0000
0001
0000
0010
0100
0000
0010
0001
0000
0010
0100
0000
0010
0001
1000
,
0001
0000
1000
0000
0010
0100
0000
0010
1000
0000
0010
0100
0000
0001
0100
0010
,
1000
0000
0001
0000
0100
0010
0000
0100
0001
0000
0100
0010
0000
0100
0001
1000
,
0001
0000
1000
0000
0100
0010
0000
0100
0000
1000
0000
0001
1000
0001
0010
0100
,
0010
0000
0001
0000
0010
0100
0000
0010
0001
0000
0010
2000
0000
0000
3010
0000
,
0100
0000
1000
0000
0100
0010
0000
0100
1000
0000
0100
0002
0000
0000
0103
1000
,
0010
0000
1000
0000
0010
0100
0000
0010
1000
0000
0010
0002
0000
0000
0013
0000
,
0100
0001
0000
0001
0010
0000
0010
0100
0000
0100
1000
0000
0010
0000
0100
0000
,
0101
0000
0000
0000
0000
0000
0000
0000
0000
0000
0000
0000
0000
0000
0000
0000
1000
0000
0000
0000
0100
0000
0000
0000
1000
0000
0000
0000
0000
0000
0000
0000
0010
0000
0000
0000
0000
0000
0000
0000
0000
0000
0000
0000
0000
0000
0000
0000
0000
1001
0000
0000
0000
0000
0000
0000
0000
0000
0000
0000
0000
0000
0000
0000
,
0001
0000
0010
0001
0000
0010
0001
0000
0010
0100
0000
0010
0100
0000
0010
0001
,
0000
0010
0001
0000
0010
0100
0010
0000
0100
0000
1000
0100
0000
1000
0001
0000
,
1000
0000
0010
1000
0000
0010
1000
0000
0010
0100
0000
0010
0100
0000
0010
1000
,
0000
0010
1000
0000
0010
0100
0010
0000
0100
0000
0001
0100
0000
0001
1000
0001
,
1000
0000
0100
1000
0000
0100
1000
0000
0100
0010
0000
0100
0010
0000
0100
1000
,
0000
0100
1000
0000
0100
0010
0100
0000
0010
0000
0001
0010
0000
0001
1000
0000
,
0001
0000
0100
0001
0000
0100
0001
0000
0100
0010
0000
0100
0010
0000
0100
0001
,
0000
0100
0001
0000
0100
0010
0100
0010
0000
1000
0010
1000
0000
0001
1000
0001
,
1000
0000
0100
0010
0000
0100
1000
0000
0100
0010
0000
0100
1000
0000
0010
0100
,
0000
0010
1000
0000
0010
0100
0010
0000
0100
0001
0100
0001
0000
1000
0001
1000
,
0001
0000
0100
0010
0000
0100
0001
0000
0100
0010
0000
0100
0001
0000
0010
0100
,
0000
0010
0001
0000
0010
0100
0010
0000
0100
1000
0100
1000
0000
0001
1000
0001
,
1000
0000
0010
0100
0000
0010
1000
0000
0010
0100
0000
0010
1000
0000
0100
0010
,
0000
0100
1000
0000
0100
0010
0100
0000
0010
0001
0010
0001
0000
1000
0001
1000
,
0001
0000
0010
0100
0000
0010
0001
0000
0010
0100
0000
0010
0001
0000
0100
0010
,
0000
0100
0001
0000
0100
0010
0100
0000
0010
1000
0010
0100
0001
0010
0100
1000
,
0002
1000
0000
1003
,
2000
0001
0000
3001
,
0020
0100
0000
0130
,
0200
0010
0000
0310
,
0001
0000
0010
0000
0100
1000
0000
0001
1000
0000
0100
1000
0002
0000
0000
0000
,
1003
0000
0010
0000
0100
0001
0000
1000
0001
0000
0100
0001
2000
0000
0000
0000
,
3001
0000
0100
0000
0010
1000
0000
0001
1000
0000
0010
1000
0002
0000
0000
0000
,
0003
0000
0000
0000
,
0001
0000
0100
0000
0010
1000
0000
0010
0100
0000
0010
1000
0000
0010
1000
0000
,
0001
0000
0010
0000
0100
1000
0000
0100
0010
0000
0100
1000
0000
0001
0010
0100
,
1000
0000
0100
0000
0010
0001
0000
0010
0100
0000
0010
0001
0000
0010
0001
0000
,
1000
0010
0100
1001
,
0001
0000
1000
0000
0010
0100
0000
0010
1000
0000
0010
0100
0000
0010
1000
0001
,
1000
0000
0001
0000
0010
0100
0000
0010
0001
0000
0010
0100
0000
1000
0100
0010
,
0001
0000
1000
0000
0100
0010
0000
0100
1000
0000
0100
0010
0000
0100
1000
0001
,
1000
0000
0001
0000
0100
0010
0000
0100
0000
0001
0000
1000
0001
1000
0010
0100
,
0010
0000
1000
0000
0010
0100
0000
0010
1000
0000
0010
0002
0000
0000
0013
0000
,
0100
0000
0001
0000
0100
0010
0000
0100
0001
0000
0100
2000
0000
0000
3100
0001
,
0010
0000
0001
0000
0010
0100
0000
0010
0001
0000
0010
2000
0000
0000
3010
0000
,
0100
1000
0000
1000
0010
0000
0010
0100
0000
0100
0001
0000
0010
0000
0100
0000
,
2200
0000
0000
0000
,
0000
0000
0000
0000
,
0000
0000
0000
3001
0000
0000
0000
0000
,
0300
0000
0000
0000
;
