#TITLE:Party People;
#SUBTITLE:(All Night Long);
#ARTIST:Oscillator X;
#TITLETRANSLIT:;
#SUBTITLETRANSLIT:;
#ARTISTTRANSLIT:;
#GENRE:;
#CREDIT:;
#BANNER:partypeopleallnightlong_bn.png;
#BACKGROUND:partypeopleallnightlong_bg.png;
#LYRICSPATH:;
#CDTITLE:cdtitle.png;
#MUSIC:partypeopleallnightlong.ogg;
#OFFSET:0.000000;
#SAMPLESTART:32.020000;
#SAMPLELENGTH:16.000000;
#SELECTABLE:YES;
#BPMS:0.000000=120.000000
;
#STOPS:
;
#BGCHANGES:;
#KEYSOUNDS:;
#ATTACKS:;

//---------------dance-single - ----------------
#NOTES:
     dance-single:
     :
     Easy:
     4:
     0.240671,0.292149,0.145380,0.256553,0.012828,197.000000,180.000000,17.000000,30.000000,0.000000,0.000000,0.240671,0.292149,0.145380,0.256553,0.012828,197.000000,180.000000,17.000000,30.000000,0.000000,0.000000:
0000
0000
0000
0000
,
0000
0000
0000
0000
,
0000
0000
0000
0000
,
0000
0000
0000
0000
,
0202
0000
0303
0000
0000
0001
0000
0000
,
2020
0000
3030
0000
0000
1000
0000
0000
,
2200
0000
3300
0000
0000
0001
0000
0000
,
1000
0000
0000
0001
,
0001
0000
0100
0000
0000
0100
0000
0100
,
0010
0000
1000
0000
0000
1000
0000
0001
,
1000
0100
0100
1000
,
0010
0010
0100
0100
,
0001
0000
0010
0000
0000
0010
0000
0010
,
0100
0000
1000
0000
0000
0001
0000
1000
,
0001
0100
0100
0010
,
1000
1000
0001
0001
,
0100
0001
0100
0010
,
1000
0000
0100
0000
0000
0100
0000
0100
,
0010
0001
0100
0001
,
0010
0100
1000
0001
,
0100
0010
1000
0010
,
1000
0000
0100
0000
0000
0010
0000
0010
,
0001
0001
1000
1000
,
0010
0100
0001
1000
,
0200
0000
0300
0100
,
0020
0000
0030
0010
,
0002
0000
0003
0001
,
0100
0100
0100
0010
,
2000
0000
3000
0001
,
0020
0000
0030
0100
,
2000
0000
3000
0001
,
0010
0010
0010
0010
,
0001
0100
1000
0100
,
0001
1000
0100
0001
,
0100
1000
0010
0001
,
0010
1000
0001
0010
,
1000
0010
0001
1000
,
0001
0100
1000
0100
,
0010
1000
0100
0001
,
0100
1000
0010
0100
,
0220
0000
0330
0000
0000
0100
0000
0001
,
2000
0000
3000
0000
0000
1000
0000
0100
,
0010
0100
0100
0000
,
0110
1001
0110
0000
,
0202
0000
0303
0000
0000
0001
0000
1000
,
0200
0000
0300
0000
0000
0100
0000
1000
,
0100
0010
0001
0000
,
1001
0110
1001
0000
,
2002
3003
0010
0100
,
0220
0330
1000
0100
,
2200
3300
0010
0001
,
1000
1000
0001
0001
,
0202
0303
1000
0010
,
2020
3030
0001
0010
,
0022
0033
1000
0100
,
1000
1000
0001
0001
,
0100
0000
0000
0010
0000
0000
0100
0000
0000
0010
0000
0000
0100
0000
0000
0010
;

//---------------dance-single - ----------------
#NOTES:
     dance-single:
     :
     Medium:
     6:
     0.389716,0.413878,0.153932,0.085518,0.076966,319.000000,301.000000,18.000000,10.000000,0.000000,0.000000,0.389716,0.413878,0.153932,0.085518,0.076966,319.000000,301.000000,18.000000,10.000000,0.000000,0.000000:
0000
0000
0000
0000
,
0000
0000
0000
0000
,
0000
0000
0000
0000
,
0000
0000
0000
0000
0000
0000
0000
0001
,
0200
0000
0301
1000
0000
0001
0000
1000
,
0200
0000
1300
0001
0000
1000
0000
0010
,
0200
0000
0310
0100
0000
0001
0000
1000
,
0100
0000
1000
0000
0100
0000
0000
0010
0000
0000
0001
0000
1000
0000
1000
0000
,
2000
0000
3100
1000
0000
0100
0000
0100
,
0010
0001
1000
0100
0000
1000
0000
0001
,
0200
0000
0310
0000
0100
0010
1000
0100
,
0000
0010
0001
0100
0000
0100
0001
0010
,
0200
0000
1300
0100
0000
0010
0000
0001
,
0100
0001
1000
0100
0000
0100
0000
1000
,
0020
0000
0130
0000
0100
0010
1000
0100
,
0000
0010
0001
0100
0000
0001
0010
0100
,
1000
0000
0001
0000
0100
0010
0100
0001
,
1000
0100
0010
0001
0000
0001
0000
0001
,
1000
0000
0100
1000
0100
0001
0100
0010
,
0001
1000
0010
1000
0000
0000
1000
0010
,
0100
0000
0010
0000
0100
0001
0100
0010
,
1000
0100
0010
0001
0000
0001
0000
0001
,
0100
1000
0100
0010
1000
0100
0001
0100
,
0010
0001
1000
0002
0000
0000
0003
0000
,
1000
0100
1000
0010
1000
0000
0000
0000
,
0000
0001
0100
0010
1000
0000
0000
0000
,
1000
0100
0010
0100
1000
0000
0000
0000
,
0100
0000
0010
0100
0000
0010
0100
0000
0010
0000
0001
0000
0100
0000
0010
0000
,
1000
0001
0100
1000
0100
0000
0000
0000
,
0000
0001
0010
1000
0010
0000
0000
0000
,
0100
1000
0100
0001
0100
0000
0000
0000
,
1000
0000
0001
1000
0000
0001
1000
0000
0010
0000
0100
0000
0001
0000
1000
0000
,
0100
0000
1100
0000
1000
0001
0100
0000
,
0001
0000
0101
0000
0100
0001
1000
0000
,
0010
0000
1010
0000
1000
0001
0010
0000
,
0001
0000
0011
0000
0001
1000
0010
1000
,
0100
0000
1100
0000
1000
0010
0100
0000
,
0001
0000
0101
0000
0010
1000
0001
0000
,
0010
0000
0011
0000
0001
1000
0100
0000
,
0100
0000
1100
0000
0010
0100
0010
0000
,
0110
0000
0110
0000
0100
0010
0000
0001
,
0200
0000
0300
0000
0000
0100
0000
0100
,
0010
0000
1000
0010
0100
0001
0000
0000
,
0101
1010
0101
0000
,
0110
0000
0110
0000
0100
0010
0000
1000
,
0200
0000
0300
0000
0000
0100
0000
0100
,
0010
0000
0001
0010
0100
1000
0000
0000
,
1100
0011
1100
0000
,
1000
0000
0000
0001
0000
0000
0010
0000
0100
0000
0010
0000
0001
0000
1000
0000
,
0010
0000
0000
0100
0000
0000
0010
0000
1000
0000
0001
0000
0010
0000
0000
0000
,
0100
0000
0000
0010
0000
0000
0010
0000
0001
0000
1000
0000
0001
0000
0100
0000
,
0010
0000
0100
0010
0000
0100
0010
0000
1000
0000
0001
0000
0010
0000
0100
0000
,
1000
0000
0000
0100
0000
0000
1000
0000
0010
0000
1000
0000
0001
0000
0010
0000
,
0001
0000
0000
0010
0000
0000
0001
0000
0100
0000
0010
0000
0100
0000
0000
0000
,
0001
0000
0000
0100
0000
0000
0010
0000
1000
0000
0100
0000
1000
0000
0010
0000
,
0100
0000
0010
0100
0000
0010
0100
0000
0001
0000
1000
0000
0100
0000
0010
0000
,
0100
0000
0000
0010
0000
0000
0001
0000
0000
1000
0000
0000
0010
0000
0000
0100
;

//---------------dance-single - ----------------
#NOTES:
     dance-single:
     :
     Hard:
     8:
     0.493559,0.516312,0.248001,0.470347,0.158208,404.000000,375.000000,29.000000,55.000000,0.000000,0.000000,0.493559,0.516312,0.248001,0.470347,0.158208,404.000000,375.000000,29.000000,55.000000,0.000000,0.000000:
// measure 0
0000
0000
0000
0000
,  // measure 1
0000
0000
0000
0000
,  // measure 2
0000
0000
0000
0000
,  // measure 3
0000
0000
0000
0000
,  // measure 4
2100
0000
0000
0000
3001
0000
1000
0001
0000
0000
0110
0000
0000
0000
1001
0000
,  // measure 5
0102
0000
0000
0000
1003
0000
0001
1000
0000
0000
1001
0000
0000
0000
1100
0000
,  // measure 6
0120
0000
0000
0000
0130
0000
0010
0100
0000
0000
0110
0000
0000
0000
0011
0000
,  // measure 7
1000
0000
0001
0000
0010
0000
0100
0010
0000
0010
0100
0000
0010
0100
0010
0100
,  // measure 8
0020
0000
0031
0100
0000
0100
0000
0100
,  // measure 9
0020
1000
1030
0200
0000
0010
0000
0310
,  // measure 10
0020
0000
0130
0000
0110
1000
0001
0200
,  // measure 11
0000
0301
1000
0200
0000
1300
0010
0100
,  // measure 12
0002
0000
0013
0100
0000
0100
0000
0100
,  // measure 13
0020
0001
0031
0200
0000
0010
0000
0310
,  // measure 14
0020
0000
0130
0000
0110
0001
1000
0020
,  // measure 15
0000
1030
0001
0020
0000
0031
0100
0010
,  // measure 16
2000
0000
3002
0000
0103
0010
0100
0001
,  // measure 17
0010
0100
1000
0001
0000
1001
0000
1001
,  // measure 18
0002
0000
0103
0010
0100
0001
1000
0010
,  // measure 19
0100
0001
0010
0100
0000
0110
0100
1000
,  // measure 20
0002
0000
0203
0000
0310
1000
0010
0100
,  // measure 21
0001
0010
0100
0010
0000
0011
0000
0101
,  // measure 22
0001
0100
1000
0100
0010
0001
0010
1000
,  // measure 23
0100
0001
1000
0010
0000
0110
0000
1000
,  // measure 24
1100
0200
0320
0032
2003
3010
0100
0010
,  // measure 25
1000
0020
0230
0302
0023
0130
0100
0010
,  // measure 26
0001
0200
0320
2030
3200
0310
0001
1000
,  // measure 27
0010
0000
0010
0100
0000
0100
0001
0000
1000
0000
0100
0000
0010
0000
0001
0000
,  // measure 28
1000
0200
0320
2030
3020
0031
0100
0010
,  // measure 29
1000
0002
0203
0320
0032
0013
0100
0001
,  // measure 30
0010
0200
2300
3020
0032
0013
0100
0001
,  // measure 31
0010
0000
0010
0100
0000
0100
1000
0000
0001
0000
0100
0000
0001
0000
0010
0000
,  // measure 32
0001
0001
1000
1000
0010
0100
0010
0100
,  // measure 33
0001
0001
1000
1000
0100
0010
0001
0000
,  // measure 34
1000
1000
0010
0010
0100
0000
0101
0000
,  // measure 35
1000
1000
0010
0010
0100
0010
1000
0001
,  // measure 36
0010
1000
0010
0100
0010
0001
1000
0000
,  // measure 37
1000
0010
0100
0010
0001
0010
1000
0000
,  // measure 38
1000
0100
0001
0100
1000
1000
0001
0000
,  // measure 39
0001
0000
0100
0010
0000
0010
0100
0000
0001
0000
1000
0000
0100
0000
0000
0000
,  // measure 40
0210
0000
0320
0000
0031
1000
0010
0100
,  // measure 41
0210
0000
0000
0000
0310
0000
0000
0000
0000
0010
0100
0000
0001
0000
1000
0000
,  // measure 42
0002
0000
0013
0100
1000
0001
0000
0000
,  // measure 43
1001
0000
1001
0000
1001
0000
1000
0100
,  // measure 44
0120
0000
0230
0000
1300
0001
0100
0010
,  // measure 45
0120
0000
0000
0000
0130
0000
0000
0000
0000
0100
0010
0000
1000
0000
0001
0000
,  // measure 46
2000
0000
3100
0010
0001
1000
0000
0000
,  // measure 47
1001
1001
1001
0000
,  // measure 48
0100
1000
0100
1000
0000
0000
0001
0000
0100
0000
0010
0000
0100
0000
0001
0000
,  // measure 49
0010
0001
0010
0001
0000
0000
0001
0000
1000
0000
0100
0000
2000
0000
0000
0000
,  // measure 50
3001
0100
0001
0100
0000
0000
0001
0000
0100
0000
0010
0000
0100
0000
0001
0000
,  // measure 51
1000
0000
1000
0001
0000
0001
1000
0000
0010
0000
0100
0000
0001
0000
1000
0000
,  // measure 52
0001
0100
0001
0100
0000
0000
0001
0000
0010
0000
0100
0000
0010
0000
0001
0000
,  // measure 53
1000
0100
1000
0100
0000
0000
1000
0000
0001
0000
0010
0000
0002
0000
0000
0000
,  // measure 54
1003
0010
1000
0010
0000
0000
1000
0000
0010
0000
0100
0000
0010
0000
1000
0000
,  // measure 55
1000
0000
0001
1000
0000
1000
0001
0000
0100
0000
0010
0000
1000
0000
0001
0000
,  // measure 56
1000
0100
1000
0100
0000
0000
0100
0001
0100
0001
0000
0000
0010
0001
0010
0002
,  // measure 57
0000
0000
0003
0000
;
