#TITLE:Megatron;
#SUBTITLE:;
#ARTIST:Ummet Ozcan;
#TITLETRANSLIT:;
#SUBTITLETRANSLIT:;
#ARTISTTRANSLIT:;
#GENRE:;
#CREDIT:;
#BANNER:Megatron.png;
#BACKGROUND:Megatron-bg.png;
#LYRICSPATH:;
#CDTITLE:cdtitle.png;
#MUSIC:Megatron.mp3;
#OFFSET:-0.310000;
#SAMPLESTART:50.925003;
#SAMPLELENGTH:14.859995;
#SELECTABLE:YES;
#DISPLAYBPM:64.000000:128.000000;
#BPMS:0.000000=128.000000
,32.000000=64.000000
,50.000000=128.000000
,150.000000=64.000000
,152.000000=128.000000
,180.000000=64.000000
,182.000000=128.000000
;
#STOPS:
;
#BGCHANGES:;
#KEYSOUNDS:;
#ATTACKS:;

//---------------dance-single - ----------------
#NOTES:
     dance-single:
     :
     Hard:
     9:
     0.484182,0.633533,0.295475,0.260713,0.738687,390.000000,356.000000,34.000000,30.000000,18.000000,0.000000,0.484182,0.633533,0.295475,0.260713,0.738687,390.000000,356.000000,34.000000,30.000000,18.000000,0.000000:
0000
0000
0000
0000
,
0000
0000
0000
0000
,
0000
0000
0000
0000
,
0000
0000
0000
0000
,
0002
0000
0003
1000
0100
0000
1000
0000
0010
0000
1000
0000
0001
0100
0000
0000
,
0020
0030
0000
1000
0100
0000
0010
0000
0100
0000
1000
0000
0001
0100
0001
0100
,
0002
0003
0000
1000
0100
0000
1000
0000
0010
0000
1000
0000
0001
0100
0000
0000
,
0011
0000
0000
1100
0000
0000
1010
0000
1001
0000
1000
0000
0010
0100
0001
0000
,
0020
0000
0000
0000
0000
0000
0000
0000
0000
0000
0000
0000
0031
0000
0000
0000
0000
1000
0010
0000
0000
0000
0000
1000
,
0001
0000
0000
0100
0000
0000
0001
0000
0000
0000
1000
0100
0010
0000
0000
0001
0000
0100
0010
0000
0000
0000
0000
0010
,
0100
0000
0000
0001
0000
1000
0100
0000
0000
0000
0000
0000
1000
0000
0000
0001
0100
0010
1000
0000
0000
0001
0000
0010
,
0100
0000
0000
1000
0000
0001
0100
0000
0000
0000
0100
0001
0010
0000
0000
0001
0000
1000
0010
0000
0000
1000
0000
0100
,
0010
0000
0000
0001
0000
0000
1000
0000
0000
0000
0010
0000
2002
0000
0000
0000
0000
0000
3003
0000
0000
0000
0100
0000
,
2000
0000
0000
0000
0000
0000
3001
0000
0100
0000
0010
0000
0200
0000
0000
0300
0000
0000
0002
0000
0000
0003
0000
0000
,
0011
0000
0101
0000
0010
1000
0002
0000
0000
0003
0000
0100
,
0020
0000
0000
0000
0000
0000
0031
0000
0010
0000
1000
0000
0020
0000
0000
0030
0000
0000
0200
0000
0000
0300
0001
0000
,
1000
0000
1001
0000
0110
0000
0202
0000
0000
0303
0000
0001
,
2000
0000
0000
3000
0000
0000
0100
0000
0010
0000
0001
0000
0020
0000
0000
0030
0000
0000
0200
0000
0000
0300
0000
0000
,
1100
0000
1010
0000
0100
0001
0020
0000
0000
0030
0000
0001
,
2000
0000
0000
0000
0000
0000
3100
0000
0001
0000
0100
0000
0020
0000
0000
0030
0000
0000
0200
0000
0000
0300
0000
0000
,
1100
0000
1001
0000
1020
0000
0000
0000
0000
0000
0000
0000
,
0000
0000
0000
0000
,
0000
0000
0000
0031
0000
0000
0410
0000
0000
M000
0300
0001
,
0040
0000
0000
0M00
0030
0001
4000
0000
3000
0400
0000
0300
,
4000
0000
0000
00M0
0000
0000
3000
0000
0001
0000
0100
0000
0040
0000
0000
0000
0000
0000
000M
0000
0030
0000
1000
0000
,
0004
0000
0000
0M00
0003
0010
0400
0000
0300
4000
0000
3001
,
0400
0000
0000
M000
0000
0300
0004
0000
0000
M000
0003
0010
,
4000
0000
0000
000M
3000
0010
0400
0000
0300
4000
0000
3001
,
0400
0000
0000
00M0
0000
0000
0300
0000
0100
0000
0001
0000
0040
0000
0000
0000
0000
0000
M000
0000
0030
0000
0001
0000
,
4000
0000
0000
000M
3000
0010
0400
0000
0300
0002
0000
0000
,
2000
0000
0000
3003
0000
0000
MMMM
0000
0000
0000
0000
0000
0100
0000
1000
0000
0100
0000
0010
0000
0100
0000
1000
0000
,
0010
0000
0100
0000
0001
0000
1000
0100
1000
0000
0001
0000
0010
0000
0100
0000
0010
0000
0001
0000
0100
0000
0010
0000
,
1000
0000
0100
0000
1000
0000
0010
0100
0010
0000
1000
0000
0001
0000
0100
0000
0010
0000
1000
0000
0001
0000
0010
0000
,
0001
0000
0100
0000
0001
0000
1000
0010
1000
0000
0001
0000
1000
0000
0100
0000
0010
0000
0001
0000
1000
0000
0010
0000
,
0100
0000
0001
0000
0010
0000
0001
1000
0001
0000
0010
0000
0400
0000
0000
0000
0000
0000
4300
0000
0000
0000
0000
0000
,
3040
0430
0304
4003
,
3400
0000
0000
0000
0000
0000
0340
0000
0000
0000
0000
0000
0034
4000
0000
0000
0000
0000
0000
0000
0000
0000
0000
0000
,
0000
0000
0000
0000
3003
0000
0000
0010
,
M101
0001
1000
0010
0000
0000
0110
0000
0001
0010
0000
0000
,
0100
1000
1000
0010
0100
0100
0001
1000
1000
0010
0000
0000
,
1001
0000
1000
0000
0001
0000
0010
0000
0000
0000
0000
0000
0101
0000
0000
0000
0010
0000
1000
0000
0000
0000
0100
0010
,
0001
0000
0100
0000
0100
0000
0001
0000
0000
0000
1000
0000
0100
0000
0000
0000
1000
0000
0020
0030
0200
0300
0200
0300
,
1010
0010
0100
0001
0000
0000
0110
0000
1000
0001
0000
0000
,
0100
0001
0001
0010
0100
0100
0001
0100
0100
1000
0000
0000
,
0101
0000
0001
0000
1000
0000
0010
0000
0000
0000
0000
0000
1001
0000
0000
0000
0100
0000
0010
0000
0000
0000
0001
1000
,
M004
0000
0000
0000
0003
0010
0400
0000
0300
4000
0000
3000
110M
0000
1000
0000
0001
0000
0010
0000
0000
0000
0000
0000
,
0110
0000
1000
0010
0000
0000
0100
0001
0001
0010
0100
0100
,
1000
0001
0001
0010
0000
0000
1001
0001
1000
0010
0000
0000
,
1100
0000
0000
0000
0010
0000
0001
0000
0000
0000
0100
0010
1000
0000
0100
0000
0100
0000
1000
0000
0000
0000
0001
0000
,
0100
0000
0001
1001
0000
0000
0011
0010
0100
1000
0000
0000
,
0110
0000
0001
1000
0000
0000
0100
1000
1000
0010
0100
0100
,
1000
0100
0100
0001
0000
0000
1100
1000
0001
0010
0000
0000
,
1001
0000
0000
0000
0100
0000
0010
0000
0000
0000
0100
0010
0001
0000
1000
0000
1000
0000
0100
0000
0000
0000
0001
0000
,
0100
0000
1000
0010
0000
0000
2200
0000
0000
0000
0000
0000
,
3300
0000
0000
0000
;

//---------------dance-single - ----------------
#NOTES:
     dance-single:
     :
     Medium:
     8:
     0.317822,0.418445,0.295475,0.234642,0.252023,256.000000,222.000000,34.000000,27.000000,6.000000,0.000000,0.317822,0.418445,0.295475,0.234642,0.252023,256.000000,222.000000,34.000000,27.000000,6.000000,0.000000:
0000
0000
0000
0000
,
0000
0000
0000
0000
,
0000
0000
0000
0000
,
0000
0000
0000
0000
,
0001
0000
0000
0100
0000
0000
0100
0000
0000
0000
0001
0000
0000
0001
0000
0000
,
1000
0000
0000
0100
0000
0000
0100
0000
0000
0000
1000
0000
0010
0000
0100
0000
,
0001
0000
0000
1000
0000
0000
1000
0000
0000
0000
0001
0000
0000
0001
0000
0000
,
1000
0000
0000
0100
0000
0000
0010
0000
0001
0000
0100
0000
0010
0000
1000
0000
,
M002
0000
0000
0000
0000
0000
0000
0000
0000
0000
0000
0000
0103
0000
0000
0000
0000
0100
0010
0000
0000
0000
0000
0010
,
0100
0000
0000
0001
0000
0000
1000
0000
0000
0000
0001
0010
0001
0000
0000
0000
0000
1000
0010
0000
0000
0000
0000
0010
,
1000
0000
0000
0001
0000
0000
0100
0000
0000
0000
0000
0000
0100
0000
0000
0000
0000
0001
1000
0000
0000
0000
0000
1000
,
0001
0000
0000
1000
0000
0000
0100
0000
0000
0000
0010
0100
0010
0000
0000
0000
0000
0001
1000
0000
0000
0000
0000
1000
,
0001
0000
0000
0010
0000
0000
0100
0000
0000
0000
0000
0000
10M2
0000
0000
0000
0000
0000
0003
0000
0000
0000
0100
0000
,
0020
0000
0000
0030
0000
1000
0002
0000
0000
0203
0000
0000
,
0320
0000
0000
0030
1000
0001
2000
0000
0000
3000
0000
0100
,
0020
0000
0000
0030
0000
0001
2000
0000
0000
3020
0000
0000
,
0230
0000
0000
0300
0000
0000
2001
0000
0000
3000
0000
0100
,
0020
0000
0000
0030
0000
0100
2000
0000
0000
3002
0000
0000
,
0203
0000
0000
0300
0001
0010
0002
0000
0000
0003
0000
1000
,
0020
0000
0000
0030
0000
0100
0002
0000
0000
2003
0000
0000
,
3200
0000
0000
0000
,
0000
0000
0000
0000
,
0000
0000
0301
0000
0410
0000
0000
0300
,
4000
0000
0000
3000
0040
0030
0400
0300
,
0004
0000
0000
0003
4000
0000
0000
3000
,
0040
0000
0000
0030
0400
0300
0040
0030
,
4000
0000
0000
3000
0004
0000
0000
0003
,
0400
0000
0000
0300
0004
0003
4000
3000
,
0040
0000
0000
0030
0400
0000
0000
0300
,
0004
0000
0000
0003
4000
3000
0004
0003
,
0020
0030
0001
1000
,
0001
0000
0000
1000
0010
1000
0010
0000
0000
0100
0000
0000
,
0010
0000
0000
0100
0001
0100
0001
0000
0000
1000
0000
0000
,
0001
0000
0000
1000
0100
1000
0100
0000
0000
0010
0000
0000
,
0100
0000
0000
0010
0001
0010
0002
0000
0000
0000
0000
0000
,
0203
0000
0320
0000
,
2030
0000
0004
0000
,
0000
0000
30M3
0000
,
1M01
0000
0001
0010
0000
0000
1001
0000
1000
0010
0000
0000
,
0110
0101
0110
1010
,
0110
0000
1000
0001
0000
0000
0110
0000
0001
1000
0000
0000
,
0101
0110
1010
4000
,
3001
1100
0001
1010
,
1000
0001
1000
0001
0000
0000
0100
0010
0100
0010
0000
0000
,
0101
1000
0011
1000
,
M004
0000
0000
0000
0000
0000
0003
0000
0000
0000
0000
0000
0040
0000
0000
0030
0000
0000
0400
0000
0000
0300
0000
0000
10M1
0000
0000
0000
0000
0000
0000
0000
1000
0000
0000
0000
0010
0000
0000
0000
0000
0000
0000
0000
0000
0000
0000
0000
,
1001
0000
0001
0010
0000
0000
0110
0000
0000
1100
0000
0000
,
0110
0000
0000
0011
0000
0000
0110
0000
0001
1000
0000
0000
,
0110
0000
1000
0001
0000
0000
1100
0000
0000
0110
0000
0000
,
0011
1001
1000
0101
,
1000
0000
0000
0011
0000
0000
0001
1000
0001
1000
0000
0000
,
0100
0010
0100
0010
0000
0000
1100
0000
0000
0001
0000
0000
,
1010
0000
0000
0001
0000
0000
1000
0100
1000
0100
0000
0100
,
0010
0000
0010
0002
0000
0000
1003
0000
0000
0000
0000
0000
;
