#VERSION:0.83;
#TITLE:Let The Snow Paint Me -Y&Co. Remix-;
#SUBTITLE:;
#ARTIST:Sana remixed by Y&Co.;
#TITLETRANSLIT:;
#SUBTITLETRANSLIT:;
#ARTISTTRANSLIT:;
#GENRE:TRANCE;
#CREDIT:Graphics made by TonyAkita;
#MUSIC:[Timing Window] - Let The Snow Paint Me -Y&Co. Remix-.ogg;
#BANNER:[Timing Window] - Let The Snow Paint Me -Y&Co. Remix-.png;
#BACKGROUND:[Timing Window] - Let The Snow Paint Me -Y&Co. Remix--bg.png;
#CDTITLE:;
#SAMPLESTART:79.827;
#SAMPLELENGTH:14.072;
#SELECTABLE:YES;
#OFFSET:-0.424;
#BPMS:0.000=136.000;
#STOPS:;
#JACKET:[Timing Window] - Let The Snow Paint Me -Y&Co. Remix--jacket.png;
#BGCHANGES:;
#FGCHANGES:;

//--------------- dance-single - forcednature (X-Scale 2) ----------------
#NOTEDATA:;
#STEPSTYPE:dance-single;
#DESCRIPTION:forcednature (X-Scale 2);
#DIFFICULTY:Beginner;
#METER:1;
#RADARVALUES:0,0,0,0,0;
#NOTES:
0000
0000
0000
0000
,
0000
0000
0000
0000
,
0000
0000
0000
0000
,
0000
0000
0000
0000
,
0000
0000
0000
0000
,
0010
0000
0000
0000
,
0100
0000
0000
0000
,
2002
0000
0000
0000
,
0000
0000
3003
0000
,
0000
0010
0000
0010
,
0000
0100
0000
0100
,
0000
0010
0000
0010
,
0000
0100
0000
0100
,
0001
0000
0000
0000
,
1000
0000
0000
0000
,
0200
0000
0000
0000
,
0000
0000
0300
0000
,
0010
0000
0000
0000
,
0001
0000
0000
0000
,
2000
0000
0000
0000
,
0000
0000
3000
0000
,
0010
0000
0000
0000
,
0100
0000
0000
0000
,
0002
0000
0000
0000
,
0000
0000
0003
0000
,
1000
0000
0000
0000
,
0001
0000
0000
0000
,
0020
0000
0000
0000
,
0000
0000
0030
0000
,
2002
0000
0000
0000
,
0000
0000
0000
0000
,
0000
0000
0000
0000
,
0000
0000
0000
0000
,
0000
0000
0000
0000
,
0000
0000
0000
0000
,
0000
0000
0000
0000
,
0000
0000
3003
0000
,
0010
0000
0000
0000
,
0100
0000
0000
0000
,
0010
0000
0000
0000
,
0100
0000
0000
0000
,
1001
0000
0000
0000
,
1001
0000
0000
0000
,
0010
0000
0010
0000
,
2002
0000
3003
0000
,
0000
1000
0000
1000
,
0000
0001
0000
0001
,
0000
0010
0000
0010
,
0000
0100
0000
0100
,
0000
1000
0000
0001
,
0000
0100
0000
0010
,
0000
1000
0000
0001
,
0000
0010
0000
0100
,
0000
1000
0000
0010
,
0000
0001
0000
0100
,
0000
0010
0000
1000
,
0000
0100
0000
0001
,
0000
1000
0000
0100
,
0000
0001
0000
0100
,
0000
0001
0000
0010
,
0000
1000
0000
0020
,
0000
0000
0000
0000
,
0000
0000
0000
0000
,
0030
0000
0000
0000
;

//--------------- dance-single - forcednature (X-Scale 4) ----------------
#NOTEDATA:;
#STEPSTYPE:dance-single;
#DESCRIPTION:forcednature (X-Scale 4);
#DIFFICULTY:Easy;
#METER:3;
#RADARVALUES:0,0,0,0,0;
#NOTES:
0000
0000
0000
0000
,
0000
0000
0000
0000
,
0000
0000
0000
0000
,
0000
0000
0000
0000
,
0000
0000
0000
0000
,
1000
0000
0000
0000
,
0001
0000
0000
0000
,
0010
0000
0100
0000
,
2002
0000
3003
0000
,
0001
0100
0000
0001
,
0000
0010
0000
0100
,
1000
0010
0000
0100
,
0000
1001
0000
1001
,
0000
0010
1000
0001
,
0000
0010
0100
1000
,
0020
0000
0100
0000
,
2000
0000
3030
0000
,
0001
1000
0010
0000
,
0100
0001
0010
0000
,
0200
0000
1000
0000
,
0020
0000
0330
0000
,
0001
1000
0001
0100
,
0001
1000
0001
0000
,
2000
0000
0100
0000
,
0020
0000
3030
0000
,
0001
0010
0001
0100
,
0010
1000
0100
0000
,
0020
0000
0001
0000
,
0200
0000
0330
0000
,
1001
0000
0100
0100
,
0200
0000
0300
0000
,
0000
0010
0010
0000
,
1000
0000
0001
0000
,
0010
0000
0000
0100
,
0200
0000
0300
0000
,
1000
0000
0001
0000
,
2002
0000
3003
0000
,
1000
0000
0010
0000
,
1000
0000
0010
0000
,
0100
0000
0001
0000
,
0100
0000
0000
0000
,
1001
0000
0100
0000
,
1001
0000
0100
0000
,
1001
0000
0110
0000
,
2002
0000
3003
0000
,
0001
0010
0100
0000
,
1000
0001
0100
0000
,
0010
1000
0001
0000
,
1000
0100
0010
0000
,
0100
1000
0001
0000
,
0010
0001
1000
0000
,
0100
0001
1000
0000
,
0100
1000
0001
0000
,
0020
0001
0031
0000
,
0002
1000
1003
0000
,
0200
0010
0310
0000
,
2000
0001
3001
0000
,
0002
0010
0013
0000
,
2000
0010
3010
0000
,
0200
0001
0301
0000
,
0200
1000
1300
0000
,
0100
0000
0000
0000
;

//--------------- dance-single - forcednature (X-Scale 7) ----------------
#NOTEDATA:;
#STEPSTYPE:dance-single;
#DESCRIPTION:forcednature (X-Scale 7);
#DIFFICULTY:Medium;
#METER:5;
#RADARVALUES:0,0,0,0,0;
#NOTES:
0000
0000
0000
0000
,
0000
0000
0000
0000
,
0000
0000
0000
0000
,
0000
0000
0000
0000
,
0000
0000
0000
0000
,
0000
1000
0000
1000
0000
0001
0000
0001
,
0000
1000
0000
1000
0000
0001
0000
0001
,
0000
1000
0000
0001
0000
1000
0000
0001
,
0000
0001
0000
1000
0000
0001
0000
1000
,
0010
0100
0001
0100
,
1000
0100
0010
0100
,
0001
0100
1000
0100
,
0010
0100
0000
0100
,
0001
0010
0200
1000
,
0010
1300
0001
0100
,
0020
0100
0130
0000
,
0010
1000
0010
2000
0000
3000
0000
0000
,
0001
0010
0002
0100
,
0010
1003
0001
1000
,
0200
0010
0310
0000
,
0001
0010
0001
0020
0000
0030
0100
0000
,
1001
0010
1000
0001
,
0100
0010
1000
0001
,
0020
1000
0001
0030
,
0001
0100
0001
0200
0000
0300
0000
0000
,
0010
1000
0001
1000
,
0100
0001
0100
0010
,
0002
1000
0010
0003
,
1000
0001
1000
0002
0000
0003
0000
0000
,
1002
0000
0100
0203
0000
0320
0000
2030
,
0000
0000
0000
3000
,
0000
0000
0002
0000
0023
0000
0100
0230
,
0000
0000
2300
0000
3002
0000
0100
0203
,
0000
0000
0000
0300
0000
0010
1000
0002
,
0000
0000
0000
0000
,
2003
0000
3002
0000
,
0200
0000
0000
0303
,
0001
1000
0001
0100
,
0010
1000
0001
1000
,
0100
0010
0001
1000
,
0001
0100
0001
0000
,
1001
1000
0001
0100
,
1001
0001
1000
0100
,
1001
0000
0110
0000
,
2002
0000
0000
3003
,
1000
0001
1000
0000
0010
0000
0100
0000
,
0002
0010
0100
1003
,
0001
0010
0001
0000
1000
0000
0100
0000
,
0020
0100
1000
0031
,
0010
0001
0010
0000
0001
0000
1000
0000
,
0200
0001
0010
1300
,
0100
1000
0100
0000
1000
0000
0001
0000
,
0200
1000
0010
0301
,
0100
0001
0200
0000
0010
0000
0301
0000
,
0010
1000
0020
0000
1000
0000
0130
0000
,
1000
0100
2000
0000
0001
0000
3010
0000
,
0001
0100
0002
0000
1000
0000
0013
0000
,
0010
1000
0100
0000
0010
0000
0001
0000
,
1000
0001
0100
0000
0010
0000
1000
0000
,
0001
0010
0100
0000
1000
0000
0001
0000
,
0100
0001
0010
0000
0100
0000
1000
0000
,
0010
0000
0000
0000
;

//--------------- dance-single - forcednature (X-Scale 10) ----------------
#NOTEDATA:;
#STEPSTYPE:dance-single;
#DESCRIPTION:forcednature (X-Scale 10);
#DIFFICULTY:Hard;
#METER:7;
#RADARVALUES:0,0,0,0,0;
#NOTES:
0000
0000
0000
0000
,
0000
0000
0000
0000
,
0000
0000
0000
0000
,
0000
0000
0000
0000
,
0000
0000
0000
0000
,
0020
1000
0000
1000
0000
1000
0000
1030
,
0200
0001
0000
0001
0000
0001
0000
0301
,
0200
1000
0000
1000
0000
1000
0000
1300
,
0020
0001
0000
0001
0000
0001
0000
0031
,
1001
0000
0001
0100
0001
0000
0011
0000
,
0100
0000
1000
0010
1000
0100
0010
0000
,
0101
0000
0001
1000
0010
0100
0001
0000
,
0010
1001
0000
1001
,
1000
0100
0010
0000
0002
0000
0100
0000
,
0010
0000
1000
0003
0001
0010
0100
0000
,
2000
0000
0100
3000
0002
0000
0100
0003
,
0001
0100
0010
1000
0100
0000
1001
0000
,
0001
0100
0001
0000
2000
0000
0100
0000
,
0010
0000
3001
0000
1000
0010
0100
0000
,
0020
0000
0001
0030
0020
0000
1000
0030
,
0010
1000
0001
0010
0000
0100
1000
0000
,
1001
0000
0101
0000
1000
0001
0010
0000
,
0100
1000
0001
0000
1000
0010
0100
0000
,
0002
0000
0010
0003
2000
0000
0010
3000
,
0001
0010
0100
1000
0000
0010
0100
0000
,
0001
0000
1000
0100
0010
0001
0100
0000
,
0010
0000
1000
0001
0100
0001
1000
0000
,
0020
0000
1000
0030
0200
0000
0001
0300
,
0001
0010
0100
1000
0000
0001
0100
0000
,
0101
0000
1000
0020
0000
2000
0030
0200
,
3000
0300
0000
0000
,
0000
0000
0020
0000
0002
0030
2003
0020
,
0000
3000
0200
0030
0002
0300
2003
0200
,
0000
0000
0000
0000
0000
0000
0000
0000
0000
0000
0000
0000
3000
0000
0000
0000
0000
0000
0000
0000
0000
0000
0000
0000
0300
0000
0000
0000
0000
0000
0000
0000
0000
0000
0000
0000
0000
0000
0000
0000
0000
0000
0000
0000
0000
0000
0000
0000
0000
0000
0000
0000
0000
0000
0000
0000
0000
0000
0000
0000
0020
0000
0000
0000
0000
0000
0000
0000
0000
0000
0000
0000
0002
0000
0000
0000
0000
0030
0000
0000
0000
0000
0000
0000
2000
0000
0000
0000
0000
0000
0000
0000
0000
0000
0000
0000
,
0003
3000
0000
0000
0000
0000
0000
0000
,
2002
0000
0000
3003
0220
0000
0000
0330
,
2002
0000
0000
3003
,
0001
0000
0200
0002
0300
2000
0003
0020
,
3000
0030
0000
0000
,
0000
0000
0000
0000
0000
0000
0000
0000
0000
0000
0000
0000
0000
0000
0000
0000
0000
0000
0000
0000
0000
0000
0000
0000
2000
0000
0000
0000
0000
0000
0000
0000
0000
0000
0000
0000
0000
0000
0000
0000
0000
0000
0000
0000
0000
0000
0000
0000
0200
0000
0000
0000
0000
0000
0000
0000
0000
0000
0000
0000
3000
0000
0000
0000
0000
0000
0000
0000
0000
0000
0000
0000
0020
0000
0000
0000
0000
0300
0000
0000
0000
0000
0000
0000
0002
0000
0000
0000
0000
0000
0000
0000
0000
0000
0000
0000
,
0030
0000
0000
0000
0000
0000
0000
0000
0000
0000
0000
0000
0003
0000
0000
0000
0000
0000
0000
0000
0000
0000
0000
0000
2000
0000
0000
0000
0000
0000
0000
0000
0000
0000
0000
0000
0000
0000
0000
0000
0000
0000
0000
0000
0000
0000
0000
0000
0002
0000
0000
0000
0000
0000
0000
0000
0000
0000
0000
0000
3000
0000
0000
0000
0000
0000
0000
0000
0000
0000
0000
0000
0100
0000
0000
0000
0000
0003
0000
0000
0000
0000
0000
0000
0010
0000
0000
0000
0000
0000
0000
0000
0000
0000
0000
0000
,
1000
0000
0001
0000
0000
0010
0000
0000
0100
0000
0000
1000
0000
0000
0001
0000
,
0100
0000
0001
0000
0000
1000
0000
0000
0010
0000
0000
1000
0000
0000
0001
0000
,
0010
0000
0001
0000
0000
0010
0000
0000
0100
0000
0000
0010
0000
0000
0001
0000
,
2002
0000
0000
0000
0000
0000
0000
3003
,
0001
0000
0100
0000
0000
0001
0000
0000
0010
0000
0000
0100
0000
0000
1000
0000
,
0010
0000
1000
0000
0000
0001
0000
0000
0010
0000
0000
1000
0000
0000
0010
0000
,
0001
0000
1000
0000
0000
0010
0000
0000
0100
0000
0000
1000
0000
0000
0100
0000
,
0001
0000
1000
0000
0000
0100
0000
0000
0010
0000
0000
1000
0000
0000
0010
0000
,
0001
0000
1000
0000
0000
0001
0000
0000
0100
0000
0000
0010
0000
0000
1000
0000
,
0001
0000
0010
0000
0000
0100
0000
0000
1000
0000
0000
0001
0000
0000
1000
0000
,
0010
0000
0100
0000
0000
0001
0000
0000
1000
0000
0000
0100
0000
0000
0010
0000
,
0001
0000
1000
0000
0000
0001
0000
0000
0100
0000
0000
0010
0000
1000
0000
0001
,
0010
0000
0100
0000
0000
1000
0000
0000
0001
0000
0000
1000
0000
0000
0010
0000
,
1000
0000
0001
0000
0000
0100
0000
0000
0001
0000
0000
1000
0000
0000
0100
0000
,
0010
0000
0001
0000
0000
1000
0000
0000
0001
0000
0000
0100
0000
0000
0010
0000
,
1000
0000
0001
0000
0000
1000
0000
0000
0010
0000
0000
0100
0000
0000
0001
0000
,
1000
0000
0100
0000
0000
0010
0000
0000
0100
0000
0000
1000
0000
0000
0001
0000
,
0010
0000
0100
0000
0000
1000
0000
0000
0001
0000
0000
0010
0000
0000
0001
0000
,
1000
0000
0001
0000
0000
0100
0000
0000
0001
0000
0000
1000
0000
0000
0010
0000
,
1000
0000
0100
0000
0000
0010
0000
0000
0001
0000
0000
1000
0000
0001
0000
0100
;

//--------------- dance-single - forcednature (X-Scale 11) ----------------
#NOTEDATA:;
#STEPSTYPE:dance-single;
#DESCRIPTION:forcednature (X-Scale 11);
#DIFFICULTY:Challenge;
#METER:8;
#RADARVALUES:0,0,0,0,0;
#NOTES:
0000
0000
0000
0000
,
0000
0000
0000
0000
,
0000
0000
0000
0000
,
0000
0000
0000
0000
,
0000
0000
0000
0000
,
1000
0000
0001
0000
0000
0100
0010
0000
1000
0000
0000
0100
0000
0000
0010
0000
,
0001
0000
1000
0000
0000
0001
0100
0000
0010
0000
0000
1000
0000
0000
0001
0000
,
0010
0000
0100
0000
0000
1000
0001
0000
0010
0000
0000
0001
0000
0000
1000
0000
,
0010
0000
0100
0000
0000
0001
1000
0000
0010
0000
0000
1000
0000
0001
0000
0010
,
0100
1000
0000
0000
0001
0000
0100
0000
0010
1000
0000
0000
0001
0000
0010
0000
,
0100
1000
0000
0000
0001
0000
0100
0000
0010
1000
0000
0000
0001
0000
0010
0000
,
0001
1000
0000
0000
0010
0000
0100
0000
0001
1000
0000
0000
0100
0000
0010
0000
,
0000
1001
0000
0110
,
0001
0010
0001
0100
0001
0010
0100
1000
,
0010
0001
0010
1000
0100
0010
0001
0100
,
1000
0100
0001
0100
0010
1000
0001
0000
,
2000
3002
2003
3002
0103
0000
1001
0000
,
0001
0100
0010
0100
1000
0100
0001
1000
,
0100
0001
0100
0010
1000
0010
0001
1000
,
0010
0100
1000
0100
0001
0010
0100
0000
,
2000
3002
2003
3002
0103
0000
1001
0000
,
0001
0010
0100
1000
0010
0100
1000
0100
,
0010
1000
0100
0010
0001
0100
0010
0001
,
0010
0100
0001
0010
0100
1000
0010
0000
,
2000
3002
2003
3002
0103
0000
1001
0000
,
0001
0100
0010
0001
0010
0100
1000
0100
,
0010
1000
0100
0010
0001
0010
1000
0010
,
0001
0100
1000
0100
0001
0100
0010
0000
,
2000
3002
2003
3002
0103
0000
1001
0000
,
0220
0330
0001
0200
0300
2020
3030
0202
,
0000
0303
0000
0000
0000
0000
0000
0000
,
0000
0000
2200
3300
0022
0033
1000
0002
,
0000
0003
0202
0303
2020
3030
0001
2000
,
0000
3000
0000
0000
0000
0020
2030
3200
,
0000
0300
0000
0000
0000
0000
0000
0000
,
0022
0033
2200
3300
,
2002
0000
0000
3003
,
1001
0000
0000
0001
0000
0000
0100
0000
0010
0000
0000
1000
0000
0000
0001
0000
,
0010
0000
0000
0100
0000
0000
1000
0000
0001
0000
0000
1000
0000
0000
0010
0000
,
0100
0000
0000
0001
0000
0000
0010
0000
0100
0000
0000
1000
0000
0000
0001
0000
,
1000
0000
0000
0010
0000
0000
0100
0000
0001
0000
0000
1000
0000
0000
0100
0000
,
1001
0000
0001
0000
0000
1000
0010
0000
0100
0000
0000
0001
0000
0000
0010
0000
,
1001
0000
0001
0000
0000
0100
0010
0000
1000
0000
0000
0100
0000
0000
0010
0000
,
1001
0000
1000
0000
0000
0010
0100
0000
1001
0000
0000
0001
0000
0000
0010
0000
,
1001
0000
1000
0000
0000
0100
0010
0000
0001
0000
0000
0100
0000
0010
0000
1000
,
0001
0000
0100
0000
0001
0010
0001
0000
1000
0000
0000
0010
0100
0000
0001
0000
,
1000
0000
0100
0000
0010
0001
0010
0000
0100
0000
0000
1000
0001
0000
0100
0000
,
0001
0000
0010
0000
0100
1000
0100
0000
1000
0000
0000
0010
0100
0000
0001
0000
,
1000
0000
0001
0000
1000
0100
1000
0000
0010
0000
0000
0100
0001
0000
1000
0000
,
0001
0000
0010
0000
0100
1000
0100
0000
0010
0000
0000
0001
1000
0000
0001
0000
,
0100
0000
0001
0000
1000
0010
1000
0000
0010
0000
0000
0100
0001
0000
1000
0000
,
0100
0000
0010
0000
0001
0010
0001
0000
0100
0000
0000
0010
1000
0000
0001
0000
,
1000
0000
0010
0000
0100
0001
0100
0000
0010
0000
0000
1000
0000
0100
0000
0010
,
0001
0000
1000
0000
0001
0100
0001
0000
1000
0000
0000
0010
1000
0000
0001
0000
,
0010
0000
0100
0000
1000
0100
1000
0000
0001
0000
0000
0100
0001
0000
1000
0000
,
0010
0000
1000
0000
0001
0010
0001
0000
1000
0000
0000
0010
0100
0000
0001
0000
,
1000
0000
0100
0000
0010
0001
0010
0000
0100
0000
0000
1000
0001
0000
1000
0000
,
0010
0000
0100
0000
0001
0100
0001
0000
1000
0000
0000
0010
1000
0000
0001
0000
,
0010
0000
0001
0000
1000
0100
1000
0000
0001
0000
0000
0010
0001
0000
1000
0000
,
0010
0000
0100
0000
0001
0100
0001
0000
1000
0000
0000
0010
1000
0000
0001
0000
,
0010
0000
0100
0000
1000
0100
1000
0000
0001
0000
0000
0010
0000
0001
0000
1000
;

//--------------- dance-double - forcednature (X-Scale 4) ----------------
#NOTEDATA:;
#STEPSTYPE:dance-double;
#DESCRIPTION:forcednature (X-Scale 4);
#DIFFICULTY:Easy;
#METER:3;
#RADARVALUES:0,0,0,0,0;
#NOTES:
00000000
00000000
00000000
00000000
,
00000000
00000000
00000000
00000000
,
00000000
00000000
00000000
00000000
,
00000000
00000000
00000000
00000000
,
00000000
00000000
00000000
00000000
,
00001000
00000000
00000000
00000000
,
00010000
00000000
00000000
00000000
,
00011000
00000000
00000000
00000000
,
00011000
00000000
00000000
00000000
,
00001000
01000000
00000000
00010000
,
00000000
00100000
00000000
01000000
,
10000000
00010000
00000000
01000000
,
00000000
00011000
00000000
00011000
,
00000000
00000010
00000100
00000001
,
00000000
00000010
00000100
00000000
,
00020000
00000000
00002000
00030000
,
00200000
00000000
00303000
00000000
,
00001000
00000000
00010000
00000000
,
00000010
00000000
00000100
00000000
,
00000002
00000000
00000020
00000003
,
00000200
00000000
00000330
00000000
,
00010000
00001000
01000000
00000000
,
00010000
00000000
10000000
00000000
,
00200000
00000000
02000000
00300000
,
00020000
00000000
03030000
00000000
,
00100000
00000000
00001000
00010000
,
00000010
00000000
00000100
00000000
,
00000002
00000000
00002000
00000003
,
00000200
00000000
00003300
00000000
,
00022000
00000000
00000000
00000000
,
00000000
00000000
00033000
00000000
,
00001000
00000000
01000000
00000000
,
00010000
00000000
10000000
00000000
,
00200000
00000000
00300000
00000000
,
00002000
00000000
00003000
00000000
,
00000020
00000000
00000030
00000000
,
00002000
00000000
00003000
00000000
,
00010000
00010000
00010000
00000000
,
00001000
00000000
00010000
00000000
,
00001000
00001000
00001000
00000000
,
00010000
00000000
00001000
00000000
,
00022000
00000000
00033000
00000000
,
00022000
00000000
00033000
00000000
,
00011000
00000000
00011000
00000000
,
00022000
00000000
00033000
00000000
,
00010000
00010000
10000000
00000000
,
00100000
00100000
00001000
00000000
,
00000100
00000100
00000001
00000000
,
00000010
00000010
00001000
00000000
,
00100000
00100000
01000000
00000000
,
10000000
10000000
00010000
00000000
,
00001000
00001000
00000010
00000000
,
00000001
00000001
00000100
00000000
,
00000002
00000010
00000013
00000000
,
00002000
00010000
00013000
00000000
,
02000000
00010000
03010000
00000000
,
00200000
10000000
10300000
00000000
,
00020000
00001000
00031000
00000000
,
00000020
00000100
00000130
00000000
,
00002000
00000001
00003001
00000000
,
00020000
01000000
01030000
00000000
,
00001000
00000000
00000000
00000000
;

//--------------- dance-double - forcednature (X-Scale 7) ----------------
#NOTEDATA:;
#STEPSTYPE:dance-double;
#DESCRIPTION:forcednature (X-Scale 7);
#DIFFICULTY:Medium;
#METER:5;
#RADARVALUES:0,0,0,0,0;
#NOTES:
00000000
00000000
00000000
00000000
,
00000000
00000000
00000000
00000000
,
00000000
00000000
00000000
00000000
,
00000000
00000000
00000000
00000000
,
00000000
00000000
00000000
00000000
,
00000000
00001000
00000000
00010000
00000000
01000000
00000000
00010000
,
00000000
00001000
00000000
00010000
00000000
00001000
00000000
00000100
,
00000000
00001000
00000000
00010000
00000000
00100000
00000000
00010000
,
00000000
00001000
00000000
00010000
00000000
00001000
00000000
00000000
,
00010000
00000100
00001000
00000001
,
00000100
00000010
00010000
00001000
,
00100000
00010000
01000000
00100000
,
00000000
10010000
00000000
01100000
,
10000000
01000000
00200000
00010000
,
01000000
00310000
00001000
00010000
,
00000020
00000000
00000100
00000030
,
00000001
00000100
00000001
00000200
00000000
00000300
00000000
00000000
,
00000001
00000010
00000200
00001000
,
00000010
00001300
00010000
00001000
,
02000000
00000000
00100000
03000000
,
00100000
10000000
00100000
20000000
00000000
30000000
00000000
00000000
,
10010000
01000000
00010000
00100000
,
00001000
00010000
00000010
00001000
,
00000002
00000000
00000010
00000003
,
00000100
00010000
00000100
00020000
00000000
00030000
00000000
00000000
,
00001000
00100000
01000000
10000000
,
00010000
01000000
00001000
00010000
,
00000020
00000000
00000100
00000030
,
00000001
00001000
00000001
00002000
00000000
00003000
00000000
00000000
,
00001001
00000000
00000000
00000002
00000000
00000203
00000000
00000320
,
00000000
00000000
00000000
00000030
00000000
00000000
00000000
00000000
,
00000000
00000000
00020000
00000000
00032000
00000000
00103000
00020000
,
00000000
00030000
20000000
00000000
30200000
00000000
01300000
00020000
,
00000000
00030000
00000000
00000000
00000000
00100000
00001000
00020000
,
00000000
00000000
00000000
00030000
00000000
00000000
00000000
00000000
,
00000020
00000000
00000230
00000000
,
00000002
00000000
00000000
00000303
,
00000001
00000010
00000100
00010000
,
00001000
00100000
01000000
10000000
,
00100000
01000000
00001000
00010000
,
00000010
00000100
00000001
00000000
,
00001001
00000100
00001000
01000000
,
10010000
01000000
00010000
00000100
,
00001001
00000000
00000110
00000000
,
00022000
00000000
00000000
00033000
,
00001000
01000000
00010000
00000000
00100000
00000000
01000000
00000000
,
10000000
01000000
00100000
00000000
00001000
00000000
00010000
00000000
,
00000010
00000100
00000001
00000000
00000010
00000000
00000100
00000000
,
00010000
00001000
01000000
00000000
00010000
00000000
10000000
00000000
,
00100000
10000000
01000000
00000000
00100000
00000000
00001000
00000000
,
00010000
00000100
00000010
00000000
00000001
00000000
00001000
00000000
,
00000010
00000100
00000001
00000000
00001000
00000000
00000100
00000000
,
00010000
00001000
01000000
00000000
00010000
00000000
00100000
00000000
,
01000000
10000000
00010000
00000000
02000000
00000000
13000000
00000000
,
01000000
00001000
00010000
00000000
00000200
00000000
00000310
00000000
,
00000100
00001000
00000001
00000000
00000020
00000000
00001030
00000000
,
00000010
00000100
00010000
00000000
00002000
00000000
00003100
00000000
,
00001000
01000000
00010000
00000000
00200000
00000000
10300000
00000000
,
00100000
00001000
01000000
00000000
00200000
00000000
00310000
00000000
,
00100000
10000000
01000000
00000000
00200000
00000000
10300000
00000000
,
00001000
00010000
00000010
00000000
00000200
00000000
00001300
00000000
,
00000010
00000000
00000000
00000000
;

//--------------- dance-double - forcednature (X-Scale 9) ----------------
#NOTEDATA:;
#STEPSTYPE:dance-double;
#DESCRIPTION:forcednature (X-Scale 9);
#DIFFICULTY:Hard;
#METER:7;
#RADARVALUES:0,0,0,0,0;
#NOTES:
00000000
00000000
00000000
00000000
,
00000000
00000000
00000000
00000000
,
00000000
00000000
00000000
00000000
,
00000000
00000000
00000000
00000000
,
00000000
00000000
00000000
00000000
,
00002000
00100000
00000000
00100000
00000000
00100000
00000000
00103000
,
00020000
00000010
00000000
00000010
00000000
00000010
00000000
00030010
,
00002000
01000000
00000000
01000000
00000000
01000000
00000000
01003000
,
00020000
00000100
00000000
00000100
00000000
00000100
00000000
00030100
,
00010000
00001000
01000000
00010000
,
10000000
00000000
00100000
00000000
01000000
00000000
00001000
00001000
,
00001000
00010000
00000100
00000010
,
00000000
00000110
00000000
00001001
,
00000001
00000100
00001000
00000100
,
00000010
00000000
00010000
00000000
00001000
00100000
00010000
01000000
,
00200000
10000000
01300000
00000000
,
00200000
00320000
02030000
03002000
00003000
00000000
00000000
00000000
,
00010000
00000010
00001000
00000100
,
00000010
00000000
00000001
00000000
00000100
00000000
00000010
00010000
,
00002000
01000000
00103000
00000000
,
00002000
00203000
02300000
23000000
30000000
00000000
00000000
00000000
,
00100000
00000000
01000000
00000000
00001000
00010000
00000100
00000000
,
00001000
00000000
00000010
00000000
00000100
00000001
00000010
00000000
,
00000200
00001000
00000301
00000000
,
00000200
00020300
00032000
00203000
00300000
00000000
00000000
00000000
,
00010000
00000000
10000000
00100000
01000000
00000000
00010000
00000000
,
00100000
00000000
00001000
00010000
00000100
00000000
00001000
00000000
,
00000002
00000010
00001003
00000000
,
00002000
00003020
00020030
00030200
00000300
00000000
00000000
00000000
,
00011000
00000000
01000000
00020000
00000000
00032000
00000000
00003020
,
00000000
00000030
00000000
00000000
,
00000000
00000000
00000002
00000000
00000203
00000000
00001300
00020000
,
00000000
00030000
00200000
00000000
20300000
00000000
31000000
00020000
,
00000000
00030000
00000000
00000000
00000000
00002000
00003020
00000032
,
00000000
00000003
00000000
00000000
00000000
00000000
00000000
00000000
,
00002002
00003003
00022000
00033000
,
20020000
30030000
00000000
00000000
,
20200000
30300000
01000000
00020000
00000000
00032000
00000000
00003020
,
00000000
00000030
00000000
00000000
00000000
00000000
00000000
00000000
,
00000000
00000000
00000002
00000000
00000203
00000000
00000310
00020000
,
00000000
00030000
00200000
00000000
00320000
00000000
00031000
02000000
,
00000000
03000000
00000000
00000000
00000000
00001000
00010000
00001000
,
00022000
00000000
00033000
00000000
,
00022000
00033000
00022000
00033000
,
00022000
00000000
00000000
00033000
,
00010000
00000000
00001000
00000000
00000000
01000000
00000000
00000000
00010000
00000000
00000000
10000000
00000000
00000000
01000000
00000000
,
00100000
00000000
00001000
00000000
00000000
00010000
00000000
00000000
00000010
00000000
00000000
00000100
00000000
00000000
00000001
00000000
,
00000010
00000000
00000100
00000000
00000000
00010000
00000000
00000000
00001000
00000000
00000000
00100000
00000000
00000000
01000000
00000000
,
10000000
00000000
00010000
00000000
00000000
01000000
00000000
00000000
00001000
00000000
00000000
00010000
00000000
00000000
00000100
00000000
,
00001000
00000000
00000100
00000000
00000000
00000010
00000000
00000000
00000001
00000000
00000000
00001000
00000000
00000000
00000001
00000000
,
00000100
00000000
00000010
00000000
00000000
00010000
00000000
00000000
00001000
00000000
00000000
00100000
00000000
00000000
01000000
00000000
,
10000000
00000000
00010000
00000000
00000000
01000000
00000000
00000000
00001000
00000000
00000000
00010000
00000000
00000000
00000010
00000000
,
00001000
00000000
00000100
00000000
00000000
00000010
00000000
00000000
00000001
00000000
00000000
00000100
00000000
00000010
00000000
00010000
,
00001000
00000000
00100000
00000000
00000000
00010000
00000000
00000000
10000000
00000000
00000000
00100000
00000000
00000000
01000000
00000000
,
00001000
00000000
00010000
00000000
00000000
00000100
00000000
00000000
00001000
00000000
00000000
00000001
00000000
00000000
00000100
00000000
,
00000010
00000000
00010000
00000000
00000000
00001000
00000000
00000000
00100000
00000000
00000000
01000000
00000000
00000000
10000000
00000000
,
00010000
00000000
01000000
00000000
00000000
00001000
00000000
00000000
00010000
00000000
00000000
00000010
00000000
00000000
00001000
00000000
,
00000100
00000000
00000010
00000000
00000000
00000001
00000000
00000000
00000100
00000000
00000000
00000001
00000000
00000000
00000010
00000000
,
00000100
00000000
00010000
00000000
00000000
00001000
00000000
00000000
00100000
00000000
00000000
01000000
00000000
00000000
10000000
00000000
,
00010000
00000000
01000000
00000000
00000000
00001000
00000000
00000000
00010000
00000000
00000000
00000010
00000000
00000000
00000100
00000000
,
00000001
00000000
00000100
00000000
00000000
00000010
00000000
00000000
00010000
00000000
00000000
00001000
00000000
01000000
00000000
00010000
;

//--------------- dance-double - forcednature (X-Scale 11) ----------------
#NOTEDATA:;
#STEPSTYPE:dance-double;
#DESCRIPTION:forcednature (X-Scale 11);
#DIFFICULTY:Challenge;
#METER:8;
#RADARVALUES:0,0,0,0,0;
#NOTES:
00000000
00000000
00000000
00000000
,
00000000
00000000
00000000
00000000
,
00000000
00000000
00000000
00000000
,
00000000
00000000
00000000
00000000
,
00000000
00000000
00000000
00000000
,
00010000
00000000
00001000
00000000
00000000
01000000
00010000
00000000
10000000
00000000
00000000
01000000
00000000
00000000
00100000
00000000
,
00010000
00000000
01000000
00000000
00000000
00001000
00010000
00000000
00000010
00000000
00000000
00001000
00000000
00000000
00000100
00000000
,
00000010
00000000
00000001
00000000
00000000
00000100
00000010
00000000
00010000
00000000
00000000
00001000
00000000
00000000
00100000
00000000
,
01000000
00000000
10000000
00000000
00000000
00010000
01000000
00000000
00001000
00000000
00000000
00010000
00000000
00000010
00000000
00001000
,
00000001
00000010
00000000
00000000
00000100
00000000
00010000
00000000
00001000
01000000
00000000
00000000
00010000
00000000
10000000
00000000
,
01000000
00100000
00000000
00000000
00010000
00000000
01000000
00000000
00001000
00010000
00000000
00000000
00000010
00000000
00001000
00000000
,
00000100
00000010
00000000
00000000
00000001
00000000
00001000
00000000
00000010
00000100
00000000
00000000
00000001
00000000
00000010
00000000
,
00000000
00000110
00000000
00001001
,
00000001
00000000
00000100
00000000
00000001
00000010
00001000
00010000
,
01000000
10000000
00100000
00000000
11000000
00000000
01010000
00000000
,
01000000
00010000
00001000
00000010
00000001
00000000
00000100
00000000
,
00000002
00000023
00000230
00002300
00003010
00000000
00001001
00000000
,
00000001
00000000
00000100
00000000
00000001
00000100
00000010
00001000
,
00000100
00010000
00100000
10000000
00010000
00000000
10010000
00000000
,
10000000
00010000
01000000
00001000
00010000
00000000
00001010
00000000
,
20000000
32000000
03200000
00320000
00130000
00000000
10010000
00000000
,
10000000
01000000
00010000
00001000
00010000
01000000
10000000
00100000
,
00010000
00001000
00000100
00000001
00000010
00000000
00001001
00000000
,
00000001
00000100
00001000
00010000
00100000
10000000
01000000
00010000
,
00002000
00003200
00000320
00000032
00000103
00000000
00001001
00000000
,
00000001
00000100
00000001
00000010
00000100
00010000
00100000
10000000
,
01000000
00100000
00010000
01000000
00001000
00000010
00000100
00000010
,
00000001
00000100
00001000
00000000
00010000
00100000
10000000
00000000
,
00020000
00000000
02030000
00000000
03200000
00000000
20300000
00000000
30010000
10000000
00010000
10000000
00010000
10000000
00010000
10000000
,
00200000
00000000
01300000
00002000
00003000
00022000
00033000
00020200
,
00000000
00030300
00000000
00000000
,
00000000
00000000
00000202
00000303
00002020
00003030
00000100
00020000
,
00000000
00030000
02002000
03003000
00220000
00330000
01000000
20000000
,
00000000
00000000
30000000
00000000
00000000
00200000
02300000
03002000
,
00000000
00003000
00000000
00000000
00000000
00000000
00000000
00000000
,
00022000
00033000
02020000
03030000
,
00002200
00003300
00000000
00000000
,
00011000
00000000
00000000
00001000
00000000
00000000
01000000
00000000
00010000
00000000
00000000
00100000
00000000
00000000
01000000
00000000
,
10000000
00000000
00000000
00010000
00000000
00000000
01000000
00000000
00001000
00000000
00000000
00010000
00000000
00000000
00000010
00000000
,
00001000
00000000
00000000
00000001
00000000
00000000
00000010
00000000
00000100
00000000
00000000
00001000
00000000
00000000
00000010
00000000
,
00010000
00000000
00000000
00001000
00000000
00000000
00100000
00000000
00010000
00000000
00000000
10000000
00000000
00000000
00100000
00000000
,
10010000
00000000
00010000
00000000
00000000
00100000
00001000
00000000
00010000
00000000
00000000
00000010
00000000
00000000
00001000
00000000
,
00001001
00000000
00001000
00000000
00000000
00000001
00000100
00000000
00000010
00000000
00000000
00010000
00000000
00000000
00001000
00000000
,
01001000
00000000
00001000
00000000
00000000
01000000
00001000
00000000
00010100
00000000
00000000
00000100
00000000
00000000
00010000
00000000
,
00011000
00000000
00001000
00000000
00000000
00010000
00001000
00000000
00010000
00000000
00000000
00001000
00000000
00010000
00000000
00001000
,
00010000
00000000
00001000
00000000
01000000
00010000
00100000
00000000
01000000
00000000
00000000
10000000
00010000
00000000
00100000
00000000
,
00001000
00000000
01000000
00000000
00001000
00010000
00000010
00000000
00001000
00000000
00000000
00000100
00000010
00000000
00000001
00000000
,
00001000
00000000
00000010
00000000
00000100
00000001
00000010
00000000
00000100
00000000
00000000
00010000
00001000
00000000
01000000
00000000
,
00010000
00000000
00100000
00000000
01000000
10000000
00010000
00000000
00100000
00000000
00000000
00001000
01000000
00000000
00010000
00000000
,
10000000
00000000
00100000
00000000
01000000
00001000
00010000
00000000
00000100
00000000
00000000
00001000
00000010
00000000
00000100
00000000
,
00000001
00000000
00000010
00000000
00000100
00001000
00000001
00000000
00000100
00000000
00000000
00000001
00000010
00000000
00000100
00000000
,
00010000
00000000
00001000
00000000
00100000
00010000
01000000
00000000
00100000
00000000
00000000
10000000
01000000
00000000
00100000
00000000
,
00001000
00000000
01000000
00000000
00100000
10000000
00010000
00000000
01000000
00000000
00000000
00001000
00000000
00010000
00000000
00000010
,
00001000
00000000
00000001
00000000
00000100
00000010
00001000
00000000
00000100
00000000
00000000
00000010
00000001
00000000
00000100
00000000
,
00000010
00000000
00010000
00000000
00001000
00100000
00010000
00000000
01000000
00000000
00000000
00100000
10000000
00000000
01000000
00000000
,
00100000
00000000
01000000
00000000
10000000
00010000
00100000
00000000
00010000
00000000
00000000
01000000
00001000
00000000
00010000
00000000
,
00000010
00000000
00001000
00000000
00000100
00000010
00000001
00000000
00000100
00000000
00000000
00000010
00001000
00000000
00000001
00000000
,
00000010
00000000
00000100
00000000
00010000
00001000
00100000
00000000
00010000
00000000
00000000
01000000
00100000
00000000
10000000
00000000
,
01000000
00000000
00100000
00000000
01000000
10000000
00010000
00000000
00100000
00000000
00000000
00010000
01000000
00000000
00001000
00000000
,
00010000
00000000
00000010
00000000
00001000
00000100
00000010
00000000
00000001
00000000
00000000
00001000
00000010
00000000
00000100
00000000
,
00000001
00000000
00000010
00000000
00000100
00001000
00000010
00000000
00010000
00000000
00000000
00001000
00000000
01000000
00000000
00100000
;
