#TITLE:Krack Your Soul;
#SUBTITLE:;
#ARTIST:Daisuke Ohnuma;
#TITLETRANSLIT:;
#SUBTITLETRANSLIT:;
#ARTISTTRANSLIT:;
#GENRE:;
#CREDIT:;
#BANNER:[Timing Window] - Krack Your Soul.png;
#BACKGROUND:[Timing Window] - Krack Your Soul-bg.png;
#LYRICSPATH:;
#CDTITLE:;
#MUSIC:[Timing Window] - Krack Your Soul.ogg;
#OFFSET:-5.768000;
#SAMPLESTART:36.630001;
#SAMPLELENGTH:15.000000;
#SELECTABLE:YES;
#BPMS:0.000000=130.000000
;
#STOPS:148.000000=0.115000,
148.500000=0.115000,
149.000000=0.115000,
149.500000=0.115000,
179.000000=0.115000,
179.500000=0.115000,
180.000000=0.115000,
180.500000=0.115000,
185.000000=0.231000,
188.000000=0.231000
;
#BGCHANGES:;
#KEYSOUNDS:;
#ATTACKS:;

//---------------dance-single - ----------------
#NOTES:
     dance-single:
     :
     Hard:
     9:
     0.628754,0.690545,0.357101,0.535652,0.401739,393.000000,40.000000,60.000000,0.000000,0.000000,0.000000,0.628754,0.690545,0.357101,0.535652,0.401739,393.000000,40.000000,60.000000,0.000000,0.000000,0.000000:
// measure 0
0000
0000
0000
0000
,  // measure 1
0000
0000
0000
0000
,  // measure 2
0000
0000
0000
0000
,  // measure 3
0000
0000
0000
0002
,  // measure 4
1003
0000
0000
1000
0100
0000
0000
1000
0001
0000
0001
0000
0020
0000
0000
0000
,  // measure 5
0031
0000
0000
0001
0100
0000
0000
0001
1000
0001
1000
0000
0020
0000
0000
0000
,  // measure 6
1030
0000
0001
0020
0030
0001
2000
3000
0001
0020
0030
0001
0200
0000
0000
0000
,  // measure 7
0301
0000
0001
1000
0100
0000
1000
0100
0020
0000
0030
0000
0020
0000
0030
0000
,  // measure 8
0011
0000
0000
0110
0000
0000
1001
0000
0000
1100
0000
0000
1000
0100
1000
0100
,  // measure 9
0010
0001
0100
0001
1000
0010
0100
0010
,  // measure 10
1000
0100
0010
0100
1000
0001
0200
0000
,  // measure 11
0301
0010
0001
0000
1000
0000
0100
0000
1000
0000
0001
0000
1000
0010
1000
0000
,  // measure 12
0002
0003
1000
0020
0030
1000
0002
0000
0013
0000
0100
0000
0000
0100
0010
0000
,  // measure 13
0001
0000
1000
0000
0010
0000
0010
0100
0000
0000
0010
0100
0010
0000
1000
0000
,  // measure 14
0001
0000
0010
0100
1000
0000
0001
0100
0020
0000
0000
0000
0130
0000
0100
0000
,  // measure 15
0001
0000
1000
0001
0100
0000
0001
0000
0010
0000
0100
0000
0010
0000
0001
0000
,  // measure 16
1000
0000
0000
1000
0100
0000
1000
0000
0001
0000
0100
0000
0010
0100
0010
0100
,  // measure 17
0001
0000
2000
3000
0010
0000
1000
0000
0001
0000
0100
0000
0010
0000
0100
0000
,  // measure 18
0001
0000
0020
0030
0100
0000
0010
0000
0001
0000
0100
0000
0010
0000
0010
0000
,  // measure 19
1000
0000
0002
0003
0100
0000
0001
0000
1000
0000
0100
0000
0010
0000
0100
0000
,  // measure 20
1000
0000
0200
0000
0310
0000
0001
0000
0010
0000
0100
0000
1000
0000
1000
0001
,  // measure 21
0200
0000
0000
0000
,  // measure 22
0301
0000
2000
3000
0010
0000
1000
0000
0001
0000
0100
0000
1000
0000
0100
0000
,  // measure 23
0010
0000
2000
3000
0001
0010
0000
0001
1000
0100
0000
1000
0001
0000
0100
0000
,  // measure 24
0100
0000
0002
0000
0103
0000
0010
0000
1000
0000
0100
0000
1000
0001
0010
0001
,  // measure 25
1000
0000
1100
0000
1000
0100
0000
0110
0000
0010
0001
0000
0011
0000
1001
0000
,  // measure 26
2020
3030
0000
0001
0000
0000
0220
0330
0000
0001
0000
0000
1100
0000
1001
0000
,  // measure 27
0022
0033
0000
1000
0000
0000
0220
0330
0000
1000
0000
0000
0001
1000
0001
0000
,  // measure 28
0202
0303
0000
0010
0000
0000
2200
3300
0000
0022
0033
0000
1000
0001
1000
0000
,  // measure 29
0100
0000
0100
0000
1000
0020
0030
0100
0000
0100
0002
0003
0010
0100
0010
0000
,  // measure 30
0002
0100
1003
1100
,  // measure 31
0001
0000
1000
0000
0100
0000
1000
0010
0000
0000
0101
0000
0000
0000
0001
0000
,  // measure 32
2000
0010
3100
1001
,  // measure 33
0001
0000
0010
0000
0100
0000
0010
0001
0000
0000
1000
0000
0020
0000
0000
0000
,  // measure 34
1030
0000
0011
0000
1010
0000
1000
0010
,  // measure 35
0001
0000
0010
0000
1000
0000
0100
0010
0000
0100
0000
0000
1000
0000
0001
0000
,  // measure 36
0010
0000
0011
0000
1001
0000
1000
0010
,  // measure 37
0100
0000
0101
0000
0110
0000
1010
0000
1000
0001
1000
0001
0200
0000
0000
0000
,  // measure 38
0010
0000
0301
0000
0001
0100
0010
1000
,  // measure 39
0100
0000
1000
0001
0000
0000
0101
0000
0000
0000
1000
0000
0010
0000
1000
0000
,  // measure 40
0001
0000
0010
0000
0001
0100
0001
0100
0010
0000
1010
0000
0000
1000
0100
1000
,  // measure 41
0100
0000
2000
0000
3001
0010
0100
0010
0001
0000
1001
0000
2000
0000
0000
0000
,  // measure 42
0100
0000
3001
0000
0101
0000
1000
0001
,  // measure 43
0100
0000
0001
0010
0000
0000
1100
0000
0000
0000
1000
0000
0200
0000
0000
0000
,  // measure 44
0010
0000
1300
0000
1000
0001
0010
0110
,  // measure 45
1001
0000
0110
0000
1000
0000
0000
1000
0001
0000
0001
0100
0010
0000
0100
0001
,  // measure 46
0000
0001
0100
0000
0110
0000
1000
0000
1000
0100
0010
0000
0010
0100
1000
0001
,  // measure 47
1000
0000
0001
0000
0200
0000
0000
0000
0301
0000
0000
0200
0300
0000
0200
0000
,  // measure 48
0310
0000
0000
0000
0200
0000
1300
0000
0100
0100
0000
0010
0000
0000
0200
0000
,  // measure 49
0302
0000
0000
0000
1003
0000
0100
0010
0001
0000
0001
0010
0100
1000
0100
0000
,  // measure 50
2000
0000
0000
0000
3001
0000
0100
0010
1000
0000
1000
0010
1000
0001
0100
0000
,  // measure 51
0002
0000
0000
0000
1003
0000
0010
0200
0300
0010
2000
3000
0010
0200
0300
0001
,  // measure 52
0020
0000
0000
0000
0130
0000
0100
1000
0010
0000
0100
0001
2000
0000
3000
0000
,  // measure 53
0002
0000
0003
0000
0101
0000
0000
0011
0000
0000
1010
0000
0000
1100
0000
0000
,  // measure 54
1000
0001
1000
0001
0020
0000
0000
0000
0000
0000
0000
0000
0000
0000
0000
0000
,  // measure 55
0000
0030
0000
0000
;

//---------------dance-single - ----------------
#NOTES:
     dance-single:
     :
     Beginner:
     1:
     0.123710,0.145296,0.089275,0.000000,0.000000,87.000000,10.000000,0.000000,0.000000,0.000000,0.000000,0.123710,0.145296,0.089275,0.000000,0.000000,87.000000,10.000000,0.000000,0.000000,0.000000,0.000000:
0000
0000
0000
0000
,
0000
0000
0000
0000
,
0000
0000
0000
0000
,
0000
0000
0000
0000
,
1001
0000
0000
1000
,
1000
0000
0000
0001
,
0001
0000
0000
0100
,
0100
0000
0000
0000
,
0110
0000
0000
0000
,
1000
0000
0000
0000
,
0001
0000
0000
0000
,
1000
0000
0000
1000
,
1000
0000
0001
0000
,
0000
0010
0000
0010
,
0000
0100
0000
0100
,
0000
0010
0000
0010
,
0001
0001
0001
0000
,
1000
0000
0000
0000
,
0100
0000
0000
0000
,
0001
0000
0000
0000
,
0100
0000
0000
0000
,
0000
0000
0000
0000
,
0010
0000
0000
0000
,
0001
0000
0000
0000
,
0010
0000
0000
0000
,
1000
0000
1000
0000
,
1001
0000
0000
0000
,
1001
0000
0000
0000
,
1001
0000
0000
0000
,
1001
0000
0000
0000
,
1000
1000
1000
0000
,
0100
0000
0000
0000
,
0001
0001
0001
0000
,
0100
0000
0000
0000
,
0010
0010
0010
0000
,
1000
0000
0001
0000
,
0100
0100
0100
0000
,
0110
0000
0000
0001
,
0001
0001
0000
0100
,
0000
0000
0000
0000
,
0010
0000
0100
0000
,
0010
0000
0010
1000
,
1000
1000
0000
0100
,
0000
0000
0000
0010
,
0010
0010
0000
0110
,
0000
0000
1000
0000
,
0000
0000
0001
0001
0000
0000
0000
0000
,
1000
1000
0000
0000
0100
0000
0000
0000
,
0100
0010
0000
0000
,
0010
1001
0000
0000
,
0001
0001
0000
0000
,
1000
1000
0000
0000
,
0100
0100
0000
0000
,
0000
0110
0000
0000
,
0000
0001
0000
0000
;

//---------------dance-single - ----------------
#NOTES:
     dance-single:
     :
     Easy:
     3:
     0.228290,0.217943,0.080348,0.258899,0.004464,141.000000,9.000000,29.000000,0.000000,0.000000,0.000000,0.228290,0.217943,0.080348,0.258899,0.004464,141.000000,9.000000,29.000000,0.000000,0.000000,0.000000:
0000
0000
0000
0000
,
0000
0000
0000
0000
,
0000
0000
0000
0000
,
0000
0000
0000
2000
,
3100
0000
1000
0002
,
0103
0000
0001
2000
,
3100
0000
0000
0200
,
0310
0000
0000
0000
0002
0003
2000
3000
,
0020
0000
0000
0030
,
0000
1000
0100
1000
,
0000
0000
0001
0000
0100
0000
0020
0030
,
0010
1000
0001
0010
,
0200
0000
0300
0000
,
1000
0001
0000
0001
,
0010
0100
0010
0000
,
0001
0000
1000
0000
,
0010
1000
0200
0300
,
1000
0000
0001
0001
,
0100
0000
0001
0001
,
0010
0000
0001
0001
,
1000
0000
1000
1000
,
0200
0000
0000
0300
,
0010
0000
0100
0100
,
1000
0000
0010
0010
,
0100
0000
0001
0001
,
1000
1000
1000
1000
,
1001
0000
0001
0001
,
1001
0000
1000
1000
,
1001
0000
0001
1001
,
2000
3000
0002
0003
,
0010
0100
0020
0030
,
0001
0100
0010
1000
,
0010
0100
0020
0030
,
1000
0100
1000
0020
,
0130
0100
0001
0000
,
1000
0010
0100
0000
,
0001
1000
0002
0000
,
1003
0000
0000
0010
,
0100
0020
0030
1000
,
0100
0010
0001
2000
,
3000
0020
0030
0200
,
0300
0002
0003
1000
,
1000
0200
0300
1000
,
0010
0100
0000
0001
,
1000
0002
0000
1003
,
0000
0000
0110
0000
,
1000
0000
0001
0000
0000
0001
0000
1000
,
1000
0000
0100
0000
,
0010
0000
0000
0000
0000
0000
0100
0000
0000
0000
0000
0010
0000
0000
0000
0000
,
0010
1001
0000
0001
,
0100
1001
0000
1000
,
0100
2002
0000
0000
,
3003
0000
1000
0000
0001
0000
0020
0030
,
0020
0030
0200
0000
0000
0000
0000
0000
,
0300
1001
0000
0000
;

//---------------dance-single - ----------------
#NOTES:
     dance-single:
     :
     Medium:
     6:
     0.462956,0.443922,0.196406,0.535652,0.107130,281.000000,22.000000,60.000000,0.000000,0.000000,0.000000,0.462956,0.443922,0.196406,0.535652,0.107130,281.000000,22.000000,60.000000,0.000000,0.000000,0.000000:
0000
0000
0000
0000
,
0000
0000
0000
0000
,
0000
0000
0000
0000
,
0000
0000
0000
2000
,
3001
0000
1000
0000
0001
1000
0020
0000
,
1030
0000
0001
0000
1000
0001
0200
0000
,
0301
0000
0000
0020
0000
0030
0200
0000
0300
0020
0000
0030
0001
0000
0000
0000
,
1000
0000
2100
0000
3002
0003
0002
0003
,
1000
0000
0000
0100
0000
0000
0010
0000
0000
0001
0000
0000
0100
0000
0100
0000
,
0000
0001
0100
0000
0001
1000
0010
0000
,
0100
0001
1000
0000
0100
1000
0020
0000
,
1030
1100
0001
0101
,
0001
0000
0000
0100
0000
0000
0001
0000
0020
0000
0000
0000
0030
0000
0000
0000
,
0001
0001
0100
0000
0001
0000
1000
0100
,
0200
0300
0200
0300
0020
0000
0130
1000
,
0001
0000
1000
0001
0010
0000
0001
0100
,
1000
0000
0000
0100
0001
0000
0100
0000
0010
0000
0010
0000
0110
0000
0000
0000
,
1000
0000
0200
0300
1000
0000
0000
0000
0100
0000
1000
0000
0010
0000
0000
0000
,
0100
0000
0002
0003
0100
0000
0000
0000
0001
0000
0010
0000
0100
0000
0010
0000
,
0001
0000
0200
0300
0001
0000
0000
0000
0100
0000
0010
0000
1000
0000
0000
0000
,
0001
2000
3001
1000
0100
0010
0100
0000
,
0022
0000
0000
0033
,
1000
0000
0020
0030
0100
0000
0000
0000
0001
0000
0010
0000
0100
0000
0000
0000
,
0010
0000
0002
0003
1000
0010
0000
0000
1000
0100
0000
0000
1000
0000
0000
0000
,
0100
0020
0130
1000
0001
1000
0010
0100
,
0001
0000
1000
0000
2000
3000
0000
0001
0000
0002
0003
0000
1000
0000
0001
0000
,
0020
0000
0030
0001
0000
0000
0020
0000
0030
0001
0000
0000
0100
0000
0100
0000
,
0020
0000
0030
1000
0000
0000
0020
0000
0030
1000
0000
0000
0010
0000
0010
0000
,
0020
0000
0030
0100
0000
0000
0002
0000
0003
2000
0000
3000
0100
0000
0100
0000
,
1000
0000
0100
0000
1000
0000
0000
0001
0000
0010
0001
0000
0002
0000
0000
0000
,
2003
3200
1300
1001
,
0001
0100
0001
0100
0010
0000
0010
0100
,
0002
0203
0301
1001
,
0001
1000
0100
0000
0100
1000
0020
0000
,
2030
3002
1003
0110
,
0001
0100
0010
0000
1000
0100
0010
0100
,
2000
3200
0310
0011
,
0001
0101
1001
0101
0001
1000
0002
0000
,
0023
0000
0031
0000
1001
0000
1000
0010
,
0100
0000
0001
0010
0100
0010
0000
0010
,
1001
0000
0001
1000
0010
0010
0000
1000
,
0001
0001
1000
0100
0010
0010
0200
0000
,
2300
0000
3010
0000
1001
0000
0001
0010
,
1000
0000
0001
0100
1000
0000
0002
0000
,
2003
0000
3001
0000
0110
0000
1000
1100
,
1001
1100
0200
0000
1300
0000
0001
0000
,
1000
0100
1000
0001
0000
1000
0000
0001
,
0100
0000
0100
0000
0010
0000
0000
0000
1010
0000
0000
1000
0000
0000
0001
0000
,
0101
0000
0000
0000
0100
0000
0020
0000
0130
0000
0000
0001
0000
0000
0010
0000
,
0002
0000
1003
0000
0001
0000
1000
0001
,
0020
0000
0031
0000
1000
0000
0001
1000
,
0200
0000
0000
0000
1300
0000
0000
0020
0000
0030
0200
0000
0300
0020
0000
0030
,
1000
0000
0001
0000
0102
0000
2003
3000
,
2000
0000
3000
0000
0001
0000
0000
0100
0000
0000
0010
0000
0000
1000
0000
0000
,
0100
0100
0020
0000
0000
0000
0000
0000
,
0000
0030
0000
0000
;
