#TITLE:Keep it up;
#SUBTITLE:;
#ARTIST:uma;
#TITLETRANSLIT:;
#SUBTITLETRANSLIT:;
#ARTISTTRANSLIT:;
#GENRE:;
#CREDIT:;
#MUSIC:Keep it up.ogg;
#BANNER:Keep it up.png;
#BACKGROUND:Keep it up-bg.png;
#CDTITLE:;
#SAMPLESTART:25.664;
#SAMPLELENGTH:13.714;
#SELECTABLE:YES;
#OFFSET:0.050;
#BPMS:0.000=140.000
,66.000=70.000
,67.000=280.000
,187.000=140.000
,251.000=70.000
,253.000=280.000
,377.000=140.000
;
#STOPS:;
#BGCHANGES:;
#FGCHANGES:;

//--------------- dance-single - Talkion ----------------
#NOTES:
     dance-single:
     Talkion:
     Hard:
     10:
     0,0,0,0,0:
0000
0000
0000
0000
,
0000
0000
0000
0000
,
0000
0000
0000
0000
,
0000
0000
0000
0000
,
0000
0000
0000
0000
0000
0000
0010
0010
,
1000
0000
0100
0000
0010
0000
0001
0100
0001
0000
1000
0000
1010
0000
0000
0000
,
0001
0000
0010
0000
0100
0000
1000
0010
1000
0000
0001
0000
0101
0000
0000
0000
,
0001
0000
1000
0000
0100
0000
0010
0100
0010
0000
0100
0000
1000
0000
0010
0000
,
0220
0000
0000
0000
0330
0000
0001
0001
,
1000
0100
1000
0000
0010
0000
0010
0000
0001
0100
0001
0000
0010
0000
0010
0000
,
1000
0100
0010
0000
0001
0000
0001
0000
1000
0000
0010
0000
0110
0000
0000
0000
,
0001
0010
0001
0000
0100
0000
0100
0000
1000
0010
1000
0000
0100
0000
0100
0000
,
0001
0010
0100
0000
1000
0000
1000
0000
0010
0000
0100
0000
0110
0000
0000
0000
,
0001
0010
0001
0010
0001
0000
0100
0000
0010
1000
0010
1000
0010
0000
1000
0000
,
0100
0010
0100
0010
0100
0000
1000
0000
0001
0100
0001
0100
0001
0000
0010
0000
,
1100
1000
0101
0001
1010
1000
0011
0001
,
1000
0100
1000
0100
0001
0100
0001
0100
0010
0010
0100
0100
1000
0000
0010
0000
,
1000
0020
0000
0000
0130
0001
1000
0100
,
1000
0200
0000
0000
0310
0001
1000
0001
,
0010
0200
0000
0000
1300
0001
1000
0010
,
0020
0000
0130
0100
0002
0000
0013
0100
,
0010
0200
0000
0000
1300
0010
0100
0001
,
0100
0002
0000
0000
0013
0100
0010
0001
,
0010
0002
0000
0000
1003
0010
0100
0010
,
0100
0000
2002
0000
3003
0000
0010
0001
,
0010
0001
0010
0001
1000
0000
0010
1000
,
0010
1000
0010
1000
0001
0000
0100
0010
,
0100
0010
0100
0010
1000
0000
0110
0000
,
0110
0000
0011
0000
0011
0000
1000
0010
,
1000
0010
0100
0010
0100
0000
0001
0010
,
0001
0010
0100
0010
0100
0000
1000
0001
,
1000
0001
1000
0001
0010
0000
0210
0000
,
0000
0010
0020
0330
,
1000
0001
1000
0000
0110
0000
0001
0010
,
0001
0020
0000
0000
0130
1000
0001
1000
,
0010
0200
0000
0000
0301
1000
0001
0100
,
0200
0000
0310
0010
2000
0000
3100
0010
,
0100
0020
0000
0000
0031
0100
0010
1000
,
0010
2000
0000
0000
3100
0010
0100
1000
,
0100
0000
0000
2000
0000
0000
0000
0000
0000
0000
0000
0000
3001
0000
0000
0100
0000
0000
0010
0000
0000
0000
0010
0000
,
0000
0000
0010
0000
0000
0000
2002
0000
0000
0000
0000
0000
3003
0000
0000
0000
0000
0000
0001
0000
0000
0010
0000
0000
,
0100
0010
0001
0010
0001
0000
1000
0010
,
0100
0010
1000
0010
1000
0000
0100
0010
,
0100
0010
0100
0010
0001
0000
0110
0000
,
0110
1100
1100
2002
,
0000
0000
0000
0000
,
0000
0000
0000
0000
0000
0000
0000
0000
3003
0000
0000
0000
1100
0000
0000
0101
,
0000
0000
0110
0000
0110
0000
0000
0000
1001
0000
0000
0000
0002
0000
0000
0013
,
0001
0000
0000
0000
2000
0000
0000
3010
1000
0000
0000
0000
0200
0000
0000
0310
,
0100
0000
1000
0000
0001
0000
0100
0000
0110
0000
0000
0000
0200
0000
0000
0301
,
1000
0000
0000
0000
0200
0000
0000
1300
0001
0000
0000
0000
0020
0000
0000
0130
,
0010
0000
0001
0000
1000
0000
0010
0000
0110
0000
0000
0000
0100
0000
0001
0010
,
0100
0000
0100
0000
0001
0000
1000
0010
0100
0000
0100
0000
1000
0000
0100
0010
,
0001
0000
0001
0000
1000
0000
0010
0000
0110
0000
0000
0000
0010
0000
0100
0001
,
0100
0000
0010
0000
0010
0000
0100
1000
0100
0000
0010
0000
0010
0000
1000
0001
,
0100
0000
0010
0000
1000
0000
0001
0000
1001
0000
0000
0000
0022
0000
0033
0220
,
0000
0330
2200
3300
1001
0000
0000
0000
0110
0000
0000
0000
2020
0000
3030
0220
,
0000
0330
0202
0303
1001
0000
0000
0000
0110
0000
0000
0000
0202
0000
0303
0220
,
0000
0330
2020
3030
1001
0000
0000
0000
0110
0000
0000
0000
0001
0000
1000
0010
,
0000
0010
0100
0000
0001
1000
0001
0000
0010
0000
0100
0000
1000
0001
1000
0001
,
0100
0000
0010
0000
0100
0001
0100
0001
1000
0000
0100
0000
1000
0010
1000
0010
,
0100
0000
0001
0000
1000
0100
1000
0100
0010
0000
0001
0000
1000
0010
1000
0010
,
0001
0010
0001
0010
0100
0000
0100
0000
0010
0000
0010
0000
1001
0000
0000
0000
,
1010
0011
1000
0100
0010
0200
0000
0000
,
0310
0001
1000
0010
0100
0020
0000
0000
,
0130
0001
1000
0001
1000
0000
1010
0000
,
0010
0100
0001
0100
0010
0000
1000
0000
,
1000
0000
0100
0010
0001
0020
0000
0000
,
0031
1000
0010
0100
0001
0200
0000
0000
,
0310
1000
0001
1000
0001
0000
0011
0000
,
0011
0000
0110
0000
1000
1100
0000
0001
,
0101
0000
0100
0010
0100
0010
1000
0100
,
1000
0000
0100
0010
0100
0010
0001
0100
,
0001
0000
1000
0010
0100
0010
1000
0001
,
0001
0000
0020
0130
1100
0000
0020
0130
,
0101
0000
0001
1000
0010
1000
0010
0100
,
0010
0000
1000
0001
0010
0001
0010
0100
,
0010
0000
1100
0000
0000
0101
0000
0000
,
0100
0010
0110
0000
0000
0000
1001
0000
,
0000
0000
0011
0000
0010
0100
0000
0100
,
1000
0000
1010
0000
0010
0100
0000
0100
,
0001
0000
1001
0000
1000
0100
0000
0100
,
0010
0001
0001
1000
,
1000
0000
0101
0000
0100
0010
0000
0010
,
1000
0000
1100
0000
0100
0010
0000
0010
,
0001
0000
1001
0000
0001
0010
0000
0010
,
0100
1000
1000
0001
,
0001
0000
1000
0010
1000
0010
0001
0010
,
0100
0000
0001
0010
0001
0010
0100
0000
,
0110
0000
1000
0100
1000
0100
0001
0100
,
0010
0000
0001
0100
0001
0100
0010
0000
,
0110
0000
0010
1000
0010
0100
0010
0001
,
0010
0100
0020
0030
0020
0030
2200
3300
,
2200
3300
2002
0000
0000
0000
0000
0000
,
0000
3003
0000
0000
;
