#TITLE:Honest;
#SUBTITLE:;
#ARTIST:KEY;
#TITLETRANSLIT:;
#SUBTITLETRANSLIT:;
#ARTISTTRANSLIT:;
#GENRE:K-POP;
#CREDIT:;
#BANNER:[Timing Window] - Honest.png;
#BACKGROUND:[Timing Window] - Honest-bg.png;
#LYRICSPATH:;
#CDTITLE:;
#MUSIC:[Timing Window] - Honest.ogg;
#OFFSET:0.009979;
#SAMPLESTART:77.050583;
#SAMPLELENGTH:19.585640;
#LASTBEATHINT:195.630463;
#SELECTABLE:YES;
#BPMS:0.000000=98.030998
;
#STOPS:
;
#BGCHANGES:;
#KEYSOUNDS:;
#ATTACKS:;

//---------------dance-single - ----------------
#NOTES:
     dance-single:
     :
     Challenge:
     9:
     0.643195,0.683015,0.200105,0.842109,1.013032,540.000000,516.000000,24.000000,101.000000,0.000000,0.000000,0.643195,0.683015,0.200105,0.842109,1.013032,540.000000,516.000000,24.000000,101.000000,0.000000,0.000000:
// measure 0
0000
0000
0000
0000
,  // measure 1
0000
0000
0000
0000
,  // measure 2
0000
0000
0000
0000
,  // measure 3
0000
0000
0000
0000
,  // measure 4
0000
0000
0000
0000
,  // measure 5
0000
0000
0000
0000
,  // measure 6
0000
0000
0000
0000
,  // measure 7
0000
0000
0000
0000
0000
0000
0000
0000
0000
0000
1000
0010
0000
0010
1000
0001
,  // measure 8
1001
0000
1000
0000
1010
0000
0010
1000
0000
0001
0100
0000
0002
0000
1003
0000
,  // measure 9
1100
0000
0010
0000
0011
0000
1000
0010
0000
0001
0000
0010
2000
0000
3001
0000
,  // measure 10
0101
0000
0100
0000
0110
0000
0010
1000
0000
0002
0000
1003
0200
0000
0310
0000
,  // measure 11
0011
0000
0000
1100
0000
0001
0100
0001
1000
0001
0010
0000
0001
0000
0100
0000
,  // measure 12
0010
0000
2000
0000
0010
0000
3010
0100
0000
0001
0000
1000
0200
0000
0310
0000
,  // measure 13
0011
0000
0000
0000
1000
0000
0000
0000
1000
0010
0000
0000
0000
0000
0100
0000
0000
0000
0010
0000
0000
0000
0100
0000
0001
0000
0000
0000
1000
0000
0000
0000
,  // measure 14
1100
0000
0000
0101
0000
0000
0000
0100
0000
0010
0000
1000
0001
0000
0100
0000
,  // measure 15
0110
0000
0000
1001
0000
1000
0010
1000
0001
0010
0100
0010
0002
0000
1003
0000
,  // measure 16
1100
0100
1000
0010
1000
0001
1000
0100
1000
0010
1000
0100
0010
0001
0100
0010
,  // measure 17
0100
0001
0010
0001
1000
0001
0010
0100
0010
0001
1000
0010
1000
0100
0010
0001
,  // measure 18
1000
0010
0100
0010
1000
0100
1000
0001
1000
0001
0010
0100
1000
0001
0100
0010
,  // measure 19
1000
0001
0010
0001
0100
0010
1000
0100
0020
0032
0023
0230
2300
0000
0000
0000
,  // measure 20
3001
0010
0001
0100
0001
1000
0001
0010
0001
0100
0001
0010
0100
1000
0010
0100
,  // measure 21
0010
1000
0100
1000
0001
1000
0100
0010
0100
1000
0001
0100
0001
0010
0100
1000
,  // measure 22
0001
0100
0010
0100
0001
0010
0001
1000
0001
1000
0100
0010
0001
1000
0010
0100
,  // measure 23
0010
1000
0100
1000
0010
0100
0001
0010
0001
1000
0000
0001
0000
0100
0000
0020
,  // measure 24
1000
0000
2030
0000
0001
0000
0001
0000
3001
0010
0000
0100
0000
1000
0000
0002
,  // measure 25
0100
0000
0100
0000
0100
0000
0100
0000
0103
0010
0000
1000
0000
0001
0000
2000
,  // measure 26
0010
0000
3020
0000
1000
0000
1030
0001
0010
0100
0000
1000
0000
0001
0000
0200
,  // measure 27
0010
0000
0010
0000
0010
0000
0010
0000
0310
1000
0000
0001
0000
1000
0000
0200
,  // measure 28
1000
0000
2300
0000
0001
3000
0001
0010
0001
1000
0000
0010
0000
1000
0000
0002
,  // measure 29
1000
1000
0100
0100
0010
0013
0100
1000
,  // measure 30
2010
0000
3010
1000
0001
0000
0200
0000
0301
0010
0100
0000
0210
0000
0310
0000
,  // measure 31
0011
0000
1001
0000
1010
0000
1001
0000
0110
0000
0000
0000
0000
0000
1000
0010
,  // measure 32
1000
0001
0010
0001
1000
0100
0010
0001
1000
0100
2000
3020
0230
0302
0023
0230
,  // measure 33
1300
0010
1000
0001
1000
0100
0010
0100
1000
0001
2000
3020
0230
0302
0203
0320
,  // measure 34
1030
0001
0010
0001
1000
0001
0010
0100
1000
0010
2000
3200
0320
0032
0023
0230
,  // measure 35
1300
0001
0010
0001
0100
0010
1000
0100
0010
0001
0000
1000
0000
2001
0000
0000
,  // measure 36
3001
0010
0100
1000
0001
0100
0010
1000
0100
1000
0020
0230
0302
0023
0230
2300
,  // measure 37
3010
1000
0001
1000
0100
0010
0100
1000
0100
0010
0002
0023
0230
2300
3200
0320
,  // measure 38
0031
1000
0010
1000
0001
0100
0010
0100
0001
1000
0002
0203
0320
2030
3020
0230
,  // measure 39
0301
1000
0010
0100
0001
0010
0100
1000
0001
1000
0001
0100
0000
0210
0000
0000
,  // measure 40
0301
1000
0100
0100
0001
0010
0100
0100
0001
1000
0002
0203
0320
2030
3200
0320
,  // measure 41
0031
1000
0010
0010
0001
0100
0010
0010
0001
1000
0002
0203
0320
2030
3020
0230
,  // measure 42
0301
1000
0100
0100
0001
1000
0010
0010
0001
0100
0002
0023
0230
2300
3200
0320
,  // measure 43
0031
0100
0010
0010
0001
1000
0100
0100
0001
0010
0000
0001
0000
0002
0000
0000
,  // measure 44
1003
0001
0010
0010
1000
0100
0010
0010
1000
0001
2000
3020
0230
0302
0023
0230
,  // measure 45
1300
0001
0100
0100
1000
0010
0100
0100
1000
0001
2000
3020
0230
0302
0203
0320
,  // measure 46
1030
0001
0100
0100
1000
0001
0010
0010
1000
0001
2000
3200
0320
0032
0023
0230
,  // measure 47
1300
0010
0100
0100
1000
0001
0010
0010
1000
0100
1000
0001
0000
1002
0000
0000
,  // measure 48
0203
0000
0000
0000
0000
0000
0000
0000
0300
0100
0000
0000
0000
0000
0000
0000
0000
0000
0000
0000
0000
0000
0000
0000
0000
0000
0000
0000
0000
0000
0000
0000
0000
0000
0000
0000
0000
0000
0000
0000
0000
0000
0000
0000
0000
0000
0000
0000
;

//---------------dance-single - ----------------
#NOTES:
     dance-single:
     :
     Hard:
     7:
     0.372815,0.401773,0.225118,0.491925,0.441899,313.000000,286.000000,27.000000,59.000000,12.000000,0.000000,0.372815,0.401773,0.225118,0.491925,0.441899,313.000000,286.000000,27.000000,59.000000,12.000000,0.000000:
// measure 0
0000
0000
0000
0000
,  // measure 1
0000
0000
0000
0000
,  // measure 2
0000
0000
0000
0000
,  // measure 3
0000
0000
0000
0000
,  // measure 4
0000
0000
0000
0000
,  // measure 5
0000
0000
0000
0000
,  // measure 6
0000
0000
0000
0000
,  // measure 7
0000
0000
0000
0000
,  // measure 8
0001
0000
1000
0000
1100
0000
0000
0000
0100
0000
0010
0001
0000
0001
0000
0000
,  // measure 9
0100
0000
0010
0000
0110
0000
0000
0000
0100
0000
0001
1000
0000
1000
0000
0000
,  // measure 10
0100
0000
1000
0000
1010
0000
0000
0000
1000
0000
0001
0100
0000
0100
0000
0000
,  // measure 11
0001
0000
0000
0010
0100
0000
0000
0000
0010
0000
0001
1000
0000
1000
0000
0000
,  // measure 12
0001
0000
0100
0000
0010
0000
1000
0001
0000
0000
0001
1000
0000
0001
0000
0000
,  // measure 13
1000
0000
0010
0000
1000
0000
0001
0100
0000
0000
0100
0010
0000
1000
0000
0000
,  // measure 14
0001
0000
0000
0010
0100
0000
0000
0100
1000
0000
1000
0001
0000
1000
0000
0000
,  // measure 15
1001
0000
0000
0220
0000
0000
0330
0000
0000
0000
1000
0001
0000
1001
0000
0000
,  // measure 16
0102
0000
0000
2003
0100
0000
3MM2
0000
0000
2003
0100
0000
3MM2
0000
0000
0203
,  // measure 17
0010
M3M2
0103
0000
0101
0000
1010
0002
,  // measure 18
0100
0000
1000
0000
0203
0000
0310
2000
,  // measure 19
0001
0000
0000
0000
3100
0000
0020
0000
0031
1000
0001
1000
0020
0000
0000
0000
,  // measure 20
0230
0000
0000
0302
1000
0000
MM23
0000
0000
0032
0100
0000
2MM3
0000
0000
3002
,  // measure 21
0010
2MM3
3001
0000
0011
0000
1100
0020
,  // measure 22
0001
0000
0130
0000
1010
0000
0101
0020
,  // measure 23
1000
0000
0000
0000
0100
0000
0030
0000
0001
0010
0000
0100
0000
1000
0000
0002
,  // measure 24
0000
0000
0100
0000
0100
0000
0000
0000
0103
0010
0000
0100
0000
0001
0000
2000
,  // measure 25
0000
0000
0000
0000
0000
0000
0000
0000
3100
0010
0000
0001
0000
1000
0000
0200
,  // measure 26
0000
0000
2300
0000
0010
0000
0000
3010
1000
0010
0000
0100
0000
0001
0000
0002
,  // measure 27
0000
0000
0000
0000
0000
0000
0000
0000
0013
0001
0000
1000
0000
0100
0000
2000
,  // measure 28
0001
0000
3002
0000
1000
0000
0003
1000
0001
0100
0000
0010
0000
1000
0000
0200
,  // measure 29
0010
0000
1000
0000
0010
0000
1300
0001
,  // measure 30
0102
0000
0000
0023
0100
0000
2030
0000
3001
0200
0000
0000
0320
0000
0000
0000
,  // measure 31
0100
0000
0100
0000
0100
0000
0100
0000
0130
0001
0000
1000
0000
0200
0000
0000
,  // measure 32
0310
0000
0000
0000
1002
0000
0000
0000
1003
0000
0100
1000
0000
0002
0000
0000
,  // measure 33
0103
0000
0010
1000
0000
0010
0000
1000
0002
0000
0000
1003
0000
0000
0100
0000
,  // measure 34
0010
0000
0001
0100
0000
0001
0000
0100
0020
0000
0000
1030
0000
0000
0001
0000
,  // measure 35
0020
0000
0000
0031
0000
0000
1000
0000
0100
1000
0000
1000
0000
0002
0000
0000
,  // measure 36
1003
0000
0000
0000
1020
0000
0000
0000
0130
0000
0001
1000
0000
0002
0000
0000
,  // measure 37
0013
0000
0100
0010
0000
0100
0000
0100
0020
0000
0000
0031
0000
0000
1000
0000
,  // measure 38
0100
0000
0010
0100
0000
0010
0000
0010
0200
0000
0000
1300
0000
0000
0010
0000
,  // measure 39
0200
0000
0000
0301
0000
0000
1000
0000
0001
0100
0000
0110
0000
1002
0000
0000
,  // measure 40
1003
0000
0100
0000
1200
0000
0000
0000
0310
0000
0001
2000
0000
0000
3100
0000
,  // measure 41
0010
0000
0001
0000
0102
0000
0000
0000
0103
0000
0010
2000
0000
0000
3001
0000
,  // measure 42
0011
0000
0000
0000
1010
0000
0010
0000
1000
0000
0001
0000
0100
0001
0100
0001
,  // measure 43
2000
0000
0000
0000
3200
0000
0000
0000
0310
0001
0000
0010
0000
0012
0000
0000
,  // measure 44
1003
0000
0100
0000
0110
0000
0100
0000
1000
0000
0001
2000
0000
0000
0001
0000
,  // measure 45
3001
0000
0100
0000
0110
0000
0100
0000
0001
0000
1000
0002
0000
0000
0010
0000
,  // measure 46
0013
0000
0100
0000
1000
0010
1000
0000
0001
0000
1000
0001
0000
0100
0001
0000
,  // measure 47
1000
0000
0000
1100
0000
0000
0011
0000
0000
0100
0010
0100
0000
0200
0000
0000
,  // measure 48
0010
0000
0000
0310
0000
0000
0000
0000
0000
0000
0000
0000
0000
0000
0000
0000
;

//---------------dance-single - ----------------
#NOTES:
     dance-single:
     :
     Beginner:
     1:
     0.106008,0.140621,0.008338,0.166754,0.000000,89.000000,88.000000,1.000000,20.000000,0.000000,0.000000,0.106008,0.140621,0.008338,0.166754,0.000000,89.000000,88.000000,1.000000,20.000000,0.000000,0.000000:
// measure 0
0000
0000
0000
0000
,  // measure 1
0000
0000
0000
0000
,  // measure 2
0000
0000
0000
0000
,  // measure 3
0000
0000
0000
0000
,  // measure 4
0000
0000
0000
0000
,  // measure 5
0000
0000
0000
0000
,  // measure 6
0000
0000
0000
0000
,  // measure 7
0000
0000
0000
0000
,  // measure 8
1000
1000
0000
0001
,  // measure 9
0000
0100
0100
0100
,  // measure 10
0000
0010
0010
0010
,  // measure 11
0000
1000
0000
1000
,  // measure 12
1000
1000
0000
0001
,  // measure 13
0001
0001
0000
1000
,  // measure 14
0000
0100
0000
0010
,  // measure 15
0010
0010
0000
0010
,  // measure 16
0020
0030
0000
0010
,  // measure 17
0020
0030
0000
0001
,  // measure 18
0002
0003
0000
0001
,  // measure 19
0002
0003
0000
1000
,  // measure 20
2000
3000
0000
1000
,  // measure 21
2000
3000
0000
0100
,  // measure 22
0200
0300
0000
0100
,  // measure 23
0200
0300
0000
0000
,  // measure 24
0020
0000
0030
0000
,  // measure 25
0002
0000
0003
0000
,  // measure 26
0200
0000
0300
0000
,  // measure 27
0020
0000
0030
0000
,  // measure 28
2000
0000
3000
0000
,  // measure 29
0200
0000
0300
0000
,  // measure 30
1000
0000
0001
0000
,  // measure 31
0100
0100
0100
0000
,  // measure 32
0010
0020
0030
0000
,  // measure 33
0000
1000
2000
3000
,  // measure 34
0000
0001
0001
0000
,  // measure 35
1000
0000
0001
0001
,  // measure 36
0000
0200
0300
0000
,  // measure 37
0000
0010
0020
0030
,  // measure 38
0000
0010
0010
0000
,  // measure 39
0010
0000
0100
0100
,  // measure 40
0100
0000
0001
0001
,  // measure 41
0001
0000
1000
1000
,  // measure 42
1000
0000
0001
0001
,  // measure 43
0001
0000
1000
1000
,  // measure 44
0000
0100
0100
0100
,  // measure 45
0000
0010
0010
0010
,  // measure 46
0000
0001
0000
1000
,  // measure 47
1000
0000
0010
0000
,  // measure 48
0220
0000
0000
0330
0000
0000
0000
0000
0000
0000
0000
0000
0000
0000
0000
0000
;

//---------------dance-single - ----------------
#NOTES:
     dance-single:
     :
     Medium:
     5:
     0.281100,0.341507,0.183430,0.475250,0.066702,236.000000,214.000000,22.000000,57.000000,0.000000,0.000000,0.281100,0.341507,0.183430,0.475250,0.066702,236.000000,214.000000,22.000000,57.000000,0.000000,0.000000:
// measure 0
0000
0000
0000
0000
,  // measure 1
0000
0000
0000
0000
,  // measure 2
0000
0000
0000
0000
,  // measure 3
0000
0000
0000
0000
,  // measure 4
0000
0000
0000
0000
,  // measure 5
0000
0000
0000
0000
,  // measure 6
0000
0000
0000
0000
,  // measure 7
0000
0000
0000
0000
,  // measure 8
0001
1000
0100
0000
1000
1000
1000
0000
,  // measure 9
0010
1000
0100
0000
0010
0010
0010
0000
,  // measure 10
0001
1000
0010
0000
0100
0100
0100
0000
,  // measure 11
0001
0000
0000
0001
0000
0000
0000
0000
0000
0000
1000
0000
0000
1000
0000
0000
,  // measure 12
0100
0010
0001
0000
0100
0100
0100
0000
,  // measure 13
0001
0010
0100
0000
1000
1000
1000
0000
,  // measure 14
0010
1000
0001
0000
1000
1000
1000
0000
,  // measure 15
0100
0000
0000
0220
0000
0000
0330
0000
0000
0000
1000
0000
0000
1000
0000
0000
,  // measure 16
0020
0000
0000
2030
0000
0000
3200
0000
0000
0320
0000
0000
0032
0000
0000
0203
,  // measure 17
0000
0000
0320
0000
0000
0030
0000
0000
1010
0000
0000
0000
0101
0000
0002
0000
,  // measure 18
1000
0000
1003
0000
1100
0000
0011
0002
,  // measure 19
1000
0000
1003
0020
1000
1000
1030
0000
,  // measure 20
0002
0000
0000
0023
0000
0000
0230
0000
0000
2300
0000
0000
3020
0000
0000
0230
,  // measure 21
0000
0000
0302
0000
0000
0003
0000
0000
0101
0000
0000
0000
1001
0000
0002
0000
,  // measure 22
0100
0000
0103
0000
0110
0000
1010
2000
,  // measure 23
0100
0000
3100
0000
0010
0010
0010
0000
,  // measure 24
0002
0000
1000
0000
1003
0100
1000
0000
,  // measure 25
0020
0000
0100
0000
0130
0001
0100
0000
,  // measure 26
0002
0000
1000
0000
1003
0100
1000
0000
,  // measure 27
0020
0000
1000
0000
1030
0001
1000
0000
,  // measure 28
1200
0000
0010
0000
0310
0001
0100
0000
,  // measure 29
0201
0000
0010
0000
0310
0000
1000
0001
,  // measure 30
0020
0000
0000
0230
0000
0000
2300
0000
0000
3020
0000
0000
0230
0000
0000
0000
,  // measure 31
0001
0000
0001
0000
0001
0000
0301
0000
2002
0000
0000
0000
0000
3003
0000
0000
,  // measure 32
1000
1200
0001
0010
,  // measure 33
1300
0000
0001
0000
0100
0000
0010
0000
2000
0000
0000
3000
0001
0000
0000
0000
,  // measure 34
1000
0000
0001
0000
0100
0000
0010
0000
2000
0000
0000
3000
0001
0000
0000
0000
,  // measure 35
2000
0000
0000
3000
0001
0000
0000
0000
1000
0000
0010
0000
0100
0000
0000
0000
,  // measure 36
0120
2030
0100
0010
,  // measure 37
3001
0000
0010
0000
0100
0000
1000
0000
0002
0000
0000
0003
1000
0000
0000
0000
,  // measure 38
0001
0000
0010
0000
0100
0000
1000
0000
0002
0000
0000
0003
1000
0000
0000
0000
,  // measure 39
0002
0000
0000
0003
1000
0000
0000
0000
0010
0000
0000
0100
0000
0200
0000
0000
,  // measure 40
0301
1000
0200
0000
1300
0001
1000
0000
,  // measure 41
0010
1000
0002
0000
0013
0001
0010
0000
,  // measure 42
1100
0000
0011
0001
0100
0010
1000
0100
,  // measure 43
0020
0000
0032
0000
1003
0001
1001
0000
,  // measure 44
0110
0000
1020
0000
0130
0001
1000
0100
,  // measure 45
0010
0000
0012
0000
0103
0001
0010
0100
,  // measure 46
2000
0000
3010
0100
0002
0000
1003
0000
,  // measure 47
0200
0000
0000
0320
0000
0000
0032
0000
0000
1003
0000
0000
1001
0000
0000
0000
,  // measure 48
0220
0000
0000
0330
0000
0000
0000
0000
0000
0000
0000
0000
0000
0000
0000
0000
;

//---------------dance-single - ----------------
#NOTES:
     dance-single:
     :
     Easy:
     3:
     0.203678,0.220975,0.050026,0.383535,0.000000,171.000000,165.000000,6.000000,46.000000,0.000000,0.000000,0.203678,0.220975,0.050026,0.383535,0.000000,171.000000,165.000000,6.000000,46.000000,0.000000,0.000000:
// measure 0
0000
0000
0000
0000
,  // measure 1
0000
0000
0000
0000
,  // measure 2
0000
0000
0000
0000
,  // measure 3
0000
0000
0000
0000
,  // measure 4
0000
0000
0000
0000
,  // measure 5
0000
0000
0000
0000
,  // measure 6
0000
0000
0000
0000
,  // measure 7
0000
0000
0000
0000
,  // measure 8
0001
0000
0100
0000
0010
0010
0010
0000
,  // measure 9
1000
0000
0100
0000
0010
0010
0010
0000
,  // measure 10
0001
0000
1000
0000
0010
0010
0010
0000
,  // measure 11
0100
0000
0000
0000
0010
0010
0010
0000
,  // measure 12
1000
0000
1000
0000
0001
0001
0001
0000
,  // measure 13
0100
0000
0010
0000
1000
1000
1000
0000
,  // measure 14
0100
0000
0010
0000
0001
0001
0001
0000
,  // measure 15
1000
0000
0000
0000
0001
0001
0001
0000
,  // measure 16
2000
3020
0230
0302
,  // measure 17
2003
3200
0010
0310
,  // measure 18
0002
1000
0100
0103
,  // measure 19
2000
0000
0010
0000
0100
0100
3100
0000
,  // measure 20
2000
3020
0230
0302
,  // measure 21
0023
0230
1000
1300
,  // measure 22
2000
0010
0001
3001
,  // measure 23
0002
0000
0100
0000
1000
1000
1003
0000
,  // measure 24
0002
0000
0000
0000
1000
1000
1003
0000
,  // measure 25
0200
0000
0000
0000
0010
0010
0310
0000
,  // measure 26
0002
0000
0000
0000
0010
0010
0013
0000
,  // measure 27
0200
0000
0000
0000
1000
1000
1300
0000
,  // measure 28
2002
0000
3003
0000
0100
0100
0100
0000
,  // measure 29
0220
0000
0330
0010
,  // measure 30
2000
3200
0302
0023
,  // measure 31
2030
0000
0002
3003
,  // measure 32
0001
1002
1000
1003
,  // measure 33
0010
0100
0020
1030
,  // measure 34
0001
0010
0200
0310
,  // measure 35
0020
0130
1000
0001
,  // measure 36
0100
0120
1000
1030
,  // measure 37
0001
1000
0020
0130
,  // measure 38
0010
1000
0002
1003
,  // measure 39
2000
3001
2002
3003
,  // measure 40
1000
0002
0013
0100
,  // measure 41
1000
0020
0130
0001
,  // measure 42
1000
1000
0100
0100
,  // measure 43
0010
0000
0010
0000
0001
0001
0001
0000
,  // measure 44
1000
0002
0103
0010
,  // measure 45
1000
0002
0013
0100
,  // measure 46
0010
0010
0001
0001
,  // measure 47
1000
1000
0100
0100
,  // measure 48
0220
0000
0000
0330
0000
0000
0000
0000
0000
0000
0000
0000
0000
0000
0000
0000
;
