#TITLE:Funkytown;
#SUBTITLE:;
#ARTIST:Sweat Invaders;
#TITLETRANSLIT:;
#SUBTITLETRANSLIT:;
#ARTISTTRANSLIT:;
#CREDIT:SupremeX;
#BANNER:Funkytown-bn.png;
#BACKGROUND:Funkytown-bg.png;
#LYRICSPATH:;
#CDTITLE:cdtitle.png;
#MUSIC:Funkytown.ogg;
#OFFSET:-0.160;
#SAMPLESTART:66.440;
#SAMPLELENGTH:12.000;
#SELECTABLE:YES;
#BPMS:0.000=123.000;
#STOPS:;
#BGCHANGES:;

//---------------dance-single - ----------------
#NOTES:
     dance-single:
     :
     Hard:
     8:
     0.495,0.428,0.109,0.042,0.147: // measure 1
0000
0000
0000
0000
,  // measure 2
0000
0000
0000
0000
,  // measure 3
1000
0100
0010
0001
0000
0101
0000
0010
,  // measure 4
1000
0001
1000
0010
0000
0000
0000
0000
,  // measure 5
1000
0100
0010
0001
0000
0101
0000
0010
,  // measure 6
1000
0001
1000
0010
0000
0000
1001
0000
,  // measure 7
0100
0010
0100
0010
1000
0001
1000
0001
,  // measure 8
1000
0100
1000
0100
0000
0010
0020
0030
,  // measure 9
1000
1000
0001
0100
0000
0110
0000
0001
,  // measure 10
0010
0100
1000
1000
0000
0000
0000
0000
,  // measure 11
0010
0100
0010
0100
0001
1000
0001
1000
,  // measure 12
0001
0100
0001
0100
0100
0010
0010
0000
,  // measure 13
1000
0100
0010
0002
0000
0103
0000
0010
,  // measure 14
1000
0001
1000
0010
0000
0200
0000
0300
,  // measure 15
0001
0100
0001
0100
0010
1000
0010
1000
,  // measure 16
0010
0100
0010
0100
0001
1000
0001
1000
,  // measure 17
0010
0010
0100
0100
0000
0110
0000
0001
,  // measure 18
1000
0100
0010
0001
0000
0000
0000
1000
,  // measure 19
0000
0100
0100
0000
0010
0001
0001
0000
,  // measure 20
0010
0001
0010
0000
0100
0000
1000
1000
,  // measure 21
0100
1000
0100
1000
0000
0110
0000
0010
,  // measure 22
0001
0010
0001
0001
0000
0000
0000
0000
,  // measure 23
1000
0010
0100
0001
0000
1100
0000
0001
,  // measure 24
1000
0010
0100
0001
0000
1000
1000
0000
,  // measure 25
0010
0100
0001
1000
0000
0101
0000
0010
,  // measure 26
1000
0001
0100
0001
1000
0010
0010
0000
,  // measure 27
0100
0010
0100
0010
0000
1010
0000
0001
,  // measure 28
1000
0100
0010
0001
0010
0100
0100
0000
,  // measure 29
0010
1000
0010
1000
0001
0100
0001
0100
,  // measure 30
0001
1000
0001
1000
0010
0100
0010
0100
,  // measure 31
0100
0000
0001
1000
1000
0000
0101
0000
,  // measure 32
0010
1000
0010
1000
0001
0000
1001
0000
,  // measure 33
0100
0000
0010
0100
0010
0100
0100
0001
,  // measure 34
0010
0010
0100
1000
0010
0100
0100
0000
,  // measure 35
0010
0000
0000
1000
0100
0000
1000
0000
0100
0000
0010
0000
0001
0000
0010
0000
,  // measure 36
0001
0000
0000
1000
0010
0000
1000
0000
0010
0000
0100
0000
0010
0000
1000
0000
,  // measure 37
0001
0000
0000
0100
0001
0000
0100
0000
0010
0000
1000
0000
0001
0000
0100
0000
,  // measure 38
0010
0000
0000
1000
0010
0000
1000
0000
0001
0000
0100
0000
0001
0000
0100
0000
,  // measure 39
0010
0000
0000
0100
0010
0000
0100
0000
0010
0000
1000
0000
0001
0000
0100
0000
,  // measure 40
0001
0000
0000
1000
0100
0000
1000
0000
0100
0000
0010
0000
0001
0000
0010
0000
,  // measure 41
0001
0000
0000
0010
0100
0000
0010
0000
0100
0000
1000
0000
0100
0000
1000
0000
,  // measure 42
0010
0000
0000
0100
0010
0000
0100
0000
0010
0000
1000
0000
0001
0000
1000
0000
,  // measure 43
0001
0000
0000
0100
0010
0000
0100
0000
0100
0000
0010
0000
0010
0000
1000
0000
,  // measure 44
0001
0000
0000
1000
0100
0000
1000
0000
1000
0000
0100
0000
0100
0000
0000
0000
,  // measure 45
0010
0000
0000
0010
0001
0000
0010
0000
0010
0000
0100
0000
0100
0000
0010
0000
,  // measure 46
1000
0000
0000
0100
1000
0000
0100
0000
0010
0000
0001
0000
0001
0000
0000
0000
,  // measure 47
0010
0000
0000
0001
0010
0000
0001
0000
0010
0000
0100
0000
1000
0000
1000
0000
,  // measure 48
0010
0000
0000
0100
0001
0000
0100
0000
0010
0000
0100
0000
0100
0000
0000
0000
,  // measure 49
0001
0000
0000
0010
0100
0000
0010
0000
0100
0000
1000
0000
0001
0000
0100
0000
,  // measure 50
0001
0000
0000
1000
0100
0000
1000
0000
0100
0000
0010
0000
0001
0000
0000
0000
,  // measure 51
0010
0001
0000
0010
0000
0100
0000
1000
0100
0000
0000
0000
0010
0000
0001
0000
,  // measure 52
0010
0001
0010
0100
2000
0000
3100
0000
,  // measure 53
1000
0100
0000
1000
0000
0100
0000
1000
0100
0000
0000
0000
0010
0000
0001
0000
,  // measure 54
0010
0000
0100
0000
0010
0000
0001
0000
0010
0000
0000
0110
0000
0000
0000
0000
,  // measure 55
1000
0100
0000
0010
0000
0001
0000
1000
0001
0000
0000
0000
1000
0000
0010
0000
,  // measure 56
1000
0001
0010
0100
1000
0000
0110
0000
,  // measure 57
0001
0010
0000
0001
0000
0010
0000
0001
0010
0000
0000
0000
0100
0000
1000
0000
,  // measure 58
0100
0010
0100
1000
0200
0000
1300
0000
,  // measure 59
0100
0000
0000
0010
0100
0000
0010
0000
0100
0000
0001
0000
1000
0000
0001
0000
,  // measure 60
0100
0000
0000
0010
0100
0000
0010
0000
1000
0000
0001
0000
0100
0000
0001
0000
,  // measure 61
1000
0000
0000
0000
;

//---------------dance-single - ----------------
#NOTES:
     dance-single:
     :
     Medium:
     5:
     0.295,0.328,0.059,0.000,0.000:
0000
0000
0000
0000
,
0000
0000
0000
0000
,
1000
0000
0010
0100
0000
0001
0000
0000
,
1000
0000
0010
0010
0000
0000
0000
0000
,
0100
0000
0001
1000
0000
0010
0000
0000
,
0100
0000
0001
0001
0000
0000
0000
0000
,
1000
1000
0010
0010
,
0100
0100
0001
0001
,
1000
0000
0010
0100
0000
0001
0000
0000
,
1000
0000
0010
0100
0000
0000
0000
0000
,
0001
0001
0010
0010
,
0100
0100
1000
1000
,
0001
0000
0100
0010
0000
1000
0000
0001
,
0010
0000
0100
1000
0000
0000
0000
0000
,
0010
0010
0100
0100
,
0001
0001
1000
1000
,
0010
0000
0100
0001
0000
1000
0000
0000
,
0010
0000
0100
0100
0000
0000
0000
0000
,
0001
0001
0100
0100
,
0010
0010
1000
1000
,
0001
0000
0100
0010
0000
1000
0000
0000
,
0001
0000
0100
0100
0000
0000
0000
0000
,
0010
1000
0010
1000
0000
0000
0001
0000
,
0100
0000
0010
0010
0000
0000
0000
0000
,
1000
0001
1000
0001
0000
0100
0000
0000
,
0010
0000
1000
1000
0000
0000
0000
0000
,
0001
0100
0001
0100
0000
0010
0000
0000
,
1000
0000
0010
0010
0000
0000
0000
0000
,
1000
1001
0001
1001
,
1000
1001
0001
1001
,
0010
0000
0100
0100
0100
0000
0010
0000
,
1000
0000
0001
0001
0001
0000
0100
0000
,
0010
0000
1000
1000
1000
0000
0001
0000
,
0100
0000
0010
0010
0010
0000
1000
0000
,
0001
0001
0100
0100
,
0010
1000
0010
1000
,
0001
0001
0100
0100
,
0010
1000
0010
1000
,
0001
0001
0100
0100
,
0010
1000
0010
1000
,
0001
0001
0100
0100
,
0010
1000
0010
1000
,
0100
0100
0010
0010
,
0001
0001
1000
1000
,
0010
0100
0010
0100
,
0001
0000
0001
0000
1000
1000
1000
0000
,
0010
0100
0001
0001
,
1000
0000
0010
0000
0100
0100
0100
0000
,
0010
1000
0001
0001
,
0100
0000
0010
0000
1000
1000
1000
0000
,
0001
0100
0001
0100
0001
0000
1000
0000
,
1000
1000
1000
0000
,
0010
0000
0100
0010
0100
0000
0001
0000
,
0001
0001
1000
0010
,
1000
0100
1000
0010
,
0100
0100
0001
0001
,
1000
0000
0001
0100
0001
0000
1000
0000
,
0010
1000
0001
0100
,
0010
1010
0001
0001
,
0100
0101
1000
1000
,
0010
0110
0000
0000
;

//---------------dance-single - ----------------
#NOTES:
     dance-single:
     :
     Easy:
     3:
     0.223,0.252,0.042,0.034,0.000:
0000
0000
0000
0000
,
0000
0000
0000
0000
,
1000
0100
0010
0001
,
1000
1000
0000
0000
,
0001
0010
0100
1000
,
0001
0001
0000
0000
,
1000
0000
0010
0000
,
0100
0000
0001
0000
,
1000
0100
0010
0001
,
1000
1000
0000
0000
,
0001
0000
0100
0000
,
0010
0000
1000
0000
,
0001
0010
0100
1000
,
0001
0001
0000
0000
,
1000
1000
0100
0100
,
0010
0010
0001
0001
,
1000
0010
0100
0001
,
1000
0001
0000
0000
,
1000
1000
0010
0010
,
0100
0100
0001
0001
,
1000
0010
0100
0001
,
1000
0001
0000
0000
,
1000
0000
0010
0010
0000
0000
0000
0000
,
0000
0000
0000
0000
,
0100
0000
0001
0001
0000
0000
0000
0000
,
0000
0000
0000
0000
,
1000
0000
0010
0010
0000
0000
0000
0000
,
0000
0000
0000
0000
,
0100
0100
0001
0001
,
1000
1000
0010
0010
,
1001
0000
0100
0100
,
1001
0000
0010
0010
,
1001
0000
0100
0100
,
1001
0000
0010
0010
,
1001
1000
1000
1000
,
0010
0010
0010
0010
,
0100
0100
0100
0100
,
0001
0001
0001
0001
,
1000
1000
1000
1000
,
0010
0010
0010
0010
,
0100
0100
0100
0100
,
0001
0001
0001
0001
,
1000
0010
0100
0100
,
0000
0000
0001
0001
,
0000
0000
1000
1000
,
0000
0000
0010
0010
,
0100
0001
0100
0100
,
0010
1000
0010
0010
,
0100
0001
0100
0100
,
0010
1000
0001
0001
,
0200
0000
0300
0010
,
1000
0010
1000
0000
,
0002
0000
0003
0100
,
0010
0100
0100
0000
,
0020
0000
0000
0030
0000
0000
1000
0000
,
0001
1000
0001
0000
,
2000
0000
3000
0010
,
0100
0010
0100
0100
,
0001
0001
1000
0001
,
1000
1000
0010
0100
,
0001
0000
0000
0000
;

//---------------dance-single - Copied from----------------
#NOTES:
     dance-single:
     Copied from:
     Beginner:
     1:
     0.077,0.124,0.000,0.034,0.000:
0000
0000
0000
0000
,
0000
0000
0000
0000
,
0010
0000
0000
0000
,
0100
0000
0000
0000
,
0010
0000
0000
0000
,
0100
0000
0000
0000
,
0001
0000
0000
0000
,
0001
0000
0000
0000
,
1000
0000
0000
0000
,
0010
0000
0000
0000
,
1000
0000
0000
0000
,
1000
0000
0000
0000
,
0001
0000
0000
0000
,
0100
0000
0000
0000
,
0010
0000
0010
0000
,
0010
0000
0010
0000
,
1000
0000
0000
0000
,
0001
0000
0000
0000
,
0100
0000
0100
0000
,
0100
0000
0100
0000
,
0010
0000
0000
0000
,
1000
0000
0000
0000
,
0001
0000
0000
0000
,
0100
0000
0000
0000
,
0001
0000
0000
0000
,
0100
0000
0000
0000
,
0001
0000
0000
0000
,
0100
0000
0000
0000
,
0010
0000
0010
0000
,
1000
0000
1000
0000
,
0001
0000
0000
0000
,
1000
0000
0000
0000
,
0001
0000
0000
0000
,
1000
0000
0000
0000
,
0010
0000
0000
0000
,
0100
0000
0000
0000
,
0010
0000
0000
0000
,
0100
0000
0000
0000
,
0010
0000
0000
0000
,
0100
0000
0000
0000
,
0010
0000
0000
0000
,
0100
0000
0000
0000
,
0001
0000
0000
0000
,
1000
0000
0000
0000
,
0001
0000
0000
0000
,
1000
0000
0000
0000
,
0010
0000
0000
0000
,
0100
0000
0000
0000
,
0010
0000
0000
0000
,
0100
0000
0000
0000
,
0002
0000
0003
0000
,
0000
0000
0000
0000
,
2000
0000
0000
3000
0000
0000
0000
0000
,
0000
0000
0000
0000
,
0020
0000
0000
0030
0000
0000
0000
0000
,
0000
0000
0000
0000
,
0200
0000
0000
0300
0000
0000
0000
0000
,
0000
0000
0000
0000
,
0001
0000
0000
0000
,
1000
0000
0000
0000
;
