#TITLE:Flying soda;
#SUBTITLE:;
#ARTIST:猫叉Master feat. 林ももこ;
#TITLETRANSLIT:;
#SUBTITLETRANSLIT:;
#ARTISTTRANSLIT:Nekomata Master feat. MOMOKO HAYASHI;
#GENRE:15;
#CREDIT:Vonafroa;
#BANNER:[Timing Window] - Flying soda.png;
#BACKGROUND:[Timing Window] - Flying soda-bg.png;
#LYRICSPATH:;
#CDTITLE:;
#MUSIC:[Timing Window] - Flying soda.ogg;
#OFFSET:0.548000;
#SAMPLESTART:18.414265;
#SAMPLELENGTH:13.867924;
#SELECTABLE:YES;
#BPMS:0.000000=106.000000
;
#STOPS:
;
#BGCHANGES:;
#KEYSOUNDS:;
#ATTACKS:;

//---------------dance-single - ----------------
#NOTES:
     dance-single:
     :
     Hard:
     9:
     0.619757,0.609433,0.155867,0.000000,0.757687,501.000000,483.000000,18.000000,0.000000,0.000000,0.000000,0.619757,0.609433,0.155867,0.000000,0.757687,501.000000,483.000000,18.000000,0.000000,0.000000,0.000000:
// measure 0
0000
0000
0000
0000
,  // measure 1
0000
0000
0000
0000
,  // measure 2
0000
0000
0000
0000
0000
0000
0000
0000
1000
0000
0100
0010
0001
0000
0001
0010
,  // measure 3
0100
0000
0100
0010
0001
0000
1001
0000
0001
0000
1000
0100
0010
0000
0010
0100
,  // measure 4
1001
0000
0000
0000
1001
0000
0000
0100
0001
1000
0000
0000
0100
0000
0010
0000
,  // measure 5
0001
0000
0000
0000
0000
0000
0001
0000
0000
0000
0000
0000
0000
0100
0000
1000
0000
0000
0100
0000
0000
0001
0000
0000
0000
0000
0000
1000
0000
0000
0000
0000
0000
0000
0000
0000
0010
0000
0000
0000
0000
0000
0100
0000
0000
0000
0000
0000
,  // measure 6
0001
0000
0000
0000
0000
0000
0001
0000
0000
0000
0000
0000
0000
0100
0000
1000
0000
0000
0010
0000
0000
0001
0000
0000
0000
0000
0000
1000
0000
0000
0000
0000
0000
0000
0000
0000
0001
0000
0000
0000
0000
0000
0010
0000
0000
0000
0000
0000
,  // measure 7
0100
0000
0000
0000
0000
0000
0100
0000
0000
0000
0000
0000
0000
0010
0000
1000
0000
0000
0100
0000
0000
0001
0000
0000
0000
0000
0000
1000
0000
0000
0000
0000
0000
0000
0000
0000
0010
0000
0000
0000
0000
0000
0100
0000
0000
0001
0000
0000
,  // measure 8
0000
0000
0000
0000
1000
0000
1000
0000
1001
0000
0010
0100
0010
0000
0100
0000
,  // measure 9
1000
0000
0010
0100
0010
0000
0100
0010
1000
0000
1000
0100
0000
0010
0000
0100
,  // measure 10
0000
0001
0010
0100
1000
0000
0010
0000
0100
0000
1000
0000
1000
0000
0010
0000
,  // measure 11
0100
0000
0001
0000
0001
0000
1000
0100
1000
0000
0010
0100
0000
0100
0010
0000
,  // measure 12
0000
0010
0100
0010
0100
0000
0100
0000
1001
0000
0100
0010
0100
0000
0010
0000
,  // measure 13
1000
0000
0100
0010
0100
0000
0010
0100
1000
0000
1000
0010
0000
0100
0000
0010
,  // measure 14
0000
0001
0100
0010
1000
0000
0100
0000
0010
0000
1000
0000
1000
0000
0100
0000
,  // measure 15
0010
0000
0001
0000
0001
0000
1000
0010
1000
0000
0100
0010
0000
0010
0100
0000
,  // measure 16
0000
0100
0010
0100
0010
0000
0010
0000
1001
0000
0000
0000
0100
0000
0100
0000
,  // measure 17
0100
0000
0000
0000
0001
1000
0100
0010
0001
0000
0000
0000
1000
0000
0100
0000
,  // measure 18
1000
0000
0001
1000
0000
0010
0100
1000
0001
0000
0000
0010
0100
0000
0100
0000
,  // measure 19
0100
0000
0100
0010
0000
0001
0010
0100
1000
0000
0000
0000
0100
0000
0000
0000
,  // measure 20
0100
0000
1000
0001
0000
0100
0010
0001
1000
0000
0000
0000
0001
0010
0100
1000
,  // measure 21
0000
0000
0000
0000
0001
0000
0100
0000
0001
0000
0000
0000
1000
0100
0010
0001
,  // measure 22
0000
0000
0000
0100
1000
0000
0100
0000
1100
0000
1100
0000
0001
0010
0100
1000
,  // measure 23
0000
0000
0000
0010
0001
0000
0100
0000
0101
0000
0101
0000
1000
0010
0100
0001
,  // measure 24
0000
0000
0110
0000
1001
0000
0000
0010
0001
0000
0010
0000
0100
0000
0100
0000
,  // measure 25
0010
0000
0001
0000
0000
0100
0010
0010
0000
0100
0000
0000
0001
0000
0010
0000
,  // measure 26
0100
0000
0000
0000
1000
0100
0000
0001
0010
0000
0000
0000
0100
0000
0000
0000
0001
1000
0000
0100
0010
0000
0000
0000
0100
0000
0000
0000
0000
0000
0000
0000
0000
1000
0000
0000
0100
0000
0000
0000
0000
0000
0001
0000
0000
0100
0000
0000
,  // measure 27
0010
0000
1000
0010
0001
0000
0100
0001
1000
0000
0010
1000
0001
0000
1000
0001
,  // measure 28
0100
0000
0001
0100
0010
0000
0100
0010
1000
0000
0010
1000
0001
0000
0100
0001
,  // measure 29
1000
0000
0010
1000
0100
0000
0001
0100
0010
0000
1000
0010
0001
0000
0100
0010
,  // measure 30
1001
0000
0000
0000
1001
0000
1000
0000
0001
0000
0000
0001
0100
0000
1000
0100
,  // measure 31
0010
0000
0001
0010
1000
0000
0100
1000
0001
0000
0010
0001
1000
0000
0010
1000
,  // measure 32
0100
0000
0001
0100
0010
0000
1000
0010
0001
0000
0100
0001
1000
0000
0010
1000
,  // measure 33
0001
0000
0010
0001
0100
0000
1000
0100
0010
0000
1000
0100
0000
0000
1000
0100
,  // measure 34
0000
0000
0000
0000
1000
0000
1000
0000
0001
0000
0000
0100
1000
0000
1000
0001
,  // measure 35
0100
0000
0100
0001
0100
0000
0100
0001
1000
0000
1000
0010
1000
0000
1000
0100
,  // measure 36
0010
0000
0010
0001
0010
0000
0010
0100
1000
0000
1000
0001
1000
0000
1000
0001
,  // measure 37
0010
0000
0010
0001
0010
0000
0010
0001
1000
0000
1000
0010
1000
0000
1000
0100
,  // measure 38
1001
0000
0000
0000
1001
0000
0001
0000
1000
0000
0000
0100
0001
0000
0001
0010
,  // measure 39
0100
0000
0100
1000
0100
0000
0100
0010
0001
0000
0001
1000
0001
0000
0001
1000
,  // measure 40
0010
0000
0010
1000
0010
0000
0010
1000
0001
0000
0001
1000
0100
0000
0100
0010
,  // measure 41
0100
0000
0100
1000
0001
0000
0001
0100
0010
0100
0000
1001
0000
0000
1000
0010
,  // measure 42
1000
0000
1000
0100
0010
0100
0001
0100
1001
0000
0000
1000
0100
0000
0001
1000
,  // measure 43
0100
0000
0001
1000
0100
0000
0001
0010
0001
0000
0000
0010
0001
0000
0001
0010
,  // measure 44
0001
0000
0000
0000
0000
0000
1000
0000
0000
0100
0000
0000
0010
0000
0000
0001
0000
0000
1000
0000
0010
0000
0100
0000
1000
0000
0000
0000
0000
0000
0000
0000
0000
0010
0000
0000
1000
0000
0000
0000
0000
0000
0100
0000
0000
0010
0000
0000
,  // measure 45
1000
0000
0100
0010
1000
0000
0010
0001
0100
0000
0000
0001
0100
0000
0010
0001
,  // measure 46
0100
0000
0000
0000
0000
0000
0010
0000
0100
0000
0010
0000
0100
0000
0000
0000
0000
0000
0001
0000
1000
0000
0001
0000
1000
0000
0000
1000
0000
0000
0000
0000
0000
0000
0000
0000
0100
0000
0000
0000
0000
0000
0010
0000
0000
0000
0000
0000
,  // measure 47
0001
0000
0000
0000
0000
0000
0001
0000
0000
0000
0000
0000
0000
0100
0000
1000
0000
0000
0100
0000
0000
0001
0000
0000
0000
0000
0000
1000
0000
0000
0000
0000
0000
0000
0000
0000
0010
0000
0000
0000
0000
0000
0100
0000
0000
0000
0000
0000
,  // measure 48
0001
0000
0000
0000
0000
0000
0001
0000
0000
0000
0000
0000
0000
0100
0000
1000
0000
0000
0010
0000
0000
0001
0000
0000
0000
0000
0000
1000
0000
0000
0000
0000
0000
0000
0000
0000
0001
0000
0000
0000
0000
0000
0010
0000
0000
0000
0000
0000
,  // measure 49
0100
0000
0000
0000
0000
0000
0100
0000
0000
0000
0000
0000
0000
0010
0000
1000
0000
0000
0100
0000
0000
0001
0000
0000
0000
0000
0000
1000
0000
0000
0000
0000
0000
0000
0000
0000
0010
0000
0000
0000
0000
0000
0100
0000
0000
0001
0000
0000
,  // measure 50
0000
0000
0000
0000
0000
0000
0000
0000
0000
0000
0000
0000
1000
0100
0000
0000
0000
0000
0000
0000
0000
0000
0000
0000
0000
0000
0000
0000
0000
0000
0000
0000
0000
0000
0000
0000
0000
0000
0000
0000
0000
0000
0000
0000
0000
0000
0000
0000
;
