#TITLE:Dance Little Lady Dance;
#SUBTITLE:;
#ARTIST:Tina Charles;
#TITLETRANSLIT:;
#SUBTITLETRANSLIT:;
#ARTISTTRANSLIT:;
#CREDIT:;
#BANNER:Dance Little Lady Dance.png;
#BACKGROUND:Dance Little Lady Dance-bg.png;
#LYRICSPATH:;
#CDTITLE:;
#MUSIC:Dance Little Lady Dance (12 Version).ogg;
#OFFSET:-0.300;
#SAMPLESTART:46.960;
#SAMPLELENGTH:12.000;
#SELECTABLE:YES;
#BPMS:0.000=99.324,1.000=115.581,2.000=103.359,3.000=107.864,4.000=103.230,5.000=105.146,6.000=106.706,7.000=101.883,8.000=104.284,9.000=106.862,10.000=107.343,11.000=108.172,12.000=102.048,13.000=115.531,14.000=97.729,15.000=109.493,16.000=102.044,17.000=106.419,18.000=105.929,19.000=104.946,20.000=101.906,21.000=109.565,22.000=102.678,23.000=105.836,24.000=103.838,25.000=104.655,26.000=104.165,27.000=110.767,28.000=104.746,29.000=108.035,30.000=105.334,31.000=102.857,32.000=103.850,33.000=101.910,34.000=108.115,35.000=110.236,36.000=103.850,37.000=107.640,38.000=108.683,39.000=103.065,40.000=104.507,41.000=109.697,42.000=102.032,43.000=107.723,44.000=105.456,45.000=107.692,46.000=105.549,47.000=103.501,48.000=103.001,49.000=110.976,50.000=104.231,51.000=104.626,52.000=102.885,53.000=107.191,54.000=104.301,55.000=105.942,56.000=104.867,57.000=106.913,58.000=103.448,59.000=106.706,60.000=106.039,61.000=106.035,62.000=104.087,63.000=106.475,64.000=102.793,65.000=107.806,66.000=102.618,67.000=106.939,68.000=104.535,69.000=105.498,70.000=103.643,71.000=103.464,72.000=110.190,73.000=108.572,74.000=104.009,75.000=103.102,76.000=110.693,77.000=105.067,78.000=101.259,79.000=109.402,80.000=105.929,81.000=103.230,82.000=99.168,83.000=101.859,84.000=111.679,85.000=105.146,86.000=104.589,87.000=108.741,88.000=101.683,89.000=110.103,90.000=102.869,91.000=107.330,92.000=103.464,93.000=120.464,94.000=99.433,95.000=106.389,96.000=102.289,97.000=107.890,98.000=104.165,99.000=107.978,100.000=98.695,101.000=103.102,102.000=108.088,103.000=107.134,104.000=105.959,105.000=109.897,106.000=102.032,107.000=106.500,108.000=104.511,109.000=106.500,110.000=102.210,111.000=107.026,112.000=113.082,113.000=94.285,114.000=110.195,115.000=105.305,116.000=104.697,117.000=109.231,118.000=106.582,119.000=106.308,120.000=102.618,121.000=109.113,122.000=103.049,123.000=108.831,124.000=103.566,125.000=106.308,126.000=104.091,127.000=106.939,128.000=106.419,129.000=103.907,130.000=102.538,131.000=103.981,132.000=104.963,133.000=112.467,134.000=104.432,135.000=102.793,136.000=110.781,137.000=105.146,138.000=102.797,139.000=109.692,140.000=103.566,141.000=105.684,142.000=103.206,143.000=107.609,144.000=101.859,145.000=107.330,146.000=106.775,147.000=103.206,148.000=105.494,149.000=107.134,150.000=104.432,151.000=101.679,152.000=111.891,153.000=106.231,154.000=106.035,155.000=101.683,156.000=109.897,157.000=105.067,158.000=99.239,159.000=107.780,160.000=112.807,161.000=105.764,162.000=98.229,163.000=105.603,164.000=112.773,165.000=109.407,166.000=98.931,167.000=103.566,168.000=105.418,169.000=109.488,170.000=101.531,171.000=99.985,172.000=111.261,173.000=106.944,174.000=104.453,175.000=109.086,176.000=101.360,177.000=108.004,178.000=111.768,179.000=97.993,180.000=109.118,181.000=102.614,182.000=110.962,183.000=99.406,184.000=108.656,185.000=105.334,186.000=102.769,187.000=110.103,188.000=103.307,189.000=111.981,190.000=97.696,191.000=120.673,192.000=89.838,193.000=104.169,194.000=117.689,195.000=104.693,196.000=105.334,197.000=106.500,198.000=104.432,199.000=108.997,200.000=103.830,201.000=104.879,202.000=108.057,203.000=105.603,204.000=105.067,205.000=105.309,206.000=106.227;
#STOPS:;
#BGCHANGES:;

//---------------dance-single - ----------------
#NOTES:
     dance-single:
     :
     Hard:
     7:
     0.534,0.520,0.317,0.025,0.496:
0000
0000
0000
0000
,
0000
0000
0000
0000
,
0000
0000
0000
0000
,
0000
0000
0000
0000
,
1000
0000
0000
0100
0000
0000
0010
0000
0001
0000
0000
0001
0100
0000
0010
0000
,
1000
0001
0000
0000
1001
0000
0000
0000
0001
0000
0000
0100
0010
0000
1000
0000
,
0100
0000
0000
0010
0000
0000
0001
0000
0100
0000
0000
0010
1000
0000
0001
0000
,
1000
0100
0000
0000
0110
0000
0000
0000
0001
0000
0001
0000
1000
0000
1000
0000
,
0100
0000
0100
0000
0010
0001
0000
0000
0011
0000
0001
0000
0100
0000
0010
0000
,
1000
0000
0100
1000
0000
0100
0000
0000
0010
0000
0000
0010
0001
0000
0010
0000
,
0100
1000
0000
0100
0010
0000
0010
0100
1000
0100
0000
0100
0010
0000
0001
0000
,
0100
0001
0000
0100
0010
0000
0100
0000
0110
0000
0000
0010
1000
0000
0100
0000
,
0010
0001
0000
1000
0001
0000
0001
0000
0100
0000
0010
0000
1000
0000
0010
0000
,
0100
0000
0001
0010
0000
0100
0000
0000
1100
0000
0000
0100
1000
0000
0010
0000
,
0100
0010
0000
1000
0001
0000
0001
0010
0001
1000
0000
1000
0100
0000
1000
0000
,
0010
1000
0000
0010
0100
0000
0010
0000
0110
0000
0000
0100
0001
0000
0010
0000
,
0100
1000
0000
0100
0010
0001
1000
0010
0100
0000
0001
0000
0100
0010
0000
0010
,
0000
1000
0100
0010
0000
0000
0001
0000
0000
0000
0001
0000
0010
0100
0000
1000
,
0000
0100
0010
0000
0001
0000
0100
0000
0010
0000
1000
0000
0100
0010
0000
0100
,
0000
1000
0100
0000
0010
0000
0001
0000
0100
0000
0010
0000
1000
0000
0100
1000
,
0000
0000
1000
0001
0100
0000
0001
0000
0101
0000
0100
0000
0001
0000
0100
0000
,
1000
0100
0001
0000
0101
0001
0010
0100
,
1000
0000
0100
1000
0000
0001
0000
0000
1001
0000
1000
0000
0100
0000
0010
0000
,
0001
1000
0100
0000
1001
1000
0100
0010
,
0100
0000
1000
0010
0000
0100
0000
0001
0010
0000
0100
0000
1000
0000
0100
0000
,
0010
0000
0001
0000
1000
0000
0020
0000
0001
0000
0000
0100
0000
0000
1000
0000
,
0000
0100
0000
0000
0031
0010
0000
0000
0110
0000
0010
0000
1000
0000
0100
0000
,
0110
0010
0001
0100
0110
0010
1000
0100
,
0010
0001
0000
0100
0010
0000
0100
0000
0110
0000
0010
0000
1000
0000
0100
0000
,
0010
0000
0100
1000
0000
0010
0000
0000
0110
0000
0000
0100
0001
0000
0010
0000
,
0100
1000
0000
1000
0001
0000
0001
0100
0001
0010
0000
0010
0100
0000
1000
0000
,
0010
0100
0000
0100
0001
0010
0100
0000
0110
0000
0000
0100
1000
0000
0100
0000
,
0010
0001
0000
0100
0010
0000
1000
0000
1100
0000
0100
0000
0001
0000
0100
0000
,
1000
0000
0100
0010
0000
0001
0000
0000
0101
0000
0000
0100
0001
0000
0010
0000
,
0001
1000
0000
0100
1000
0000
1000
0100
1000
0010
0000
0010
0100
0000
0001
0000
,
0010
0001
0000
0001
1000
0000
0001
0000
0101
0000
0000
0100
0010
0000
0100
0000
,
0001
0100
0000
0010
1000
0010
0100
0000
0110
0000
0010
0000
1000
0100
0000
0010
,
0000
0001
0100
0000
0010
0000
0100
0000
0000
0000
0101
0000
0001
0010
0000
0100
,
0000
1000
0100
0000
0010
0000
0001
0000
1001
0000
0001
0000
0100
0010
0000
1000
,
0000
0010
0100
0000
0001
0000
0000
0000
0101
0000
0001
0000
0010
0000
0100
1000
,
0000
0000
0100
0010
0001
0000
0100
0000
0101
0000
0100
0000
1000
0000
0100
0000
,
0001
0100
1000
0000
1100
0100
0001
0010
,
1000
0000
0010
0100
0000
1000
0000
0000
1001
0000
0001
0000
1000
0000
0010
0000
,
0100
0001
0010
0000
0011
0001
0100
0010
,
1000
0000
0100
0010
0000
0001
0000
0100
0010
0000
1000
0000
0010
0000
0001
0000
,
0010
0000
1000
0000
0100
0000
0010
0000
0002
0000
0000
0100
0000
0000
1000
0000
,
0000
0010
0003
0010
0001
1000
0000
0000
1001
0000
1000
0000
0100
0000
0010
0000
,
1001
0000
0001
0000
0100
0000
0010
0000
1001
0000
1000
0010
0100
0001
1000
0001
,
1001
0000
0000
0011
0000
0000
1100
0000
0110
0000
0000
0010
0001
0000
0100
0000
,
0010
0100
0000
0010
0100
0000
0000
0000
0101
0000
0000
0001
0100
0000
0010
0000
,
1000
0000
0000
0110
0000
0000
0001
0000
0011
0000
0000
0001
0100
0000
0010
0000
,
0100
0010
0000
0100
0010
0000
1000
0000
1100
0000
0000
1000
0100
0000
0020
0000
,
0030
0000
0000
0000
;

//---------------dance-single - ----------------
#NOTES:
     dance-single:
     :
     Medium:
     6:
     0.398,0.368,0.242,0.117,0.033:
0000
0000
0000
0000
,
0000
0000
0000
0000
,
0000
0000
0000
0000
,
0000
0000
0000
0000
,
1000
0000
0100
0000
0010
0000
0001
0100
,
0001
0000
0001
0000
1000
0000
1000
0100
,
1000
0000
1000
0000
0001
0000
0100
0010
,
1000
0000
1000
0000
1000
0001
1000
0001
,
0100
0010
0110
0000
1000
0100
0001
0100
,
1000
0100
0001
0100
1000
0000
0001
0000
,
0100
0000
0010
1000
1010
0000
1000
0000
,
0100
0000
0010
1000
0010
0000
0001
0000
,
0100
0000
1000
0100
0001
0010
1000
0010
,
0001
0010
1000
0010
0001
0000
0100
0000
,
0010
0000
1000
0001
0011
0000
0010
0000
,
0100
0000
1000
0001
0101
0000
0100
0100
,
0010
0010
1000
0001
1000
0100
1000
0001
,
1000
0010
1000
0001
0000
0101
0001
2000
,
0000
3000
0100
0010
0001
0100
0001
0010
,
0100
0000
1000
0000
0010
0000
0100
0000
0001
0000
1000
0000
0001
0000
0010
0100
,
0000
1000
0010
0100
1001
0000
0001
0010
,
2000
0000
3010
0000
1001
0000
0001
1000
,
0001
1000
0001
0000
1001
0000
1000
0010
,
0002
0000
0013
0000
1001
0000
1000
0001
,
1000
0001
1000
0100
0010
0100
0010
0100
,
1000
0010
1000
0010
0100
0001
0100
0001
,
1000
0000
0000
0000
0100
0010
0000
0000
0012
0000
0000
0000
0103
0000
0000
0000
,
2010
3100
0012
1003
,
2010
0000
3001
0000
0001
0010
0001
0100
,
0001
0010
1000
0010
0001
0000
0100
0010
,
1000
0000
1000
0100
0010
0000
0010
0001
,
0100
0000
1000
0100
0010
0000
0010
1000
,
0001
0000
0001
0100
0010
0010
1000
0100
,
0001
0100
1000
0010
1000
0000
0100
0010
,
0001
0000
0001
0100
1100
0000
1000
0100
,
0010
0000
0010
1000
0100
0000
0100
0001
,
0100
1000
0010
0001
0010
1000
0100
0010
,
1000
0010
0001
0100
0000
0110
1000
2002
,
0000
3003
0000
1000
0010
0100
1000
0100
,
0001
0000
0001
0000
0000
0000
0000
0000
0001
0000
0010
0000
0100
0000
0001
0100
,
0000
1000
0100
0010
1001
0000
0001
0100
,
1000
0100
0001
0000
1001
1000
0010
0100
,
1000
0100
0001
0000
1001
0000
0001
0010
,
0100
0001
0100
0000
1100
1000
0010
0100
,
1000
0100
0001
0001
0010
0001
0100
0001
,
0010
0100
0000
2200
0000
0000
0000
3300
,
0000
0000
0000
0000
1000
0100
0000
0000
0120
0000
0000
0000
0031
0000
0000
0000
,
0012
0103
1200
0301
,
1001
0000
0000
0001
0000
0000
0100
0000
0010
0000
0000
0000
1000
0000
0100
0000
,
0010
0000
0110
0000
1001
0000
0001
0100
,
0010
0000
0000
0100
0000
0000
0001
0000
1000
0000
0000
0000
0100
0000
0010
0000
,
0001
1000
0000
0000
1001
0000
0000
0000
1000
0000
0000
0001
0000
0000
0110
0000
;

//---------------dance-single - ----------------
#NOTES:
     dance-single:
     :
     Easy:
     4:
     0.207,0.324,0.234,0.125,0.004:
0000
0000
0000
0000
,
0000
0000
0000
0000
,
0000
0000
0000
0000
,
0000
0000
0000
0000
,
1000
0100
0020
0000
,
0000
0000
0000
0000
,
0031
0010
0200
0300
,
2000
3000
0001
1000
,
0001
1001
1000
0100
,
0001
0100
1000
0000
,
0000
0000
0000
1000
1001
0000
0000
0000
,
0000
0000
0000
0001
1001
0000
0000
0000
,
0000
0000
0001
0100
,
1000
0100
0001
0000
,
0000
0000
0000
0001
1001
0000
0000
0000
,
0000
0000
0000
1000
1001
0000
0000
0000
,
0000
0000
1000
0100
,
0010
0000
0001
0000
0000
1000
0100
0100
,
0000
0000
1000
0010
,
0100
0001
1000
1000
,
1001
0000
0101
0001
,
0100
0010
1010
0000
,
0000
0000
1010
0010
,
0100
0001
0101
0000
,
0000
0000
0001
0010
,
0001
0100
2000
0000
,
0000
3100
0202
0303
,
2002
3003
2020
3030
,
0220
0330
1001
0001
,
0100
0010
0100
0000
,
0000
0000
0000
0001
0101
0000
0000
0000
,
0000
0000
0000
1000
1100
0000
0000
0000
,
0000
0000
1001
1000
,
0010
0100
0010
0000
,
0000
0000
0000
1000
1010
0000
0000
0000
,
0000
0000
0000
0001
1001
0000
0000
0000
,
0000
0001
1000
0100
,
0010
0000
0100
0000
0000
1000
0001
0001
,
0000
0001
0100
0010
,
0010
1000
0001
0100
,
0001
0001
1000
1001
,
1000
0100
0010
0011
,
0000
0000
1001
0001
,
0100
0010
1010
0000
,
0000
0000
0010
1000
,
0100
0001
0200
0000
,
0300
0100
1001
0010
,
1001
0100
1001
0010
,
0100
0000
0000
0100
0000
0000
0100
0000
2000
0000
0000
0000
0000
0000
0000
0000
,
0000
3000
0002
0000
,
0000
0003
0100
0010
,
1000
0000
0000
0000
0001
0000
0000
1001
;

//---------------dance-single - ----------------
#NOTES:
     dance-single:
     :
     Beginner:
     1:
     0.112,0.150,0.083,0.000,0.000:
0000
0000
0000
0000
,
0000
0000
0000
0000
,
0000
0000
0000
0000
,
0000
0000
0000
0000
,
0000
0000
1000
0000
,
0000
0000
0000
0000
,
0001
1000
0001
0000
,
0100
0000
0010
0000
,
0000
0000
1000
0000
,
1000
1000
1000
0000
,
0000
0000
0100
0000
,
0000
0000
0010
0000
,
0000
0000
0001
0000
,
0001
0001
0001
0000
,
0000
0000
0100
0000
,
0000
0000
0010
0000
,
0000
0000
1000
0000
,
1000
0000
0001
0001
,
0001
0000
1000
1000
,
1000
0000
0100
0100
,
0100
0000
0110
0000
,
0000
0000
1001
0000
,
0000
0000
0110
0000
,
0000
0000
1001
0000
,
0000
0000
1000
0000
,
0100
0000
0001
0000
,
0000
0100
0100
0000
,
0100
0000
0010
0000
,
0010
0000
1001
0000
,
0001
0001
0001
0000
,
0000
0000
0100
0000
,
0000
0000
0010
0000
,
0000
0000
1000
0000
,
1000
1000
1000
0000
,
0000
0000
0100
0000
,
0000
0000
0010
0000
,
0000
0000
0001
0000
,
0001
0000
0000
0100
,
0100
0000
1000
0000
,
0100
0000
0001
0000
,
1000
0000
1001
0000
,
0001
0001
1001
0000
,
0000
0000
1001
0000
,
1000
1000
1001
0000
,
1000
0000
0010
0000
,
0100
0000
0001
0000
,
0000
0001
0001
0000
,
1000
0000
0010
0000
,
0100
0000
1001
0000
,
0000
0000
0000
0000
,
0001
0001
0001
0000
,
1000
0000
0001
0000
;

//---------------dance-double - ----------------
#NOTES:
     dance-double:
     :
     Hard:
     7:
     0.307,0.293,0.125,0.017,0.229: // measure 1
00000000
00000000
00000000
00000000
,  // measure 2
00000000
00000000
00000000
00000000
,  // measure 3
00000000
00000000
00000000
00000000
,  // measure 4
00000000
00000000
00000000
00000000
,  // measure 5
00010000
00000000
00000000
01000000
00000000
00000000
10000000
00000000
10010000
00000000
00000000
10000000
00100000
00000000
00010000
00000000
,  // measure 6
00001000
00000100
00000000
00001000
00000100
00000000
00000000
00000000
00001100
00000000
00000000
00000100
00000001
00000000
00000010
00000000
,  // measure 7
00001000
00010000
00000000
00001000
00010000
00000000
00000000
00000000
00011000
00000000
00000000
00010000
00100000
00000000
10000000
00000000
,  // measure 8
01000000
00010000
00000000
01000000
00010000
00000000
00000000
00000000
00011000
00000000
00001000
00000000
00010000
00000000
00010000
00000000
,  // measure 9
00001000
00000000
00001000
00000000
00010000
00001000
00000000
00000000
00010000
00000000
01000000
00000000
10000000
00000000
00100000
00000000
,  // measure 10
00010000
00000000
00100000
00000000
10000000
00000000
01000000
00000000
00010000
00000000
00000000
00010000
00001000
00000000
00000100
00000000
,  // measure 11
00000001
00000100
00000000
00000100
00000001
00000100
00000000
00000000
00000010
00000000
00000000
00010000
00001000
00000000
01000000
00000000
,  // measure 12
00100000
10000000
00000000
10000000
00100000
10000000
00000000
00000000
10000000
00000000
00000000
01000000
00010000
00000000
00001000
00000000
,  // measure 13
00000010
00000001
00000000
00000001
00000010
00000001
00000100
00000000
00001000
00000000
00010000
00000000
00100000
00000000
10000000
00000000
,  // measure 14
01000000
00000000
00010000
00000000
00001000
00000000
00010000
00000000
01000000
00000000
00000000
00010000
01000000
00000000
10000000
00000000
,  // measure 15
00100000
00010000
00000000
00010000
00100000
00010000
00000000
00000000
00010000
00000000
00000000
00010000
00001000
00000000
00000100
00000000
,  // measure 16
00000010
00001000
00000000
00001000
00000010
00001000
00000000
00000000
00000010
00000000
00000000
00000010
00000100
00000000
00000001
00000000
,  // measure 17
00000010
00001000
00000000
00001000
00010000
00001000
00010000
00001000
00010000
00000000
01000000
00000000
10000000
00000000
01000000
00000000
,  // measure 18
00010000
00001000
00000100
00000001
00000000
00000011
00000001
00000202
,  // measure 19
00000000
00000303
00000000
00000100
00000001
00000100
00001000
00010000
,  // measure 20
00100000
10000000
01000000
00010000
01000000
10000000
00100000
00010000
,  // measure 21
00001000
00000100
00000000
00000100
00000001
00000010
00000000
00000000
00000110
00000000
00000100
00000000
00010000
00000000
00001000
00000000
,  // measure 22
01000000
00100000
10000000
00000000
10010000
10000000
00100000
00010000
,  // measure 23
00001000
00010000
01000000
10000000
10010000
00000000
10000000
00010000
,  // measure 24
01000000
00100000
00010000
00000000
00011000
00001000
00000100
00000001
,  // measure 25
00000010
00000001
00000100
00001000
00010000
00010000
00100000
00100000
,  // measure 26
10000000
00000000
01000000
00000000
00010000
00000000
01000000
00000000
10000000
00000000
00000000
10100000
00000000
00000000
00010000
00000000
,  // measure 27
00000000
01010000
00000000
00010000
01000000
00010000
00000000
00000000
10000000
00000000
01000000
00000000
00010000
00000000
01000000
00000000
,  // measure 28
10000000
00100000
00010000
00001000
00000100
00000001
00000010
00001000
,  // measure 29
00000010
00000001
00000100
00001000
00011000
00010000
00001000
01000000
,  // measure 30
00100000
00000000
10000000
00000000
01000000
00000000
00010000
00000000
00001000
00000000
00000000
00001000
00010000
00000000
00001000
00000000
,  // measure 31
00010000
00001000
00000000
00001000
00010000
00000100
00000000
00000000
00000110
00000000
00000000
00000010
00000001
00000000
00000100
00000000
,  // measure 32
00000010
00001000
00000000
00001000
00000100
00010000
00000000
00000000
00011000
00000000
00000000
00001000
01000000
00000000
00100000
00000000
,  // measure 33
10000000
01000000
00000000
01000000
00010000
01000000
00000000
00000000
00010000
00000000
00001000
00000000
00000010
00000000
00001000
00000000
,  // measure 34
00010000
00001000
00000100
00001000
00010000
00000000
00000000
00000000
;
