#VERSION:0.83;
#TITLE:Crazy is not Crazy;
#SUBTITLE:;
#ARTIST:kas_0120;
#TITLETRANSLIT:;
#SUBTITLETRANSLIT:;
#ARTISTTRANSLIT:;
#GENRE:;
#ORIGIN:;
#CREDIT:BadWolf;
#BANNER:;
#BACKGROUND:;
#PREVIEWVID:;
#JACKET:[Timing Window] - Crazy is not Crazy-jacket.png;
#CDIMAGE:;
#DISCIMAGE:;
#LYRICSPATH:;
#CDTITLE:cdtitle.png;
#MUSIC:[Timing Window] - Crazy is not Crazy.ogg;
#OFFSET:-0.083035;
#SAMPLESTART:64.939171;
#SAMPLELENGTH:16.216217;
#SELECTABLE:YES;
#DISPLAYBPM:222.000000;
#BPMS:0.000=222.000,
80.000=111.000,
104.000=222.000,
104.750=111.000,
105.000=222.000,
105.500=111.000,
106.000=222.000,
106.500=111.000,
107.000=222.000,
107.500=111.000,
112.000=222.000,
204.000=111.000,
206.000=222.000,
296.000=333.000,
299.500=222.000,
327.000=333.000,
329.000=222.000,
331.000=333.000,
333.000=222.000,
335.000=333.000,
337.000=222.000,
347.000=333.000,
349.000=222.000,
351.000=333.000,
353.000=222.000,
359.000=333.000,
361.000=444.000,
362.000=222.000,
365.000=190.000,
367.000=169.000,
369.000=156.000,
372.000=240.000;
#STOPS:104.000=0.068,
104.250=0.068,
104.500=0.068,
105.000=0.034,
105.125=0.034,
105.250=0.034,
105.375=0.034,
106.000=0.034,
106.125=0.034,
106.250=0.034,
106.375=0.034,
107.000=0.034,
107.125=0.034,
107.250=0.034,
107.375=0.034,
238.000=0.135,
265.500=0.405,
296.000=0.068,
296.750=0.068,
297.500=0.068,
298.250=0.068,
299.000=0.045,
299.500=0.270,
327.000=0.068,
327.750=0.068,
328.500=0.045,
331.000=0.068,
331.750=0.068,
332.500=0.045,
335.000=0.068,
335.750=0.068,
336.500=0.045,
347.000=0.068,
347.750=0.068,
348.500=0.045,
351.000=0.068,
351.750=0.068,
352.500=0.045,
359.000=0.068,
359.750=0.068,
360.500=0.045,
361.000=0.034,
361.250=0.034,
361.500=0.034,
361.750=0.034;
#DELAYS:;
#WARPS:399.000=37.000;
#TIMESIGNATURES:0.000=4=4;
#TICKCOUNTS:0.000=4;
#COMBOS:0.000=1;
#SPEEDS:0.000=1.000=0.000=0;
#SCROLLS:0.000=1.000,
96.000=1.300,
97.000=1.000;
#FAKES:;
#LABELS:0.000=Song Start;
#BGCHANGES:;
#KEYSOUNDS:;
#ATTACKS:
;

//---------------dance-single - ----------------
#NOTEDATA:;
#CHARTNAME:;
#STEPSTYPE:dance-single;
#DESCRIPTION:;
#CHARTSTYLE:;
#DIFFICULTY:Challenge;
#METER:13;
#RADARVALUES:1.115511,1.938858,0.326404,0.092063,1.104750,933.000000,894.000000,39.000000,11.000000,8.000000,0.000000,0.000000,0.000000,130.000000,1.115511,1.938858,0.326404,0.092063,1.104750,933.000000,894.000000,39.000000,11.000000,8.000000,0.000000,0.000000,0.000000,130.000000;
#CREDIT:;
#DISPLAYBPM:222.000000;
#NOTES:
0000
0000
0000
0000
,
0000
0000
0000
0000
,
0000
0000
0000
0000
,
0000
0000
0000
0000
,
1000
0100
0010
0100
1000
0010
1000
0001
,
0000
0000
0010
0000
0100
0000
0010
0000
0001
1000
0001
0000
1000
0000
0010
0000
,
1000
0001
0100
0001
0010
0100
1000
0001
,
1000
0000
0010
0000
0001
0000
0010
0000
1000
0001
1000
0000
0001
0000
0010
0000
,
0001
0100
0010
0100
0001
0010
0100
1000
,
0010
0000
0100
0000
0010
0000
1000
0001
1000
0000
0100
0000
0010
0000
0001
0000
,
1000
0010
0100
0010
0001
0010
0100
0010
,
1000
0000
0100
0000
0010
0000
0001
0000
1000
0000
0000
0000
0001
1000
0001
1000
,
0001
0010
0100
0001
0100
1000
0010
1000
,
0100
0000
0010
0000
0001
0000
1000
0000
0010
0100
0010
0000
1000
0000
0001
0000
,
1000
0100
0010
1000
0010
0100
1000
0001
,
0100
0000
0010
0000
0100
0000
0010
0000
1000
0001
1000
0000
0100
0000
0010
0000
,
0001
0000
0100
0000
0001
0000
1000
0000
0010
1000
0010
0000
1000
0000
0100
0000
,
0010
0000
0001
0000
1000
0000
0001
0100
0001
0000
1000
0000
0001
0000
0010
0000
,
0001
1000
0001
1000
0001
1000
0001
1000
0010
0100
0010
0100
0010
0100
0010
0100
,
0020
0000
0000
1030
,
1MM1
0000
0000
0000
0001
0000
0000
0000
1000
0100
0010
0100
1000
0000
0000
0000
0001
0000
0000
0000
0100
0000
0010
0000
0000
0000
0010
0000
1000
0000
0000
0000
,
0001
0000
0010
0000
0100
0000
2000
0000
0000
0000
3002
0000
0000
0000
1003
0000
0100
0000
0010
0000
0100
0000
1000
0001
1000
0000
0010
0000
0100
0000
0001
0000
,
1001
0000
0000
0000
1000
0000
0000
0000
0001
0010
0100
0010
0001
0000
0000
0000
1000
0000
0000
0000
0010
0000
0100
0000
0000
0000
0100
0000
0001
0000
0000
0000
,
1000
0100
0010
0002
0000
2003
0000
3001
1000
0010
0100
1000
0100
0001
1000
0001
,
2000
0000
0000
0000
3002
0000
0000
0000
1003
0010
0100
0010
1000
0000
0000
0000
0001
0000
0000
0000
0010
0000
0100
0000
0000
0000
0100
0000
1000
0000
0000
0000
,
0010
0000
0100
0000
0001
0000
2000
0000
0000
0000
3020
0000
0000
0000
1030
0000
0100
0000
0010
0000
0100
0000
1000
0001
1000
0000
0010
0000
0001
0000
0010
0000
,
1000
0000
1000
0000
1000
0000
1000
0000
0001
0100
0010
0100
0001
0000
0000
0000
1000
0001
0100
0001
1000
0000
0100
0000
0010
0001
0010
0001
1000
0000
0001
0000
,
1000
0010
0100
0001
0100
0010
1000
0100
1000
0001
0010
0001
1000
0000
0001
1000
0000
0100
0000
0000
0010
0001
0000
0000
,
1M00
0000
0010
0000
0001
0000
0010
0000
1000
0100
1000
0100
0010
0000
0001
0000
,
0100
0000
0001
1000
0001
0000
0010
0000
0100
1000
0100
0000
1000
0000
0001
0000
,
1000
0010
0100
1000
0100
0001
1000
0001
,
1000
0000
0100
0000
0010
0000
0001
0100
0001
0000
0010
0000
0100
0000
1000
0000
,
0001
0000
0100
0000
1000
0000
0100
0000
0001
0010
0001
0010
0100
0000
1000
0000
,
0010
0000
1000
0001
1000
0000
0100
0000
0010
0001
0010
0000
0001
0000
1000
0000
,
0001
0100
0010
1000
0100
0010
0001
1000
,
0001
0100
0010
1000
0010
0100
0001
0010
0001
1000
0100
1000
,
0001
0100
0001
0100
0000
0010
1000
0000
0100
0000
0000
0010
,
0000
0000
0000
0011
0000
0000
1001
0000
0000
1000
0010
0100
,
0001
0000
0000
1000
0000
0100
1000
0000
0000
0001
0000
0010
,
0001
0000
0000
1000
0000
0100
0010
0000
0000
0001
0000
0100
,
0010
0000
0000
1000
0000
0001
1000
0000
0000
0100
0000
0010
,
0100
0000
0000
1000
0000
0001
0010
0000
0000
0001
0000
1000
,
0010
0110
1010
1001
,
0011
0000
0000
0000
0000
1000
0001
0000
1000
0000
0000
0000
,
0001
1000
0001
1000
0000
0000
0001
0000
1000
0010
0000
0000
,
1000
0000
0000
0011
0000
0000
1000
0000
0001
0100
0000
0000
,
0001
0000
0000
1100
0000
0000
0100
0000
0010
0001
0000
0000
,
1000
0010
1000
0001
0100
0001
1000
0000
0000
1001
0000
0000
,
0001
0010
0001
0010
0001
0010
0100
1000
0100
1000
0100
1000
,
0010
0100
0010
0100
0010
0100
0001
1000
0001
1000
0001
1000
,
0001
0010
0100
1000
0010
0100
0001
0010
0100
1000
0010
0100
,
M001
0000
1000
0000
0001
1000
1001
0000
1M00
0000
0010
0000
0001
0000
0010
0000
,
1000
0100
0010
0100
1000
0000
0001
0000
0100
0000
0010
1000
0010
0000
0100
0000
,
0001
0010
0001
0000
1000
0000
0100
0000
0010
0000
0001
0100
0001
0100
0010
0000
,
1000
0010
1000
0000
0001
0100
0001
0000
1000
0010
1000
0010
0100
0000
0001
1000
,
0001
0000
1000
0100
0010
0001
1000
0000
0001
0000
0100
0000
1000
0000
0100
0000
,
0001
0010
0100
0010
0001
0000
1000
0000
0010
0000
0100
0001
0100
0000
0010
0000
,
1000
0100
1000
0000
0001
0000
0010
0000
0100
0000
1000
0010
1000
0010
0100
0000
,
0001
0100
0001
0000
1000
0010
1000
0000
0001
0100
0001
0100
0010
0000
1000
0001
,
1000
0000
0100
0000
0010
0000
0001
0000
1M00
0000
0001
1000
0010
1000
0001
1000
,
0100
0010
0001
0000
1000
0001
1000
0000
0010
0100
0010
0000
1000
0001
1000
0001
,
0010
0000
0100
0000
1000
0000
0001
0000
0100
0010
0100
0010
1000
0000
0001
0100
,
0001
0000
1000
0010
1000
0000
0001
1000
0100
1000
0001
0000
0010
0100
0010
0000
,
0001
0100
0010
1000
0001
0000
1000
0000
0001
1000
0001
1000
0100
1000
0001
1000
,
0010
0100
0001
0000
1000
0001
1000
0000
0100
0010
0100
0000
1000
0001
1000
0001
,
0100
0000
0010
0000
1000
0000
0001
0000
0010
0100
0010
0100
1000
0000
0001
0010
,
0001
0000
1000
0100
1000
0000
00M1
0000
0000
0000
1001
0000
1001
0000
0000
0000
,
1000
0100
0010
0100
0001
0100
0010
0001
,
0100
1000
0100
0001
0010
0100
1000
0010
,
1010
0000
0000
1010
0000
0000
1000
0000
0101
0000
0000
0101
0000
0000
0001
0000
,
1000
0100
0010
0100
0001
0100
0010
0100
,
1000
0010
0100
1000
0100
0001
1000
0010
,
0100
0001
0010
0100
0001
0100
1000
0001
,
1100
0000
0000
1100
0000
0000
1000
0000
0011
0000
0000
0011
0000
0000
0001
0000
,
1100
0000
0000
1010
0000
0000
1001
0000
0000
0011
0000
0000
1001
0000
0M01
0000
,
1000
0001
1000
0010
0100
0010
1000
0100
,
0001
0000
0100
0000
1000
0000
0010
0000
0100
0000
0001
0000
0011
0000
0000
0011
,
0000
0000
0001
0000
1100
0000
0000
1100
0000
0000
1000
0000
0001
0000
0100
0000
,
0010
0100
1000
0100
0010
0100
0001
0010
,
0100
0001
0100
1000
0010
1000
0100
0010
,
1000
0010
0100
1000
0001
0100
0001
0010
,
0100
0000
1000
0000
0001
0000
0100
0000
0010
0000
1000
0000
0001
0000
0000
0011
,
0000
0000
0010
0000
0100
0000
1000
0000
0001
1000
0010
1000
0100
0000
0000
0110
,
0000
0000
0010
0000
0001
0000
0000
0000
1000
0001
0100
0001
0010
0000
0000
0110
,
0000
0000
0100
0000
1000
0000
0000
0000
0001
1000
0010
1000
0001
0000
0100
0000
,
0010
0000
1000
0100
1000
0000
0001
0000
0100
0000
0001
0010
0001
0000
0100
0000
,
1000
0000
0100
0000
0001
0000
0010
0000
0100
0000
1000
0000
0010
0000
0000
0110
,
0000
0000
0100
0000
0001
0000
0000
0000
1000
0001
0010
0001
0100
0000
0000
0110
,
0000
0000
0010
0000
1000
0000
0000
0000
0001
1000
0100
1000
0001
0000
0010
0000
,
0100
0000
1000
0010
1000
0000
0001
0000
0010
0000
0001
0100
0001
0000
0000
1001
,
0000
0000
1000
0000
0100
0010
0001
1000
0001
0000
0000
0000
2002
0000
0000
0000
,
0000
0000
0000
0000
,
0000
0000
3003
0000
0000
0000
1001
0001
,
1000
0100
1000
0100
0010
0001
1000
0001
1000
0000
0001
0100
0001
0000
1000
0010
,
1000
0000
0100
0010
0100
0010
0001
0000
1000
0000
0010
0000
1000
0000
0001
0010
,
0001
0010
0100
0000
1000
0010
1000
0000
0001
1000
0001
0000
1000
0100
0010
0100
,
1000
0000
0001
0100
0001
0000
1000
0010
0100
0001
1000
0000
0001
0000
0010
0001
,
1000
0010
1000
0010
0100
0001
1000
0001
1000
0000
0001
0010
0001
0000
1000
0100
,
1000
0000
0010
0100
0010
0100
0001
0000
1000
0000
0100
0000
1000
0000
0001
0100
,
0001
0100
0010
0000
1000
0100
1000
0000
0001
1000
0001
0000
1001
0000
0000
0000
,
MMMM
MMMM
MMMM
MMMM
,
MMMM
MMMM
MMMM
MMMM
,
MMMM
MMMM
MMMM
MMMM
,
MMMM
MMMM
MMMM
MMMM
,
MMMM
MMMM
MMMM
MMMM
,
MMMM
MMMM
MMMM
MMMM
,
MMMM
MMMM
MMMM
MMMM
,
MMMM
MMMM
MMMM
MMMM
;

//---------------dance-single - ----------------
#NOTEDATA:;
#CHARTNAME:;
#STEPSTYPE:dance-single;
#DESCRIPTION:;
#CHARTSTYLE:;
#DIFFICULTY:Hard;
#METER:11;
#RADARVALUES:0.919430,1.533050,0.276188,0.092063,0.648622,769.000000,736.000000,33.000000,11.000000,8.000000,0.000000,0.000000,0.000000,129.000000,0.919430,1.533050,0.276188,0.092063,0.648622,769.000000,736.000000,33.000000,11.000000,8.000000,0.000000,0.000000,0.000000,129.000000;
#CREDIT:;
#DISPLAYBPM:222.000000;
#NOTES:
0000
0000
0000
0000
,
0000
0000
0000
0000
,
0000
0000
0000
0000
,
0000
0000
0000
0000
,
1000
0010
0100
0010
1000
0100
0010
0001
,
0000
1000
0010
1000
0001
0010
0100
1000
,
0000
0010
0100
0001
1000
0100
0010
0001
,
1000
0010
0001
0010
1000
0100
0010
0100
,
1000
0001
0100
0001
1000
0100
0010
0001
,
0000
0100
0010
0100
0001
1000
0001
0010
,
0001
0100
0001
1000
0100
1000
0001
1000
,
0001
0010
0100
1000
0001
0000
1001
0000
,
1000
0100
0010
0100
1000
0010
0100
0001
,
0000
1000
0100
1000
0001
0100
0010
1000
,
0000
0100
0010
0001
1000
0010
0100
0001
,
1000
0100
0001
0100
1000
0010
0100
0010
,
1000
0001
0010
0001
1000
0010
0100
0001
,
0000
0010
0100
0010
0001
1000
0001
0100
,
0001
0010
0100
1000
0010
0100
0001
1000
,
0002
0000
0000
1003
,
1MM1
0000
0001
0000
1000
0100
0010
0000
0001
0000
0100
0010
0000
0010
1000
0000
,
0001
1000
0001
2000
0000
3200
0000
0310
0100
0010
0100
1000
0001
1000
0001
1000
,
0001
0000
1000
0000
0001
0100
0010
0000
1000
0000
0100
0010
0000
0010
0001
0000
,
1000
0001
1000
0002
0000
0203
0000
0310
1000
0100
0001
0100
1000
0000
0001
0000
,
2000
0000
3002
0000
0103
0010
1000
0000
0001
0000
1000
0100
0000
0100
0010
0000
,
0001
0100
0001
2000
0000
3020
0000
1030
0100
0010
0100
0010
0001
1000
0001
0000
,
1000
0001
1000
0001
1000
0010
0001
0000
0001
0010
1000
0000
1000
0100
0010
0001
,
1000
0001
1000
0001
1000
0001
0100
0010
0100
0010
0100
0010
1000
0000
0001
1000
0000
0001
0000
0000
1000
0100
0000
0000
,
10M0
0000
1000
0000
0001
0000
0000
0000
1000
0010
1000
0000
0001
0000
0100
0000
,
0010
0000
1000
0000
0100
0000
0010
0001
0010
0000
0001
0000
1000
0000
0001
0000
,
1000
0010
1000
0100
0000
0110
0000
0011
,
0001
0010
0100
1000
0001
0100
0010
1000
,
0001
0000
0001
0000
1000
0000
0000
0000
0001
0010
0001
0000
1000
0000
0100
0000
,
0010
0000
0001
0000
0100
0000
0010
1000
0010
0000
1000
0000
0001
0000
1000
0000
,
0001
0010
0001
0100
0000
0110
0000
1010
,
1000
0100
1000
0100
1000
0100
0010
0001
0010
0001
0010
0001
,
1000
0100
0010
0001
0000
1000
0001
0000
0100
0000
0000
0010
,
0000
0000
0000
1000
0000
0000
0001
0000
0000
0010
0000
0100
,
1000
0000
0000
0000
0000
0000
0000
0000
0000
0001
0000
1000
,
0000
0000
0000
0000
0000
0000
0000
0000
0000
0000
0000
0010
,
0100
0000
0110
0000
,
1001
0000
1000
0100
,
0011
0101
1001
1010
,
1100
0000
0000
0000
0000
0001
1000
0000
0001
0000
0000
0000
,
1000
0001
1000
0001
0000
0000
1000
0000
0010
1000
0000
0000
,
0001
0000
0000
0101
0000
0000
0100
0000
0010
0100
0000
0000
,
0010
0000
0000
1010
0000
0000
1000
0000
0100
1000
0000
0000
,
0100
0000
0000
0110
0000
0000
0010
0000
0001
1000
0000
0000
,
0001
0000
0001
0010
0000
0010
0100
0000
0100
1000
0000
1000
,
0001
0000
0001
0100
0000
0100
0010
0000
0010
1000
0000
1000
,
0001
0010
0100
1000
0100
0010
0001
0010
0100
1000
0100
0010
,
0M01
1000
0001
1001
1M00
0010
0100
0010
,
1000
0100
1000
0000
0010
0000
0100
0000
0001
0000
1000
0001
1000
0000
0010
0000
,
1000
0001
1000
0000
0100
0000
0010
0000
0001
0000
0100
0000
1000
0000
0100
0000
,
0001
0000
0010
0000
1000
0000
0010
0000
0001
1000
0001
0000
0100
0000
0010
1000
,
0010
0000
0100
0001
0100
0000
0001
0000
1000
0000
0100
0000
0010
0000
0100
0000
,
1000
0010
1000
0000
0100
0000
0010
0000
0001
0000
1000
0001
1000
0000
0100
0000
,
1000
0001
1000
0000
0010
0000
0100
0000
0001
0000
0010
0000
1000
0000
0010
0000
,
0001
0000
0100
0000
1000
0000
0100
0000
0001
1000
0001
0000
0010
0000
0001
0000
,
1000
0000
0000
0000
1001
0000
0000
0000
00M1
0000
1000
0100
1000
0100
1000
0000
,
0001
0000
0100
0000
0010
0000
1000
0000
0100
0010
0100
0000
1000
0000
0001
0010
,
0001
1000
0001
1000
0010
0001
0010
1000
,
0100
0000
0001
0000
0100
0000
1000
0010
1000
0000
0001
0000
0100
0010
0100
0000
,
0001
1000
0001
0000
0010
0000
0001
0000
1000
0010
1000
0010
1000
0010
1000
0000
,
0001
0000
0010
0000
0100
0000
1000
0000
0010
0100
0010
0000
1000
0000
0001
0100
,
0001
1000
0001
1000
0100
0001
0100
1000
,
0010
0001
0010
1M00
0000
0001
1000
0000
,
0001
0010
0100
1000
0000
1010
0000
0010
,
1000
0100
0010
0001
0000
0101
0000
0100
,
0001
0000
0000
0010
0000
0000
0001
0000
1000
0000
0000
0010
0000
0000
1000
0000
,
0001
0010
0100
1000
0010
0100
0001
0000
,
1000
0100
0010
0001
0000
0101
0000
0100
,
0001
0010
0100
1000
0000
1010
0000
0010
,
1000
0000
0000
0100
0000
0000
1000
0000
0001
0000
0000
0100
0000
0000
0001
0000
,
1000
0000
0000
1100
0000
0000
1010
0000
0000
1001
0000
0000
0001
0000
1M00
0000
,
0010
1000
0000
1100
0000
0100
1000
0010
,
0100
0000
0001
0000
0000
0000
0011
0000
0000
0000
0010
0000
0001
0000
0000
0100
,
0000
0000
0001
0000
1000
0000
0000
0100
0000
0000
1000
0000
0001
0000
0100
0000
,
0010
1000
0100
0010
0001
0000
1000
0010
,
0100
0001
0000
0011
0000
0010
0001
0100
,
0010
1000
0000
1100
0000
0100
1000
0010
,
0100
0000
0001
0000
1000
0000
0100
0000
0010
0000
0001
0000
1000
0000
0000
0010
,
0000
0000
1000
0000
0100
0000
0010
0000
0001
1000
0001
1000
0001
0000
0000
0100
,
0000
0000
0001
0000
1000
0000
0000
0000
1000
0001
1000
0001
1000
0000
0000
0010
,
0000
0000
1000
0000
0001
0000
0000
0000
0001
0100
0001
0100
0001
0000
0000
0010
,
0000
0000
0100
0000
1000
0000
0000
0010
0000
0000
1000
0000
0001
0000
0010
0000
,
1000
0000
0010
0000
0001
0000
0100
0000
0010
0000
1000
0000
0001
0000
0000
0010
,
0000
0000
0001
0000
1000
0000
0000
0000
1000
0001
1000
0001
1000
0000
0000
0100
,
0000
0000
1000
0000
0001
0000
0000
0000
0001
1000
0001
1000
0001
0000
0000
0100
,
0000
0000
0010
0000
1000
0000
0000
0100
0000
0000
0010
0000
0001
0000
0000
0101
,
0000
0000
1001
0000
1000
0100
0010
0001
1000
0000
0000
0000
2002
0000
0000
0000
,
0000
0000
0000
0000
,
0000
0000
3003
0000
0000
0000
1001
0001
,
1000
0100
1000
0100
1000
0000
0001
0000
0100
0000
0010
0000
1000
0000
0100
0010
,
0100
0000
1000
0000
0001
0010
0001
0000
1000
0000
0001
0000
1000
0000
0010
0000
,
0001
0000
0010
0000
1000
0000
0100
0000
0001
0000
0100
0000
1000
0010
1000
0000
,
0001
0000
0100
0010
0100
0000
0001
1000
0001
0000
0010
0000
0001
0000
1000
0010
,
1000
0010
1000
0010
1000
0000
0001
0000
0010
0000
0100
0000
1000
0000
0010
0100
,
0010
0000
1000
0000
0001
0100
0001
0000
1000
0000
0001
0000
1000
0000
0100
0000
,
0001
0100
1000
0010
0001
0010
1000
0000
,
MMMM
MMMM
MMMM
MMMM
,
MMMM
MMMM
MMMM
MMMM
,
MMMM
MMMM
MMMM
MMMM
,
MMMM
MMMM
MMMM
MMMM
,
MMMM
MMMM
MMMM
MMMM
,
MMMM
MMMM
MMMM
MMMM
,
MMMM
MMMM
MMMM
MMMM
,
MMMM
MMMM
MMMM
MMMM
;
