#VERSION:0.83;
#TITLE:BATTLE NO.1;
#SUBTITLE:;
#ARTIST:TANO*C Sound Team;
#TITLETRANSLIT:;
#SUBTITLETRANSLIT:;
#ARTISTTRANSLIT:;
#GENRE:;
#ORIGIN:;
#CREDIT:;
#BANNER:BATTLE NO1.png;
#BACKGROUND:BATTLE NO1-bg.png;
#PREVIEWVID:;
#JACKET:BATTLE NO1-jacket.png;
#CDIMAGE:;
#DISCIMAGE:;
#LYRICSPATH:;
#CDTITLE:;
#MUSIC:BATTLE NO1.ogg;
#OFFSET:-0.140000;
#SAMPLESTART:88.900009;
#SAMPLELENGTH:18.600014;
#SELECTABLE:YES;
#BPMS:0.000=200.000,
196.000=100.000,
204.000=200.000,
251.000=100.000,
259.000=200.000,
308.000=100.000,
312.000=400.000,
328.000=200.000,
336.000=400.000,
352.000=200.000;
#STOPS:36.000=0.900,
115.000=0.300;
#DELAYS:;
#WARPS:;
#TIMESIGNATURES:0.000=4=4;
#TICKCOUNTS:0.000=4;
#COMBOS:0.000=1;
#SPEEDS:0.000=1.000=0.000=0;
#SCROLLS:0.000=1.000;
#FAKES:;
#LABELS:0.000=Song Start;
#BGCHANGES:;
#KEYSOUNDS:;
#ATTACKS:
;

//---------------dance-single - ----------------
#NOTEDATA:;
#CHARTNAME:;
#STEPSTYPE:dance-single;
#DESCRIPTION:;
#CHARTSTYLE:;
#DIFFICULTY:Hard;
#METER:10;
#RADARVALUES:0.733500,1.371440,0.285717,0.352944,0.285717,611.000000,577.000000,34.000000,42.000000,0.000000,0.000000,0.000000,0.000000,0.000000,0.733500,1.371440,0.285717,0.352944,0.285717,611.000000,577.000000,34.000000,42.000000,0.000000,0.000000,0.000000,0.000000,0.000000;
#CREDIT:;
#NOTES:
0000
0000
0000
0000
,
0000
0000
0000
0000
,
1001
0000
0001
0000
0010
0000
0001
0100
,
0010
0000
0000
0000
0100
0000
0000
0000
0001
0000
1000
0000
0001
0000
1000
0001
,
1000
0000
1000
0000
0100
1000
0010
0000
,
0100
0010
0100
0010
2000
0000
3002
0000
,
1003
0000
0011
0000
1000
0000
0010
0100
,
0001
0000
0001
1000
0000
1000
0010
0000
,
0100
0000
0000
0010
0000
0000
1000
0000
0000
0001
0000
0000
1000
0000
0100
0000
1000
0000
0100
0000
0010
0000
0001
0000
,
1000
1001
1000
0010
,
0100
0001
0001
0002
,
0003
1000
0100
1000
,
0010
0100
0100
0200
,
0300
0010
1000
0010
,
0100
0001
0100
0020
,
0030
0100
0010
1000
,
0001
2002
0000
0000
,
3003
0000
0001
0010
1000
0010
0000
0100
,
0000
0010
0001
0100
0001
0010
0001
0100
,
0001
0000
1000
0010
0001
0010
0000
0100
,
0000
0010
1000
0001
0020
0031
1000
0020
,
0130
0000
0010
1000
0010
0001
0000
0010
,
0000
0100
0010
1000
0100
1000
0010
0100
,
0001
2000
3100
1000
,
0100
0020
0000
0031
0100
0020
0000
0030
,
0000
0000
0000
0000
0000
0000
0000
0000
0100
0000
0000
0010
0000
0000
1000
0000
,
0001
0000
0000
0000
0000
0000
0000
0000
0001
0000
0000
1000
0000
0000
0010
0000
,
0100
0000
0010
0000
0000
0000
0000
0000
1000
0000
0000
0100
0000
0000
0010
0000
,
0100
0000
0000
0000
0010
0001
1000
0000
,
2000
0000
0000
0000
3001
0000
0000
0100
0000
0000
0010
0000
0000
1000
0000
0000
,
0100
0000
0000
0001
0000
0000
0100
0000
0000
0010
0000
0000
0001
0000
0100
0000
,
0001
0000
0000
0100
0000
0000
0001
0000
0000
0100
0000
0000
0001
0000
0100
0000
0001
0000
0100
0000
0010
0000
1000
0000
,
0001
0000
0000
0010
0000
0000
0100
0000
0000
1000
0000
0000
0001
0000
0000
0000
,
2000
0000
3010
0100
0010
1000
0001
0010
,
0001
0000
0100
0000
1000
0000
0200
0000
0000
0000
0310
1000
0010
0000
0100
0000
,
0001
0000
1000
0000
0100
1000
0010
0200
,
0000
0310
1000
0002
0000
0103
0010
1000
,
0100
0000
0010
0000
0100
0000
1000
0000
0001
0100
0002
0000
0000
0000
2003
0000
,
0000
0000
0000
3200
0000
0000
0000
0000
0000
0310
0000
0000
0100
0000
0000
1000
0000
0000
0000
0000
0001
0000
0000
0000
,
0100
0000
0010
1000
0010
0100
0001
0020
,
0100
0100
0130
1001
,
0001
1000
0010
0001
0010
1000
0100
0010
,
0001
1000
0010
0001
0010
1000
0001
0100
,
0001
1000
1000
0001
0010
0001
1000
0010
,
0000
1000
0000
0100
0000
1000
0001
0000
,
1000
0001
0100
1000
0100
0001
0010
0100
,
1000
0001
0100
1000
0100
0001
1000
0010
,
1000
0001
0001
1000
0100
1000
0001
0100
,
0000
0000
0001
0000
0000
0000
0010
0000
0000
0000
0000
1000
0100
0000
0000
0000
,
1001
0000
0000
0000
0001
0010
0001
1000
0000
0000
0100
0000
0010
0000
0100
0000
,
1000
0000
0000
0000
0000
0000
0001
0100
0001
0000
0100
0000
0001
0000
1000
0000
0000
0000
0100
0000
0010
0000
0001
0000
0010
0000
0100
0000
0010
0000
0001
0000
,
1000
1000
0001
1000
,
0001
0001
1000
0001
,
0100
0010
0100
0010
0100
0010
0100
0010
,
0110
1001
0220
0330
,
1000
0010
0200
0000
0301
0010
0200
0000
,
0310
0001
1000
0010
0100
0001
0010
0100
,
1000
0001
0200
0000
0301
1000
0200
0000
,
0310
0001
1000
0001
0100
0010
0100
0010
,
1000
0001
0200
0000
0301
1000
0200
0000
,
0310
0100
0010
0001
1000
0010
0100
0001
,
0010
0001
0020
0000
0031
0100
0020
0000
,
0130
0000
0010
0000
0100
0000
0010
0000
0100
0000
0000
0000
1001
0000
1000
0100
,
1000
0100
1000
0000
0100
0010
0001
0000
0011
0000
1010
0000
0011
0000
0000
0000
,
0001
0010
0001
0000
0010
0100
1000
0000
1100
0000
0101
0000
1001
0000
0000
0000
,
0001
0100
1000
0000
1000
0100
0001
0000
,
0001
0010
1000
0010
0001
0010
0100
0000
,
0010
0000
0000
0001
0000
0000
0100
0000
0000
1000
0000
0000
0100
0000
0000
0010
,
1000
0010
1000
0010
1000
0010
1000
0010
1000
0010
1000
0010
1000
0000
0000
0000
,
0001
0010
0001
0010
0100
0000
0010
0001
,
0100
1010
1100
1010
,
1000
0000
0010
0100
0001
0000
0010
0100
,
1000
1100
0011
1020
,
0130
0010
0100
0010
1000
0001
1000
0001
,
1000
0100
0010
0100
1000
0001
0010
0100
,
1000
0001
0100
0010
1000
0001
0100
0010
,
1000
0001
1000
0001
1000
0001
1000
0001
1000
0001
1000
0001
1000
0001
1000
0001
,
1000
0100
0010
0100
1000
0001
0010
1000
0010
0100
0001
0010
0110
0000
0011
0000
,
1001
0000
1000
0010
,
0000
0100
0001
0000
,
1001
0000
0001
0010
,
0000
0100
1000
0000
,
0001
1000
0100
1000
0001
0100
0001
0010
,
0200
2300
3002
0203
0320
0000
1030
0000
,
0010
0000
0100
0001
,
0000
0001
0010
0000
,
0110
0000
0100
1000
,
0000
1000
0010
0000
,
0200
0010
0001
0310
,
1000
0010
0100
0001
0010
0000
0110
0000
,
1002
0013
2001
3010
,
0011
1010
1001
0110
,
0001
0100
0010
0010
0100
0010
1000
1000
,
0100
0010
0001
0001
0010
0100
0010
0010
,
0100
0010
0100
0010
0100
0010
0100
0010
0100
0010
0100
0010
0100
0010
0100
0010
,
0100
0010
0001
2000
0000
0000
0002
0000
,
3003
0000
0000
0000
;

//---------------dance-single - ----------------
#NOTEDATA:;
#CHARTNAME:;
#STEPSTYPE:dance-single;
#DESCRIPTION:;
#CHARTSTYLE:;
#DIFFICULTY:Medium;
#METER:8;
#RADARVALUES:0.521013,0.887402,0.201682,0.218489,0.071429,434.000000,410.000000,24.000000,26.000000,0.000000,0.000000,0.000000,0.000000,0.000000,0.521013,0.887402,0.201682,0.218489,0.071429,434.000000,410.000000,24.000000,26.000000,0.000000,0.000000,0.000000,0.000000,0.000000;
#CREDIT:;
#NOTES:
// measure 0
0000
0000
0000
0000
,  // measure 1
0000
0000
0000
0000
,  // measure 2
1000
0000
0010
0000
0100
0000
0001
0010
,  // measure 3
0001
0000
1000
0000
0001
0000
0100
0010
,  // measure 4
1000
0000
0001
0000
0010
0001
0100
0000
,  // measure 5
0010
1000
0010
1000
1010
0000
0101
0000
,  // measure 6
1001
0000
0001
0000
0010
0000
0100
0010
,  // measure 7
0001
1000
0010
0000
,  // measure 8
0100
0000
0010
0000
1000
0010
0100
0001
,  // measure 9
0010
1100
0100
1000
,  // measure 10
0010
0100
0001
0100
,  // measure 11
0000
0001
1000
0010
,  // measure 12
0100
0010
1000
0001
,  // measure 13
0000
0010
0100
0010
,  // measure 14
0001
1000
0010
0100
,  // measure 15
0000
0010
0100
1000
,  // measure 16
0001
0020
0000
0000
,  // measure 17
0030
0000
0001
0010
0001
1000
0000
0001
,  // measure 18
0000
0100
0000
0001
0000
0100
0000
0010
,  // measure 19
0000
1000
0010
0100
0001
0010
0000
0100
,  // measure 20
0000
0010
0001
2000
0000
3001
0200
0000
,  // measure 21
0300
0000
0010
1000
0001
0010
0000
0100
,  // measure 22
0000
0010
0000
0001
0000
1000
0000
0010
,  // measure 23
1000
0010
0100
0000
0001
0000
0010
0000
,  // measure 24
0100
0010
0000
0001
1000
0010
0000
0000
,  // measure 25
0000
0000
0000
0000
0000
0000
0000
0000
1000
0000
0000
0001
0000
0000
0100
0000
,  // measure 26
0010
0000
0000
0000
0000
0000
0000
0000
0100
0000
0000
0010
0000
0000
1000
0000
,  // measure 27
0001
0000
0000
0000
0000
0000
0000
0000
1000
0000
0000
0100
0000
0000
0010
0000
,  // measure 28
0100
0000
0000
0000
0100
1000
0000
0000
,  // measure 29
0000
0000
0000
0000
0001
0000
0000
0010
0000
0000
0100
0000
0000
1000
0000
0000
,  // measure 30
0100
0000
0000
0010
0000
0000
0001
0000
0000
0010
0000
0000
0100
0000
1000
0000
,  // measure 31
0010
0000
0100
0000
0001
0010
0001
0010
,  // measure 32
0200
0000
0000
0000
,  // measure 33
0320
0032
0103
0010
,  // measure 34
1000
0000
0001
2000
0000
3100
0020
0000
,  // measure 35
0130
0000
1000
0000
0001
0100
0001
0000
,  // measure 36
0100
0000
0010
0000
1000
0100
0010
0000
,  // measure 37
0100
0000
1000
0000
0001
2000
0000
3020
,  // measure 38
0000
0000
0000
0230
0000
0000
0000
0000
0000
0301
0000
0000
0100
0000
0000
0000
0010
0000
0000
0000
0000
1000
0000
0000
,  // measure 39
0001
0000
0010
0000
0100
1000
0010
0000
,  // measure 40
1000
0010
0001
0010
,  // measure 41
0100
0001
0100
0010
,  // measure 42
1000
0000
0100
0000
0010
0100
1000
0001
,  // measure 43
0200
0000
0000
0000
,  // measure 44
0300
0000
0000
0000
,  // measure 45
0010
1000
0010
0100
,  // measure 46
0001
0000
0100
0010
1000
0001
1000
0100
,  // measure 47
0020
0000
0000
0000
,  // measure 48
0030
0000
0000
0000
,  // measure 49
1001
0000
0000
0000
0001
0000
0000
0100
0000
0000
0010
0000
1000
0000
0100
0000
,  // measure 50
0001
0000
0000
0000
0100
0000
0000
0010
0000
0000
0100
0000
0010
0000
0001
0000
,  // measure 51
1000
0001
1000
0001
,  // measure 52
0100
0010
0100
0010
,  // measure 53
1000
0010
0100
0001
,  // measure 54
0101
1010
0101
0000
,  // measure 55
0001
1000
0100
0000
1000
0001
0100
0000
,  // measure 56
0001
1000
0010
1000
0001
0000
0010
0000
,  // measure 57
0001
1000
0010
0000
1000
0001
0010
0000
,  // measure 58
1000
0000
0001
0100
0010
1000
0010
1000
,  // measure 59
0010
1000
0001
0000
0010
0100
1000
0000
,  // measure 60
0100
0000
0010
0000
0001
0100
0010
0000
,  // measure 61
1000
0001
0010
0000
0001
1000
0010
0000
,  // measure 62
0100
0001
0100
0010
1000
0000
1001
0000
,  // measure 63
0001
0100
0001
0000
0100
0010
0100
0000
0010
0000
1000
0000
0001
0000
0000
0000
,  // measure 64
1000
0100
1000
0000
0100
0010
0100
0000
0010
0000
0110
0000
1001
0000
0000
0000
,  // measure 65
0001
0100
0010
0000
0100
0010
1000
0000
,  // measure 66
0001
1000
0010
1000
0001
0010
0100
0000
,  // measure 67
0010
0000
0000
0001
0000
0000
0100
0000
0000
0010
0000
0000
1000
0000
0000
0002
,  // measure 68
0000
0000
0000
0000
,  // measure 69
0013
0100
0010
0100
0010
0000
0100
0010
,  // measure 70
0001
0100
0010
1001
,  // measure 71
0000
0000
1000
0001
0100
0000
0010
1000
,  // measure 72
0100
0010
1100
1020
,  // measure 73
1030
0001
0100
1000
,  // measure 74
0100
0010
1000
0001
,  // measure 75
0010
0001
1000
0010
1000
0001
0010
0000
,  // measure 76
1002
0003
0120
0030
2001
3000
0210
0300
,  // measure 77
0001
0000
1000
0010
0100
0000
0010
1000
,  // measure 78
0100
0000
0000
1000
,  // measure 79
0000
0000
0010
0000
,  // measure 80
0100
0000
0000
0001
,  // measure 81
0000
0000
1000
0000
,  // measure 82
0001
0010
0001
0100
,  // measure 83
0020
2030
3001
1001
,  // measure 84
0001
0000
0000
0100
,  // measure 85
0000
0000
0010
0000
,  // measure 86
1000
0000
0000
0010
,  // measure 87
0000
0000
0100
0000
,  // measure 88
0001
1000
0100
0001
,  // measure 89
0100
0010
0001
0000
0110
0000
1100
0000
,  // measure 90
0002
0103
0020
1030
,  // measure 91
1010
0101
2002
3003
,  // measure 92
0001
0010
0001
0000
1000
0100
1000
0000
,  // measure 93
0010
1000
0010
0000
0100
0001
0100
0000
,  // measure 94
0001
0100
0010
1000
0001
0010
0100
0010
,  // measure 95
0001
0100
1000
0200
0000
0000
0000
0000
,  // measure 96
0300
0000
0000
0000
;

//---------------dance-single - ----------------
#NOTEDATA:;
#CHARTNAME:;
#STEPSTYPE:dance-single;
#DESCRIPTION:;
#CHARTSTYLE:;
#DIFFICULTY:Easy;
#METER:5;
#RADARVALUES:0.295321,0.403365,0.025210,0.134455,0.000000,246.000000,243.000000,3.000000,16.000000,0.000000,0.000000,0.000000,0.000000,0.000000,0.295321,0.403365,0.025210,0.134455,0.000000,246.000000,243.000000,3.000000,16.000000,0.000000,0.000000,0.000000,0.000000,0.000000;
#CREDIT:;
#NOTES:
// measure 0
0000
0000
0000
0000
,  // measure 1
0000
0000
0000
0000
,  // measure 2
1000
0001
1000
0001
,  // measure 3
0100
0001
0010
0010
,  // measure 4
0001
1000
0100
0010
,  // measure 5
0100
0100
0010
0010
,  // measure 6
0001
1000
0001
0100
,  // measure 7
0001
1000
0100
0000
,  // measure 8
0010
0100
1000
0001
,  // measure 9
0100
0010
0000
1000
,  // measure 10
0000
0001
1000
0001
,  // measure 11
0000
1000
0000
0010
,  // measure 12
0000
0100
0001
0100
,  // measure 13
0000
0001
0000
0010
,  // measure 14
0000
0100
0100
0010
,  // measure 15
0000
0100
0010
0001
,  // measure 16
1000
0020
0000
0000
,  // measure 17
0000
1030
0001
0000
,  // measure 18
1000
0000
0001
0000
,  // measure 19
0010
0000
0001
0000
,  // measure 20
0100
0002
0013
0002
,  // measure 21
0013
0001
0000
1000
,  // measure 22
0000
0010
0000
1000
,  // measure 23
0000
0100
1000
0010
,  // measure 24
0000
0100
0010
1000
,  // measure 25
0000
0001
0200
0000
,  // measure 26
0300
0000
0020
0000
,  // measure 27
0030
0000
2000
0000
,  // measure 28
3000
0000
0002
0003
,  // measure 29
0000
2000
0000
0000
,  // measure 30
0000
0000
0000
0000
,  // measure 31
0000
0000
0000
0000
,  // measure 32
3002
0000
1000
1003
,  // measure 33
0001
1000
0100
0010
,  // measure 34
0100
1000
0000
0001
,  // measure 35
1000
0010
1000
0010
,  // measure 36
0100
0001
0100
0010
,  // measure 37
1000
0000
0001
0000
0010
0100
0000
0010
,  // measure 38
0000
0001
0000
1000
0001
0000
0000
0000
,  // measure 39
0100
0000
0010
0000
,  // measure 40
0100
0010
1000
0010
,  // measure 41
1000
0010
0100
0001
,  // measure 42
0100
0010
1000
0001
,  // measure 43
0020
0000
0000
0000
,  // measure 44
0030
0000
0000
0000
,  // measure 45
0100
0010
0001
0100
,  // measure 46
0010
1000
0001
1000
,  // measure 47
0200
0000
0000
0000
,  // measure 48
0300
0000
0000
0000
,  // measure 49
1000
0000
0001
0000
,  // measure 50
0100
0000
0010
0000
,  // measure 51
1000
0000
0010
0000
,  // measure 52
0100
0000
0001
0000
,  // measure 53
1000
0100
0010
0001
,  // measure 54
1000
0001
0110
0000
,  // measure 55
1000
0010
1000
0001
,  // measure 56
0100
0100
0001
0100
,  // measure 57
0001
0010
0001
1000
,  // measure 58
0100
0010
0100
0100
,  // measure 59
0010
0001
0100
0010
,  // measure 60
1000
0010
0100
0001
,  // measure 61
1000
0010
1000
0001
,  // measure 62
0010
0010
0100
0010
,  // measure 63
0100
0010
0001
1000
,  // measure 64
0010
0100
0001
1000
,  // measure 65
0001
0000
1000
0000
,  // measure 66
0001
1000
0001
1000
,  // measure 67
0020
0000
0000
0000
,  // measure 68
0000
0000
0000
0000
,  // measure 69
0130
0001
0100
0010
,  // measure 70
1000
0100
0010
0100
,  // measure 71
0000
0010
0001
0100
,  // measure 72
0010
1000
0001
1000
,  // measure 73
0000
0001
0000
1000
,  // measure 74
0000
0010
0000
0100
,  // measure 75
0010
0100
0001
1000
,  // measure 76
2002
0000
0000
0000
,  // measure 77
3003
0000
0000
0000
,  // measure 78
0010
0000
0000
0000
,  // measure 79
0010
0000
0000
0000
,  // measure 80
0100
0000
0000
0000
,  // measure 81
0100
0000
0000
0000
,  // measure 82
1001
0000
1000
0000
,  // measure 83
0002
0000
0000
0000
,  // measure 84
0103
0000
0000
0000
,  // measure 85
0100
0000
0000
0000
,  // measure 86
0010
0000
0000
0000
,  // measure 87
0010
0000
0000
0000
,  // measure 88
1000
0000
0010
0000
,  // measure 89
0100
0001
0100
0000
,  // measure 90
0001
0000
0010
0000
,  // measure 91
0100
0100
0100
0000
,  // measure 92
0010
0000
0001
0000
,  // measure 93
1000
0000
0010
0000
,  // measure 94
0100
0010
1000
0001
,  // measure 95
1000
0000
0001
0200
0000
0000
0000
0000
,  // measure 96
0300
0000
0000
0000
;

//---------------dance-single - ----------------
#NOTEDATA:;
#CHARTNAME:;
#STEPSTYPE:dance-single;
#DESCRIPTION:;
#CHARTSTYLE:;
#DIFFICULTY:Beginner;
#METER:2;
#RADARVALUES:0.130853,0.240443,0.050421,0.000000,0.000000,109.000000,103.000000,6.000000,0.000000,0.000000,0.000000,0.000000,0.000000,0.000000,0.130853,0.240443,0.050421,0.000000,0.000000,109.000000,103.000000,6.000000,0.000000,0.000000,0.000000,0.000000,0.000000,0.000000;
#CREDIT:;
#NOTES:
0000
0000
0000
0000
,
0000
0000
0000
0000
,
1000
0000
0000
0000
,
1000
0000
0000
0000
,
0001
0000
0000
0000
,
0001
0000
1000
0000
,
0001
0000
0000
0000
,
0100
0000
0000
0000
,
0010
0000
0010
0000
,
0010
0100
0000
0000
,
0000
0000
0000
0000
,
0000
0010
0000
0000
,
0000
1000
0000
0000
,
0000
0001
0000
0000
,
0000
0000
0000
0000
,
0000
1000
0000
0000
,
0000
0010
0000
0000
,
0000
0100
0000
0000
,
0000
0010
0000
0000
,
0000
1000
0000
0000
,
0000
0001
0000
0001
,
0000
1000
0000
0000
,
0000
0001
0000
0000
,
0000
0100
0000
0100
,
0000
0100
0000
0000
,
0000
0000
1001
0000
,
0000
0000
1001
0000
,
0000
0000
0110
0000
,
0000
0000
0110
0000
,
0000
1001
0000
0000
,
0000
0000
0000
0000
,
0000
0000
0000
0000
,
1000
0000
0000
0000
,
0001
0000
0000
0000
,
0100
0000
0000
0000
,
0001
0000
0000
0000
,
1000
0000
0000
0000
,
0100
0000
0000
0000
,
1000
0000
0000
0000
,
0010
0000
0000
0000
,
0100
0000
0100
0000
,
0010
0000
1000
0000
,
0001
0000
0100
0000
,
0001
0000
0000
0000
,
0000
0000
0000
0000
,
1000
0000
0001
0000
,
0100
0000
0010
0000
,
1000
0000
0000
0000
,
0000
0000
0000
0000
,
0001
0000
0000
0000
,
1000
0000
0000
0000
,
0010
0000
0000
0000
,
0100
0000
0000
0000
,
0001
0000
0001
0000
,
1000
1000
1000
0000
,
0001
0000
0000
0000
,
1000
0000
0000
0000
,
0010
0000
0000
0000
,
0100
0000
0010
0010
,
0000
0100
0000
0000
,
0010
0000
0000
0000
,
1000
0000
0000
0000
,
0001
0000
0000
0000
,
1000
0000
0000
0000
,
0001
0000
0000
0000
,
1000
0000
1000
0000
,
0001
0000
0001
0000
,
0100
0000
0000
0000
,
0000
0000
0000
0000
,
0010
0000
0000
0000
,
1000
0000
0000
0000
,
0010
0000
0000
0000
,
0100
0000
0000
0000
,
0001
0000
0000
0000
,
0010
0000
0000
0000
,
0001
0000
0001
0000
,
1000
0000
0000
0000
,
0010
0000
0000
0000
,
0100
0000
0000
0000
,
0000
0000
0000
0000
,
0000
0000
0000
0000
,
0000
0000
0000
0000
,
0010
0000
0000
0000
,
0000
0000
0000
0000
,
1000
0000
0000
0000
,
0000
0000
0000
0000
,
0000
0000
0000
0000
,
0000
0000
0000
0000
,
0001
0000
0000
0000
,
1000
0000
0000
0000
,
0010
0000
0010
0000
,
0100
0100
0100
0000
,
0001
0000
0000
0000
,
1000
0000
0000
0000
,
0010
0000
0100
0000
,
0010
0000
0000
1001
0000
0000
0000
0000
;
