#TITLE:VYZEE;
#SUBTITLE:(foxsky's DISTORT UR LIFE bootleg);
#ARTIST:SOPHIE;
#TITLETRANSLIT:;
#SUBTITLETRANSLIT:;
#ARTISTTRANSLIT:;
#GENRE:;
#CREDIT:;
#BANNER:VYZEE (foxsky's DISTORT UR LIFE bootleg).png;
#BACKGROUND:VYZEE (foxsky's DISTORT UR LIFE bootleg)-bg.png;
#LYRICSPATH:;
#CDTITLE:;
#MUSIC:VYZEE (foxsky's DISTORT UR LIFE bootleg).ogg;
#OFFSET:-0.040000;
#SAMPLESTART:41.633179;
#SAMPLELENGTH:19.200001;
#SELECTABLE:YES;
#BPMS:0.000000=150.000000
;
#STOPS:
;
#BGCHANGES:;
#KEYSOUNDS:;
#ATTACKS:;

//---------------dance-single - ----------------
#NOTES:
     dance-single:
     :
     Challenge:
     8:
     0.619346,0.685373,0.552947,0.032055,0.116199,541.000000,472.000000,69.000000,4.000000,0.000000,0.000000,0.619346,0.685373,0.552947,0.032055,0.116199,541.000000,472.000000,69.000000,4.000000,0.000000,0.000000:
// measure 0
0000
0000
0000
0000
,  // measure 1
0000
0000
0000
0000
,  // measure 2
0000
0000
0000
0000
,  // measure 3
0000
0000
0000
0000
,  // measure 4
0000
0000
0000
0000
,  // measure 5
0000
0000
0000
0000
,  // measure 6
1100
1100
1100
0110
,  // measure 7
1100
0100
0010
0001
1000
0000
1001
0000
,  // measure 8
0011
0011
0011
0110
,  // measure 9
0011
0010
0100
1000
0001
0100
0010
0100
,  // measure 10
0110
0110
0110
1010
,  // measure 11
0110
0010
1000
0100
0010
0000
1100
0000
,  // measure 12
0110
0110
0110
0011
,  // measure 13
0110
0010
0001
0100
0010
0000
0010
0100
,  // measure 14
0101
0000
0101
0000
0101
0000
0001
0010
,  // measure 15
0100
1000
1010
0010
1010
0000
1001
0000
,  // measure 16
1010
0000
1010
0000
1010
0000
1000
0100
,  // measure 17
0010
0001
0101
0100
0101
0100
0001
0010
,  // measure 18
0100
1000
0100
1000
0100
1000
0100
0010
,  // measure 19
0001
0100
0010
0010
0010
0100
0001
0010
,  // measure 20
0100
1000
0100
1000
0100
1000
0100
0100
,  // measure 21
0001
1000
0100
0100
0001
1000
0100
0100
,  // measure 22
0002
0000
0000
0000
,  // measure 23
0000
0000
0000
0000
,  // measure 24
0003
0000
0000
0000
,  // measure 25
0000
0000
0011
1100
,  // measure 26
0001
0010
1000
0001
0100
1000
0001
0010
,  // measure 27
0000
1000
0010
0001
1000
0100
0001
1000
,  // measure 28
0010
0001
1000
0010
0001
0100
1000
1000
,  // measure 29
1001
0000
0000
0000
,  // measure 30
0000
1000
0001
1000
1001
1000
1100
0000
,  // measure 31
0101
1100
0110
1001
,  // measure 32
1000
0010
1000
0001
0010
0100
1000
0010
,  // measure 33
0001
0000
0010
0000
0100
0000
1000
0000
0100
0000
0010
0000
1000
0010
1000
0000
,  // measure 34
1010
1010
0011
1100
,  // measure 35
0011
0000
0000
0000
1010
0000
0000
0000
0110
0000
0010
0100
0010
0000
0100
0000
,  // measure 36
0001
1000
0001
0000
0010
0000
0100
0000
1000
0000
0001
0000
1000
0001
1000
0001
,  // measure 37
1000
0000
1000
0010
0100
0000
1001
0000
,  // measure 38
1010
0000
0011
0000
1001
1000
1010
1000
,  // measure 39
0100
0010
1000
0010
0100
0010
0001
0010
,  // measure 40
0100
0001
0100
0010
0001
1000
0100
0010
,  // measure 41
0100
0001
1000
0001
0100
0010
0010
0010
,  // measure 42
0001
0000
0001
0000
0001
0010
0001
0000
1001
0000
0001
0000
0011
0000
0001
0000
,  // measure 43
1000
0000
0010
0000
0100
0000
0010
0000
0001
0000
0010
0000
0100
0001
0100
0000
,  // measure 44
0010
0001
0010
0100
0001
0010
0100
0001
,  // measure 45
0100
0000
1000
0000
0100
0000
0001
0000
0100
0000
1000
0100
1000
0000
0001
0000
,  // measure 46
0011
0010
0011
0010
0001
1000
0010
0000
,  // measure 47
0001
1000
0010
0001
1000
0001
0010
0100
,  // measure 48
0001
1000
0010
0001
1000
0001
0010
0100
,  // measure 49
0001
0010
0100
1000
0001
0100
0010
0000
,  // measure 50
0110
0000
1001
0000
0110
1000
1001
0000
,  // measure 51
1000
0001
0010
1000
0001
1000
0010
0100
,  // measure 52
1000
0001
1000
0000
0001
0000
0010
0000
0100
0000
1000
0000
0001
1000
0001
1000
,  // measure 53
0001
0000
0001
0100
0010
0000
1001
0000
,  // measure 54
0101
0000
1010
0000
0101
0010
1010
0000
,  // measure 55
0100
0001
1000
0100
0001
0010
0001
0100
,  // measure 56
0010
0001
1000
0100
0001
0010
0001
0100
,  // measure 57
0010
0000
0001
0000
1000
0000
0100
0000
0010
0000
0001
0000
1000
0001
1000
0001
,  // measure 58
1000
0000
1000
0001
1000
0000
1000
0000
1100
0000
0010
0000
0011
0000
0000
0000
,  // measure 59
0100
0000
1000
0000
0001
0000
0010
0000
1000
0000
0010
0000
0100
1000
0100
0000
,  // measure 60
1000
0100
0001
0010
0001
0100
1000
0010
,  // measure 61
1000
0000
0100
0000
0001
0000
0010
0000
0001
0000
0100
0000
0010
0001
0010
0001
,  // measure 62
0010
0010
0010
0010
,  // measure 63
0010
0001
0010
0100
0010
1000
0010
0010
,  // measure 64
0100
0100
0100
0100
,  // measure 65
0100
0010
0100
0001
0100
0010
0100
1000
,  // measure 66
0001
0001
0001
0001
,  // measure 67
0001
0010
0100
1000
0001
0100
1000
0100
,  // measure 68
0001
0001
0001
0001
,  // measure 69
0001
0000
0100
0000
0010
0000
1000
0000
0001
0000
0010
0000
0100
0010
0100
0010
,  // measure 70
0200
1000
0010
0001
,  // measure 71
0010
0000
0000
1000
0000
0000
0010
0000
0000
0001
0000
0000
0310
0000
0000
0000
,  // measure 72
0100
0000
0000
0000
0010
0000
0001
0000
1000
0000
0000
0001
0010
0000
0100
0000
,  // measure 73
0000
0010
0000
0010
0001
0000
0100
0000
0010
0000
0000
0010
0000
0010
0100
0000
,  // measure 74
0010
1000
0001
0010
2000
0010
3001
0000
,  // measure 75
0001
0000
1000
0000
0010
0000
0001
0000
2000
0000
0000
0001
0000
0000
0001
0000
,  // measure 76
3001
1000
0010
0001
1000
0100
0010
1000
,  // measure 77
0000
0001
0000
0001
0010
0000
0100
0000
1000
0000
0000
0000
1000
0000
0000
0000
;
