#TITLE:Shoreline;
#SUBTITLE:;
#ARTIST:Oriental ST8;
#TITLETRANSLIT:;
#SUBTITLETRANSLIT:;
#ARTISTTRANSLIT:;
#GENRE:Balearic House;
#CREDIT:;
#BANNER:[The Sampling Paradise] - Shoreline.png;
#BACKGROUND:[The Sampling Paradise] - Shoreline-bg.png;
#LYRICSPATH:;
#CDTITLE:;
#MUSIC:[The Sampling Paradise] - Shoreline.ogg;
#OFFSET:0.000000;
#SAMPLESTART:16.000000;
#SAMPLELENGTH:14.000000;
#SELECTABLE:YES;
#DISPLAYBPM:135.000000;
#BPMS:0.000000=135.000000
;
#STOPS:
;
#BGCHANGES:0.000=[The Sampling Paradise] - Shoreline.avi=1.000=0=0=0=StretchNoLoop====,
99999=-nosongbg-=1.000=0=0=0 // don't automatically add -songbackground-
;
#KEYSOUNDS:;
#ATTACKS:;

//---------------dance-single - ----------------
#NOTES:
     dance-single:
     :
     Hard:
     8:
     0.289447,0.437850,0.061814,0.068682,0.195745,295.000000,286.000000,9.000000,10.000000,0.000000,0.000000,0.289447,0.437850,0.061814,0.068682,0.195745,295.000000,286.000000,9.000000,10.000000,0.000000,0.000000:
0000
0000
0000
0000
,
0000
0000
0000
0000
,
0000
0000
0000
0000
,
0000
0000
0000
0000
,
0000
0000
0000
0000
,
1000
0000
0000
1000
0000
0000
0001
0000
0000
0001
0000
0000
0010
0000
0000
0001
,
0000
0001
0000
0100
0010
1000
0100
1000
,
0010
0000
0000
0010
0000
0000
1000
0000
0000
1000
0000
0000
0001
0000
0000
0000
,
1000
1000
0100
0100
0010
0010
0011
0000
,
1001
0000
0001
0100
0010
1000
0100
0100
,
1000
0000
0010
0100
0001
0010
0001
0001
,
1000
1000
0001
0000
1000
1000
0100
0000
,
0010
0001
1000
0000
0001
0001
0100
0001
,
0010
0010
0001
1000
1000
0001
0010
0001
,
1000
1000
0010
0100
0001
0010
0001
0001
,
1000
0000
1000
0000
0010
0010
0000
0100
0000
0000
0001
0000
0010
0000
0001
1000
,
0001
0100
0010
1000
,
1002
0000
0000
1000
0000
0000
1000
0000
0000
0100
0000
0000
1003
0000
0000
0000
,
0010
1000
0001
0100
,
0020
0000
0000
1000
0000
0000
1000
0000
0000
0100
0000
0000
0130
0000
0000
0000
,
0001
1000
0100
0001
,
0200
0000
0000
0010
0000
0000
0010
0000
0000
0001
0000
0000
1300
0000
0000
0000
,
0001
0001
0100
0010
,
0200
0000
0000
0010
0000
0000
0010
0000
0000
1000
0000
0000
0301
0000
0000
0000
,
0001
0010
1000
0100
,
0011
0000
0000
0001
0000
0000
1000
0000
0000
1000
0000
0000
0100
0000
0000
1000
,
0000
0000
0001
0000
0000
0100
0000
0000
0001
0000
0000
1000
0000
0000
0010
0000
,
0000
0001
0000
0000
0100
0000
0000
1000
0000
0000
0001
0000
0000
1000
0000
0000
,
0010
0000
0000
0010
0000
0000
0100
0000
0000
0100
0000
0000
0001
0000
0010
0000
,
0001
0000
0000
0001
0000
0000
1000
0000
0000
1000
0000
0000
0001
0000
0000
0001
,
0000
0000
0100
0000
0000
0100
0000
0000
0001
0000
0000
1000
0000
0000
0010
0000
,
0000
0001
0000
0000
0100
0000
0000
1000
0000
0000
0010
0000
0000
0100
0000
0000
,
0001
0000
0001
0000
0010
0000
0010
0000
0100
1000
0010
0000
1010
0000
0010
0000
,
0110
0010
1000
0100
1000
0001
0101
0000
,
0100
0001
0010
0001
1000
0001
0010
0001
,
1000
0100
1000
0000
0001
0100
0001
0000
1000
0001
1000
0000
0001
0010
0001
0000
,
0010
0100
0010
0000
0100
1000
0100
0000
1000
0001
1000
0010
0100
0000
0001
0000
,
0010
0000
0001
0000
1000
0000
0001
0000
0010
0000
0010
0001
0000
0000
0000
0000
,
1000
0010
0100
0001
0010
0010
0001
1000
,
0102
0000
1003
0000
1000
0010
0100
0001
,
0010
0000
0000
0010
0000
0000
0010
0000
0000
0010
0000
0000
0010
0000
0010
0000
,
0200
0000
0310
0001
1000
0001
0100
0001
,
0010
0001
1000
0001
1000
0100
0010
0001
,
1000
0100
1000
0001
1000
0010
0100
0001
,
0010
0001
0001
1000
0001
0100
0010
1000
,
0200
0000
0000
0000
1000
0000
0000
0000
1300
0000
0000
1000
0000
0001
1000
0000
,
0020
0000
0000
0000
0100
0000
0030
0000
0100
0010
0000
0010
0000
1000
0100
1000
,
0010
0000
0000
0100
0000
0100
0000
0010
0000
0000
0000
0000
0100
0000
0000
0000
,
0001
0000
0000
0100
0000
0000
1000
0000
0000
0100
0000
0000
0001
0000
1000
0000
,
2002
0000
0000
0000
,
0000
0000
0000
0000
,
3003
0000
0000
0000
;

//---------------dance-single - ----------------
#NOTES:
     dance-single:
     :
     Medium:
     6:
     0.175630,0.262710,0.048078,0.089287,0.003434,179.000000,172.000000,7.000000,13.000000,0.000000,0.000000,0.175630,0.262710,0.048078,0.089287,0.003434,179.000000,172.000000,7.000000,13.000000,0.000000,0.000000:
0000
0000
0000
0000
,
0000
0000
0000
0000
,
0000
0000
0000
0000
,
0000
0000
0000
0000
,
0000
0000
0000
0000
,
1000
0000
0000
0100
0000
0000
0100
0000
,
2000
0000
0000
3000
,
0001
0000
0000
0001
0000
0000
0100
0000
,
0002
0010
0100
1003
,
1010
0000
0010
0000
0100
0001
0100
0000
,
0011
0000
0010
0000
0100
1000
0100
0000
,
1000
0000
0010
0000
1000
1000
1000
0000
,
0001
0000
0010
0000
0001
0001
0001
0000
,
0100
0010
0100
0000
0001
0000
0001
0000
,
0010
0100
1000
0000
0001
0000
0001
0000
,
2010
0000
0000
0000
0000
0000
0000
0001
0000
0000
0000
0000
3000
0000
0000
0000
,
0100
0000
0100
0000
0100
0000
0100
0010
,
0200
0000
0000
0010
0000
0000
0301
0000
,
1000
1000
0001
0001
,
2000
0000
0000
0001
0000
0000
3010
0000
,
0100
0100
0001
1000
,
0020
0000
0000
0001
0000
0000
0130
0000
,
0010
0100
0001
0010
,
0002
0000
0000
1000
0000
0000
0103
0000
,
0100
0010
1000
0100
,
1000
0000
0000
0001
0000
0000
1000
0000
,
0000
0001
0000
0000
0010
0000
0000
0001
,
0000
0000
0100
0000
0000
0010
0000
0000
,
1000
0000
0000
0100
0000
0000
1000
0000
,
1000
0000
0000
0001
0000
0000
1000
0000
,
0000
0100
0000
0000
1000
0000
0000
0001
,
0000
0000
0100
0000
0000
0010
0000
0000
,
1000
0001
1000
0001
1000
0001
0101
0000
,
0110
0000
0100
0000
0001
1000
1000
0000
,
0100
0000
0100
0000
1000
0010
0010
0000
,
0100
0001
0100
0000
0010
0000
0010
0000
,
1000
0100
1000
0000
0001
0000
0001
0000
,
1000
0010
0100
0000
0001
0000
0001
0000
,
0010
0100
1000
0000
0001
0001
1000
0000
,
0020
0000
0100
0130
,
0001
0000
0000
0100
0000
0000
0001
0000
,
2001
0000
3010
0000
0010
0010
0100
0000
,
0100
0000
0001
0000
0010
0010
0001
0000
,
0001
1000
0001
0000
1000
0000
1000
0000
,
0010
0100
0001
0000
0100
0000
0100
0000
,
0002
0000
0000
0010
0000
0000
0003
0000
,
2000
0000
0000
0010
0000
0000
3000
0000
,
0010
0010
0100
0100
,
0001
0000
0000
0010
0000
0000
0100
1000
,
2020
0000
0000
0000
,
0000
0000
0000
0000
,
3030
0000
0000
0000
;

//---------------dance-single - ----------------
#NOTES:
     dance-single:
     :
     Easy:
     3:
     0.130496,0.175140,0.048078,0.082419,0.000000,133.000000,126.000000,7.000000,12.000000,0.000000,0.000000,0.130496,0.175140,0.048078,0.082419,0.000000,133.000000,126.000000,7.000000,12.000000,0.000000,0.000000:
0000
0000
0000
0000
,
0000
0000
0000
0000
,
0000
0000
0000
0000
,
0000
0000
0000
0000
,
0000
0000
0000
0000
,
1000
0000
0000
0010
0000
0000
0001
0000
,
0000
0000
0000
0000
,
0001
0000
0000
0100
0000
0000
1000
0000
,
0001
1000
0001
1001
,
0110
0010
1000
0000
,
0010
1000
0100
0000
,
1000
1000
0001
0000
,
1000
1000
0001
0000
,
0001
0001
0100
0000
,
0001
0001
0100
0000
,
0002
0000
0013
0000
,
0010
0001
1000
0100
,
2000
0000
0010
0000
,
0001
0000
0010
3000
,
0002
0000
0100
0000
,
0010
0000
1000
0003
,
0020
0000
0100
0000
,
1000
0000
0001
0030
,
0200
0000
0010
0000
,
0001
0000
1000
0300
,
0010
1000
0100
0000
,
1000
1000
0001
0000
,
0001
0100
0010
0000
,
1000
1000
0001
1000
,
0001
0001
0010
0000
,
0010
0001
0100
0000
,
0010
0100
0001
0000
,
0020
0000
0031
1001
,
0110
0000
0010
0000
,
0010
1000
0100
1000
,
0001
0001
1000
0000
,
1000
1000
0001
0000
,
0001
0100
0010
0010
,
0010
1000
0001
0010
,
0002
0000
2000
3003
,
0010
0000
0000
0100
0000
0000
0010
0000
,
1010
1001
0010
1000
,
0100
0100
1000
0000
,
1000
1000
0001
0000
,
0001
0001
1000
0000
,
0020
0000
0130
0000
,
0200
0000
0310
0000
,
0010
1000
0100
0010
,
0001
0001
1000
0001
,
2002
0000
0000
0000
,
0000
0000
0000
0000
,
3003
0000
0000
0000
;

//---------------dance-single - ----------------
#NOTES:
     dance-single:
     :
     Beginner:
     1:
     0.087325,0.122598,0.061814,0.041209,0.000000,89.000000,80.000000,9.000000,6.000000,0.000000,0.000000,0.087325,0.122598,0.061814,0.041209,0.000000,89.000000,80.000000,9.000000,6.000000,0.000000,0.000000:
// measure 0
0000
0000
0000
0000
,  // measure 1
0000
0000
0000
0000
,  // measure 2
0000
0000
0000
0000
,  // measure 3
0000
0000
0000
0000
,  // measure 4
0000
0000
0000
0000
,  // measure 5
1000
0000
0001
0000
,  // measure 6
1000
0000
0000
0000
,  // measure 7
0010
0000
0100
0000
,  // measure 8
0010
0000
0000
0000
,  // measure 9
1001
0000
0000
0000
,  // measure 10
1001
0000
0000
0000
,  // measure 11
0110
0000
0000
0000
,  // measure 12
0110
0000
0000
0000
,  // measure 13
1010
0000
0000
0000
,  // measure 14
0101
0000
0000
0000
,  // measure 15
0011
0000
0000
0000
,  // measure 16
1100
0000
0000
0000
,  // measure 17
1000
0000
0100
0000
,  // measure 18
0010
0000
0001
0000
,  // measure 19
1000
0000
0010
0000
,  // measure 20
0100
0000
0001
0001
,  // measure 21
0001
0000
0010
0000
,  // measure 22
0100
0000
1000
0000
,  // measure 23
0010
0000
0100
0000
,  // measure 24
0001
0000
1000
1000
,  // measure 25
1000
0000
0100
0000
,  // measure 26
1000
0000
0000
0000
,  // measure 27
0010
0000
0100
0000
,  // measure 28
0001
0000
0000
0000
,  // measure 29
0010
0000
0100
0000
,  // measure 30
1000
0000
0000
0000
,  // measure 31
0001
0000
1000
0000
,  // measure 32
0001
0001
0001
0001
,  // measure 33
1000
0000
1000
0000
,  // measure 34
1000
0000
0000
0000
,  // measure 35
0010
0010
0010
0000
,  // measure 36
0100
0100
0100
0000
,  // measure 37
0001
0000
0010
0000
,  // measure 38
0001
0000
1000
0000
,  // measure 39
0002
0000
0000
0003
,  // measure 40
0200
0000
0000
0300
,  // measure 41
0010
0010
0010
0000
,  // measure 42
1000
0000
0100
0000
,  // measure 43
1000
1000
1000
0000
,  // measure 44
0001
0001
0001
0000
,  // measure 45
0200
0000
0000
0300
,  // measure 46
0020
0000
0000
0030
,  // measure 47
0010
0000
1000
0000
,  // measure 48
0100
0000
1000
0000
,  // measure 49
2002
0000
0000
0000
,  // measure 50
0000
0000
0000
0000
,  // measure 51
3003
0000
0000
0000
;
