#TITLE:Revive The Rave;
#SUBTITLE:;
#ARTIST:void(Mournfinale);
#TITLETRANSLIT:;
#SUBTITLETRANSLIT:;
#ARTISTTRANSLIT:;
#GENRE:;
#CREDIT:;
#BANNER:;
#BACKGROUND:;
#LYRICSPATH:;
#CDTITLE:;
#MUSIC:Revive The Rave.ogg;
#OFFSET:-1.470676;
#SAMPLESTART:24.750000;
#SAMPLELENGTH:15.000000;
#SELECTABLE:YES;
#BPMS:0.000000=165.000000
,60.000000=82.500000
,62.000000=165.000000
,134.000000=82.500000
,138.000000=165.000000
,185.000000=82.500000
,200.500000=165.000000
,229.000000=82.500000
,231.000000=165.000000
,291.000000=82.500000
,293.000000=165.000000
;
#STOPS:184.000000=0.364000,
200.500000=0.182000,
293.000000=0.364000,
293.500000=0.182000,
295.500000=0.364000,
296.000000=0.182000,
298.000000=0.364000,
298.500000=0.182000,
300.500000=0.364000
;
#BGCHANGES:;
#KEYSOUNDS:;
#ATTACKS:;

//---------------dance-single - ----------------
#NOTES:
     dance-single:
     :
     Challenge:
     10:
     0.810148,1.171938,0.243915,0.312517,1.055697,744.000000,712.000000,32.000000,41.000000,0.000000,0.000000,0.810148,1.171938,0.243915,0.312517,1.055697,744.000000,712.000000,32.000000,41.000000,0.000000,0.000000:
// measure 0
0000
0000
0000
0000
,  // measure 1
0000
0000
0000
0000
,  // measure 2
0000
0000
0000
0000
,  // measure 3
0000
0000
0000
0000
,  // measure 4
0010
0000
0000
0000
0101
0000
0010
1000
0000
0000
1000
0000
1000
0000
0100
0000
,  // measure 5
0010
0000
0000
0000
1100
0000
0010
0001
0000
0000
0001
0000
0100
0000
0010
0000
,  // measure 6
1000
0000
0000
0000
0110
0000
0001
0100
0000
0000
0010
0000
0100
0000
0001
0000
,  // measure 7
1000
0000
0100
0000
0010
0000
0001
0000
0100
0010
1000
0100
0010
0000
0000
0000
,  // measure 8
0020
0000
0100
0000
0100
0000
0000
0000
1000
0000
0000
1000
0000
0000
1000
0000
,  // measure 9
0000
0000
0001
0000
0001
0000
0000
0000
0100
0000
0000
0100
0000
0000
0230
0000
,  // measure 10
0000
0000
1000
0000
1000
0000
0000
0000
0010
0000
0000
0010
0000
0000
0310
0000
,  // measure 11
0000
0000
1000
0000
1000
0000
0000
0000
0001
0010
0000
0010
0001
0000
1000
0010
,  // measure 12
0100
0000
0010
0000
0010
0000
0000
0000
1000
0000
0000
0100
1000
0000
0001
0000
,  // measure 13
0010
0000
0100
0000
0100
0000
0000
0000
0010
0000
0000
0001
1000
0000
0010
0000
,  // measure 14
0100
0000
0001
0000
0001
0000
0000
0000
1000
0000
0000
0001
0010
0000
0100
0000
,  // measure 15
1000
0000
0001
0000
1000
0010
0000
1000
0001
0010
0001
0010
0200
0000
0000
0000
1300
0000
0000
0000
0010
0000
0000
0000
0010
0000
0000
0000
1000
0000
0000
0000
,  // measure 16
0001
0000
0010
0100
0000
0010
0100
0000
1000
0000
0001
0000
0001
0000
0100
0000
,  // measure 17
0010
0000
1000
0010
0000
1000
0010
0000
1000
0000
0100
0000
0100
0000
0001
0000
,  // measure 18
0100
0000
0010
0001
0000
0010
0001
0000
1000
0001
1000
0000
0010
0000
0000
0000
,  // measure 19
0100
0010
0000
0100
0010
0000
1000
0001
1000
0000
0100
0000
0100
0000
0010
0000
,  // measure 20
0100
0000
1000
0100
0000
1000
0001
0000
0100
0000
0010
0000
0010
0000
0100
0000
,  // measure 21
0001
0000
0100
0001
0000
1000
0001
0000
0020
0000
0100
0000
0100
0000
0000
0000
,  // measure 22
0001
0000
0000
0001
0000
0000
0031
0000
1001
0000
0001
0000
0100
0000
0010
0000
,  // measure 23
1000
0010
0000
0100
0010
0000
1000
0001
1000
0100
1000
0000
0001
0000
0010
0100
,  // measure 24
0000
0010
0000
0001
0100
0001
1000
0010
0100
0001
0100
0000
0010
0000
1000
0001
,  // measure 25
0000
0010
0000
0100
1000
0000
0001
0000
1000
0000
0010
0000
0000
0000
0010
0000
,  // measure 26
0100
0000
0000
0101
0000
0000
1001
0000
0000
1000
0001
0000
0010
0000
0100
0010
,  // measure 27
0000
0010
0001
0000
1000
0001
1000
0000
0001
0010
0001
0000
0100
0000
0010
1000
,  // measure 28
0000
0100
0000
1000
0001
0010
0100
0010
0001
1000
0001
0000
0100
0000
0010
1000
,  // measure 29
0000
0001
0000
0100
1000
0000
0100
0000
0010
1000
0010
0000
0100
0000
0001
1000
,  // measure 30
0000
0001
0000
0010
0100
1000
0100
0010
0001
1000
0001
0000
0010
0000
0100
0010
,  // measure 31
0000
1000
0010
0000
0001
1000
0000
0001
0100
0000
0010
0000
0100
0000
0010
0000
,  // measure 32
1000
0001
0002
0000
1003
0001
0010
0100
,  // measure 33
1000
0000
0010
0000
0100
0000
0001
0000
1000
0010
0000
0010
0001
0010
1000
0100
,  // measure 34
0010
0000
0000
0000
0000
0000
0000
0000
0000
0000
0000
0000
0001
0000
0000
0000
0000
0000
0000
0000
0000
0000
0000
0000
0010
0000
0000
0000
0000
0000
0000
0000
0100
0000
0000
0000
0000
0000
0000
0000
1000
0000
0000
0000
0000
0000
0000
0000
0001
0000
0000
0000
0000
0000
1000
0000
0000
0000
0000
0000
0001
0000
0000
0000
0000
0000
1000
0000
0000
0000
0000
0000
0002
0000
0000
0000
0000
0000
0000
0000
0000
0000
0000
0000
0000
0000
0000
0000
0000
0000
0000
0000
0000
0000
0000
0000
1003
0000
0000
0000
0000
0000
0000
0000
0000
0000
0000
0000
0000
0000
0000
0000
0000
0000
0000
0000
0000
0000
0000
0000
0000
0000
0000
0000
0000
0000
0000
0000
0000
0000
0000
0000
0000
0000
0000
0000
0000
0000
0000
0000
0000
0000
0000
0000
0001
0000
0000
0000
0000
0000
0000
0000
0000
0000
0000
0000
0000
0000
0000
0000
0010
0000
0000
0000
0000
0000
0000
0000
0000
0000
0000
0000
0000
0000
0000
0000
0001
0000
0000
0000
0000
0000
0000
0000
0000
0000
0000
0000
0000
0000
0000
0000
,  // measure 35
0200
0000
0000
0000
0000
0000
0000
0000
0000
0320
0000
0000
0000
0000
0000
0000
0000
0000
2030
0000
0000
0000
0000
0000
0000
0000
0000
3000
0000
0000
0001
0000
0000
0000
0000
0000
0010
0000
0000
0000
0100
0000
0000
0000
0010
0000
0000
0000
,  // measure 36
0002
0000
0000
0000
0000
0000
0000
0000
0000
0203
0000
0000
0000
0000
0000
0000
0000
0000
0310
0000
0000
0000
0000
0000
2000
0000
0000
0000
0000
0000
0000
0000
0000
3000
0000
0000
0001
0000
0000
0000
0010
0000
0000
0000
0100
0000
0000
0000
,  // measure 37
0020
0000
0000
0000
0000
0000
0000
0000
0000
2030
0000
0000
0000
0000
0000
0000
0000
0000
3020
0000
0000
0000
0000
0000
0000
0000
0000
0030
0000
0000
0001
0000
0000
1000
0000
0000
0001
0000
0000
0000
0100
0000
0000
0000
0010
0000
0000
0000
,  // measure 38
0200
0000
0000
0000
0310
1000
0100
0010
0001
0000
1000
0001
0000
0100
0000
0210
,  // measure 39
0000
0000
1300
0100
0000
0001
0000
1000
0001
0010
0001
0010
0100
1000
0100
1000
,  // measure 40
0001
0000
1000
0100
0000
0010
0001
0000
1000
0000
1000
0100
1000
0000
0001
0000
,  // measure 41
0001
0010
0001
0000
1000
0010
1000
0000
0001
0000
0010
0000
1000
0000
0010
0001
,  // measure 42
0000
0100
0000
0010
1000
0000
1000
0010
0100
0000
0001
0100
0000
0001
0000
0012
,  // measure 43
0000
0000
0013
0001
0000
0010
0000
0100
1000
0001
1000
0001
0010
0100
0010
0100
,  // measure 44
1000
0000
0010
1000
0000
0001
0100
0000
0101
0000
0001
0010
0100
0000
1100
0000
,  // measure 45
1000
0010
0100
0000
0010
0100
0001
0000
0011
0000
0000
0110
0000
0000
0100
1000
,  // measure 46
0002
0000
0000
0000
0003
0000
0000
0000
1000
0000
0010
0000
0010
0000
0100
0001
0000
0100
0001
0000
0000
0000
0001
0000
0010
0000
0100
0000
0100
0000
1000
0001
,  // measure 47
0000
1000
0001
0000
0000
0000
1000
0000
0001
0000
0010
0000
0010
0000
0100
0010
0000
0100
0010
0000
0001
0000
1000
0000
0001
0000
0001
0100
0001
0000
1000
0010
,  // measure 48
0000
0100
0010
0000
0000
0000
1000
0000
0001
0000
1000
0100
1000
0000
0001
0010
0000
0010
0001
0000
0100
0000
0001
0000
1000
0000
0010
0100
0010
0000
1000
0001
,  // measure 49
0000
0001
1000
0000
0100
0000
0001
0000
0100
0000
1000
0010
0100
0000
1000
0100
0000
0100
0010
0000
1000
0000
0001
0000
0020
0000
0000
0000
0130
0000
0000
1000
,  // measure 50
0100
0000
0000
0000
0000
0000
0000
0000
0000
0000
0000
0000
0010
0000
0000
0000
0000
0000
0000
0000
0000
0000
0000
0000
0002
0003
0000
0000
0000
0000
0000
0000
0000
0000
0000
0000
0000
0000
0000
0000
0000
0000
0000
0000
0000
0000
0000
0000
1000
0000
0000
0000
0000
0000
0000
0000
0000
0000
0000
0000
0010
0000
0000
0000
0000
0000
0000
0000
0000
0000
0000
0000
1000
0000
0000
0000
0000
0000
0000
0000
0000
0000
0000
0000
0000
0000
0000
0000
0000
0000
0000
0000
0000
0000
0000
0000
0001
0000
0000
0000
0000
0000
0000
0000
0000
0000
0000
0000
0000
0000
0000
0000
0000
0000
0000
0000
0000
0000
0000
0000
1000
0000
0000
0000
0000
0000
0000
0000
0000
0000
0000
0000
0100
0000
0000
0000
0000
0000
0000
0000
0000
0000
0000
0000
0000
0000
0000
0000
0000
0000
0000
0000
0000
0000
0000
0000
1000
0000
0000
0000
0000
0000
0000
0000
0000
0000
0000
0000
0000
0000
0000
0000
0000
0000
0000
0000
0000
0000
0000
0000
0001
0000
0000
0000
0000
0000
0000
0000
0000
0000
0000
0000
,  // measure 51
0010
0001
1000
0001
0100
0001
0100
0000
0010
0000
1000
0001
0000
1000
0000
0001
,  // measure 52
0010
0000
0100
0000
1000
0001
1000
0000
0010
0000
0001
0010
0000
0100
0000
0010
,  // measure 53
0100
0010
1000
0001
1000
0100
1000
0000
0001
0000
0010
0100
0000
0010
0001
0000
,  // measure 54
1000
0001
0000
0100
0010
1000
0010
0000
0100
0000
1000
0100
0000
0010
0000
0100
,  // measure 55
0001
1000
0100
1000
0001
0010
0001
0000
1000
0000
0001
0100
0000
0010
0000
0100
,  // measure 56
1000
0000
0100
0000
0001
1000
0001
0000
0010
0000
0100
1000
0000
0001
0000
0010
,  // measure 57
0100
0000
0010
0000
0001
0000
1000
0000
0010
0000
0100
0010
0100
0000
0001
1000
0000
0000
0200
0000
0000
0000
0310
0000
0002
0000
0000
0000
1000
0000
0000
0000
,  // measure 58
1000
0000
0000
0000
0010
0000
0000
1000
0000
0000
0013
0000
0020
0000
0001
0000
,  // measure 59
0001
0000
0000
0000
0100
0000
0000
1000
0000
0000
0130
0000
0200
0000
0010
0000
,  // measure 60
0010
0000
0000
0000
1000
0000
0000
0001
0000
0000
1300
0000
2000
0000
0100
0000
,  // measure 61
0100
0000
0000
0000
3001
1000
0000
1000
0001
0000
0010
0001
0100
0000
0010
0000
,  // measure 62
0110
0000
0000
0000
1010
0000
0000
0100
0001
0000
1000
0000
1001
0000
0001
0000
,  // measure 63
0011
0000
0000
0000
0110
0000
0000
1000
0100
0000
0010
0000
0011
0000
0001
0000
,  // measure 64
1001
0000
1000
0000
1010
0000
0010
0000
0110
0000
0100
0000
0001
0100
0010
1000
,  // measure 65
0100
0010
0001
1000
0200
0000
0000
0000
0310
0001
0100
0010
1000
0000
0001
0100
,  // measure 66
0000
0100
0010
0000
0100
0000
0001
0010
0100
1000
0010
0100
0001
0000
1000
0010
,  // measure 67
0000
0010
0100
0000
0010
0000
1000
0100
0010
0001
0100
0010
1000
0000
0001
0000
,  // measure 68
0010
0100
0000
0010
1000
0000
0010
0100
0000
0010
0001
0000
1000
0001
0200
0000
,  // measure 69
1300
0000
0000
0000
0000
0000
0200
0000
0000
0000
0000
0000
0301
0000
0000
0010
0000
0000
0100
0000
0000
1000
0000
0000
0001
0000
0000
0100
0000
0000
0010
0000
0000
1000
0000
0000
0100
0000
0000
0000
0100
0000
0000
0000
1000
0000
0000
0000
,  // measure 70
0100
0010
0001
1000
0010
0000
1000
0001
0000
0100
0001
0100
0010
0000
1010
0000
,  // measure 71
0001
1000
0100
0000
0010
0001
0100
0010
1000
0100
0010
0001
1000
0000
1000
0000
,  // measure 72
0010
0000
0010
0000
0101
0000
0000
0011
0000
0000
0110
0000
2000
0001
0001
0000
,  // measure 73
3010
0000
0000
0000
0000
0000
0100
0000
0000
0000
0000
0000
0000
0000
0000
0000
0000
0000
0100
0000
0000
0000
0000
0000
0010
0000
0000
0000
0000
0000
0000
0000
0000
0000
0000
0000
1000
0000
0000
0000
0000
0000
0000
0000
0000
0000
0000
0000
0202
0003
0000
0000
0000
0000
0000
0000
0000
0000
0000
0000
0000
0000
0000
0000
0000
0000
0000
0000
0000
0000
0000
0000
2000
0000
0000
3000
0000
0000
0000
0000
0000
0000
0000
0000
0000
0000
0000
0000
0000
0000
0000
0000
0000
0000
0000
0000
0310
0000
0000
0000
0000
0000
0000
0000
0000
0000
0000
0000
0000
0000
0000
0000
0000
0000
0000
0000
0000
0000
0000
0000
1000
0000
0000
0000
0000
0000
0000
0000
0000
0000
0000
0000
0000
0000
0000
0000
0000
0000
0000
0000
0000
0000
0000
0000
0100
0000
0000
0000
0000
0000
0000
0000
0000
0000
0000
0000
0000
0000
0000
0000
0000
0000
0000
0000
0000
0000
0000
0000
0210
0000
0000
0000
0000
0000
0000
0000
0000
0000
0000
0000
0000
0000
0000
0000
0000
0000
0000
0000
0000
0000
0000
0000
,  // measure 74
0002
0003
0000
0000
0000
0000
0000
0000
1300
0000
0000
0000
0000
0000
0000
0000
0001
0000
0000
0000
0000
0000
0000
0000
0100
0000
0000
0000
0000
0000
0000
0000
0120
0000
0000
0000
0000
0000
0000
0000
0002
0003
0000
0000
0000
0000
0000
0000
1030
0000
0000
0000
0000
0000
0000
0000
0100
0000
0000
0000
0000
0000
0000
0000
,  // measure 75
0010
0000
0000
0000
0000
0000
0000
0000
0220
0330
0000
0000
0000
0000
0000
0000
0001
0000
0000
0000
0100
0000
0000
0000
0010
0000
0000
0000
0000
0000
0000
0000
0000
0000
0000
0000
1100
0000
0000
0000
0000
0000
0000
0000
0000
0000
0000
0000
0011
0000
0000
0000
0000
0000
0000
0000
2002
0000
0000
0000
0000
0000
0000
0000
,  // measure 76
0000
0000
0000
0000
0000
0000
0000
3003
;

//---------------dance-single - ----------------
#NOTES:
     dance-single:
     :
     Hard:
     9:
     0.554254,0.703163,0.091468,0.396363,0.369684,509.000000,497.000000,12.000000,52.000000,0.000000,0.000000,0.554254,0.703163,0.091468,0.396363,0.369684,509.000000,497.000000,12.000000,52.000000,0.000000,0.000000:
// measure 0
0000
0000
0000
0000
,  // measure 1
0000
0000
0000
0000
,  // measure 2
0000
0000
0000
0000
,  // measure 3
0000
0000
0000
0000
,  // measure 4
1010
0000
0000
0001
0000
1000
0100
0010
,  // measure 5
0001
0000
0000
1000
0000
0001
0100
0010
,  // measure 6
1000
0000
0000
0010
0000
1000
0100
0010
,  // measure 7
0001
0000
0100
0000
0010
0000
1000
0000
0001
1000
0001
1000
0001
0000
0000
0000
,  // measure 8
2000
0000
0000
0000
0000
3010
1000
0002
,  // measure 9
0000
0000
0020
0003
0000
0000
0230
0000
,  // measure 10
0320
0000
0000
0002
0030
0000
2003
0000
,  // measure 11
3020
0000
0000
0200
0030
0000
0301
0000
,  // measure 12
1000
1000
0100
0100
,  // measure 13
0010
0010
0001
0001
,  // measure 14
1000
0010
0100
0001
,  // measure 15
2000
0000
0000
3001
0010
0100
0010
0000
,  // measure 16
0001
0000
0000
1000
0000
0000
0001
0000
0100
0000
0010
0000
0100
0000
0000
0000
,  // measure 17
0001
0000
0000
1000
0000
0000
0001
0000
0010
0000
0100
0000
0010
0000
0000
0000
,  // measure 18
0001
0000
0000
0010
0000
0000
0001
0000
1000
0001
1000
0000
0001
0000
0000
0000
,  // measure 19
1000
0010
0000
1000
0010
0000
1000
0000
0001
0000
0100
0000
1000
0000
0000
0000
,  // measure 20
0100
0000
0000
0010
0000
0000
0100
0000
0001
0000
0010
0000
1000
0000
0000
0000
,  // measure 21
0010
0000
0000
0100
0000
0000
0010
0000
0002
0000
1000
0000
1000
0000
0000
0000
,  // measure 22
1000
0000
0000
1000
0000
0000
1003
0000
0001
0000
0100
0000
1000
0000
0100
0000
,  // measure 23
0001
0010
0000
0001
0010
0000
0001
0000
1000
0001
1000
0000
0001
0000
0100
0000
,  // measure 24
0010
0000
1000
0000
0001
0000
0001
0000
1000
0100
1000
0000
0100
0000
0010
0000
,  // measure 25
0001
1000
0001
0001
0100
0010
0000
0010
,  // measure 26
1000
0000
0000
0001
0000
0000
1000
0000
0000
0001
0100
0000
0001
0000
1000
0001
,  // measure 27
0000
1000
0001
0000
0001
1000
0001
0000
1000
0100
1000
0000
0010
0000
0100
0000
,  // measure 28
0001
0000
0010
0000
1000
0000
0010
0000
0001
0100
0001
0000
0100
0000
0010
0000
,  // measure 29
1000
0000
0100
0000
0001
0000
0100
0000
1000
0010
1000
0000
0010
0000
0100
0000
,  // measure 30
0001
0000
0010
0000
1000
0000
0010
0000
0001
1000
0001
0000
0100
0000
0010
1000
,  // measure 31
0000
1000
0001
0000
0001
0100
0000
0100
0010
0000
1000
0000
0000
0000
1000
0000
,  // measure 32
0000
0001
2000
0000
3000
0001
0010
0100
,  // measure 33
1000
0000
0100
0000
0010
0000
0001
0000
1001
0000
0000
0001
0100
0000
0000
0000
,  // measure 34
0001
0000
0000
0000
0000
0000
0000
0000
0000
0000
0000
0000
0000
0000
0000
0000
0000
0000
0010
0000
0000
0000
0000
0000
0000
0000
0000
0000
0000
0000
0000
0000
0000
0000
0000
0000
0100
0000
0000
0000
0000
0000
0000
0000
0000
0000
0000
0000
0010
0000
0000
0000
0000
0000
0000
0000
0000
0000
0000
0000
0000
0000
0000
0000
0000
0000
0000
0000
0000
0000
0000
0000
1001
0000
0000
0000
0000
0000
0000
0000
0000
0000
0000
0000
0000
0000
0000
0000
0000
0000
0000
0000
0000
0000
0000
0000
1000
0000
0000
0000
0000
0000
0000
0000
0000
0000
0000
0000
0000
0000
0000
0000
0000
0000
0000
0000
0000
0000
0000
0000
0000
0000
0000
0000
0000
0000
0000
0000
0000
0000
0000
0000
0000
0000
0000
0000
0000
0000
0000
0000
0000
0000
0000
0000
0001
0000
0000
0000
0000
0000
0000
0000
0000
0000
0000
0000
0000
0000
0000
0000
0010
0000
0000
0000
0000
0000
0000
0000
0000
0000
0000
0000
0000
0000
0000
0000
0001
0000
0000
0000
0000
0000
0000
0000
0000
0000
0000
0000
0000
0000
0000
0000
,  // measure 35
1000
0000
0000
0000
0000
0000
0000
0000
0000
0010
0000
0000
0000
0000
0000
0000
0000
0000
0200
0000
0000
0000
0000
0000
0000
0000
0000
0000
0000
0000
0310
0000
0000
0000
0000
0000
1000
0000
0000
0000
0100
0000
0000
0000
1000
0000
0000
0000
,  // measure 36
0001
0000
0000
0000
0000
0000
0000
0000
0000
0010
0000
0000
0000
0000
0000
0000
0000
0000
0100
0000
0000
0000
0000
0000
1000
0000
0000
0000
0000
0000
0000
0000
0000
0000
0000
0000
0001
0000
0000
0000
1000
0000
0000
0000
0001
0000
0000
0000
,  // measure 37
1000
0000
0000
0000
0000
0000
0000
0000
0000
0010
0000
0000
0000
0000
0000
0000
0000
0000
0200
0000
0000
0000
0000
0000
0000
0000
0000
0000
0000
0000
0301
0000
0000
0000
0000
0000
0100
0000
0000
0000
0010
0000
0000
0000
1000
0000
0000
0000
,  // measure 38
0002
0000
0000
0000
0003
0000
0000
0000
1000
0000
0001
0100
0000
0001
0000
0100
,  // measure 39
0000
0000
0010
1000
0000
0001
0000
1000
0100
0000
0010
0000
0100
0000
1000
0000
,  // measure 40
0010
0000
0000
0100
0000
0000
0010
0000
1000
0000
0100
1000
0100
0000
0010
0000
,  // measure 41
0001
0010
0001
0000
1000
0000
0001
0000
0100
0000
0010
0000
1000
0000
0001
0100
,  // measure 42
0000
0010
0000
1000
0000
0000
0000
0000
0001
0000
1000
0001
0000
1000
0000
0001
,  // measure 43
0000
0000
0001
0010
0000
0001
0000
1000
0001
0000
1000
0000
0010
0000
0100
0000
,  // measure 44
0001
0000
0000
1000
0000
0000
0001
0000
0010
0000
0100
1000
0100
0000
0010
0000
,  // measure 45
0001
0100
0001
0000
1000
0100
1000
0000
0001
0000
0000
0010
0000
0000
0100
0000
,  // measure 46
1000
2000
0000
3200
,  // measure 47
0000
0320
0000
0032
,  // measure 48
0000
0000
2003
0100
0001
0010
3020
0100
,  // measure 49
0001
0100
2030
0010
0001
0100
3100
0010
,  // measure 50
0001
0000
0000
0000
1000
0000
0000
0000
0002
0003
0000
0000
0000
0000
0000
0000
1000
0000
0000
0000
0100
0000
0000
0000
1000
0000
0000
0000
0000
0000
0000
0000
0100
0000
0000
0000
0000
0000
0000
0000
0010
0000
0000
0000
0000
0000
0000
0000
0001
0000
0000
0000
0000
0000
0000
0000
1000
0000
0000
0000
0000
0000
0000
0000
,  // measure 51
0020
0000
0130
0000
0001
1000
0001
0000
0010
0000
1000
0000
0010
0000
0001
0000
,  // measure 52
0002
0000
1003
0000
0010
0100
0010
0000
2000
0000
3001
0000
0010
0000
0100
0000
,  // measure 53
0020
0000
0031
0000
1000
0100
2000
0000
3010
0000
0200
0000
0302
0000
0003
2000
,  // measure 54
0000
3000
0200
0000
0310
0001
1000
0000
0010
0000
0100
0000
0010
0000
1000
0000
,  // measure 55
0002
0000
0013
0000
0100
1000
0001
0000
1000
0000
0010
0000
0100
0000
0001
0000
,  // measure 56
0002
0000
0013
0000
0100
1000
0001
0000
0020
0000
0031
0000
0100
0000
0010
0000
,  // measure 57
2000
0000
0000
0000
3001
0000
0000
0000
1000
0000
1000
0000
0100
0000
0000
0010
0000
0000
0001
0000
0000
0000
1000
0000
0002
0000
0000
0000
0000
0000
0000
0000
,  // measure 58
0000
0000
0003
1000
0001
0020
0000
0000
,  // measure 59
0230
0000
2300
3002
,  // measure 60
0000
0203
0000
0000
0320
0000
2030
0000
,  // measure 61
0000
3002
0000
0000
1003
0000
0001
0000
,  // measure 62
0001
0000
1000
0010
0100
0020
1000
0000
,  // measure 63
2030
0000
3002
0000
0023
0000
0130
1000
,  // measure 64
0100
0000
0010
0000
0001
0000
0010
0000
0001
0000
0100
0000
0010
1000
0010
0000
,  // measure 65
0100
0010
0100
0000
0002
0000
0000
0000
1003
0000
0000
0000
0001
0000
0010
0001
,  // measure 66
0000
0001
0010
0000
0001
0000
0100
0000
0010
0000
1000
0000
0001
0000
1000
0100
,  // measure 67
0000
0100
1000
0000
0010
0000
0100
0000
0001
0000
1000
0000
0001
0000
0010
0000
,  // measure 68
0000
0100
0000
0000
1000
0000
0000
0001
0000
0000
1000
0000
0010
0000
0100
0000
,  // measure 69
0000
0000
0000
0101
0000
0000
1000
0000
0000
0100
0000
0000
0010
0000
0000
0001
0000
0000
1000
0000
0100
0000
1000
0000
,  // measure 70
0100
0000
0010
0000
0001
0000
1000
0001
0000
0001
0100
0000
0010
0000
1000
0000
,  // measure 71
0001
0000
0010
0000
0100
0010
0100
0010
0001
0000
1000
0000
0001
0000
0010
0000
,  // measure 72
1000
0000
0010
0000
0001
0000
0000
0001
0000
0000
1000
0000
0000
0001
0001
0000
,  // measure 73
1000
0000
0000
0001
0000
0000
1000
0000
0110
0000
0000
0000
0110
0000
0000
0000
1000
0000
0000
0000
0100
0000
0000
0000
0010
0000
0000
0000
1001
0000
0000
0000
,  // measure 74
1001
0001
0100
0010
0110
0110
1000
0100
,  // measure 75
0010
0000
1001
0000
0001
0000
0100
0000
0000
0010
0000
0000
1000
0000
2002
0000
,  // measure 76
0000
0000
0000
0000
0000
0000
0000
3003
;

//---------------dance-double - ----------------
#NOTES:
     dance-double:
     :
     Challenge:
     10:
     0.781836,1.171938,0.121958,0.343006,1.036641,718.000000,702.000000,16.000000,45.000000,0.000000,0.000000,0.781836,1.171938,0.121958,0.343006,1.036641,718.000000,702.000000,16.000000,45.000000,0.000000,0.000000:
00000000
00000000
00000000
00000000
,
00000000
00000000
00000000
00000000
,
00000000
00000000
00000000
00000000
,
00000000
00000000
00000000
00000000
,
20100000
00000000
30000000
00000000
01000000
00000000
00100000
00001000
00000000
00000000
00010000
00000000
00010000
00000000
00000100
00000000
,
00000110
00000000
00000000
00000000
00000001
00000000
00000100
00001000
00000000
00000000
00010000
00000000
00100000
00000000
10000000
00000000
,
10010000
00000000
00000000
00000000
00010000
00000000
00001000
00000100
00000000
00000000
00000010
00000000
00000001
00000000
00000100
00000000
,
00001000
00000000
00010000
00000000
01000000
00000000
10000000
00000000
00100000
01000000
00010000
00100000
00001000
00000000
00000000
00000000
,
00020000
00000000
00000000
00000000
00000000
00030100
00000010
00000002
,
00000000
00000203
00000000
00002300
,
02003000
00000000
00000000
03200000
00000000
00000000
20300000
00000000
,
32000000
00000000
00000000
03020000
00000000
00000000
00030100
00000000
,
00000010
00000000
00000001
00000000
00000100
00000000
00000000
00000000
00001000
00000000
00000000
00010000
01000000
00000000
10000000
00000000
,
00100000
00000000
01000000
00000000
00010000
00000000
00000000
00000000
00100000
00000000
00000000
01000000
00010000
00000000
00001000
00000000
,
00000010
00000000
00000001
00000000
00000100
00000000
00000000
00000000
00000010
00000000
00000000
00001000
00000100
00000000
00010000
00000000
,
00001000
00000000
01000000
00000000
00100000
10000000
00000000
01000000
00100000
00010000
00100000
00001000
00020000
00000000
00000000
00000000
00030100
00000000
00000000
00000000
00000010
00000000
00000000
00000000
00000010
00000000
00000000
00000000
00001000
00000000
00000000
00000000
,
00000100
00000000
00000010
00000001
00000000
00000010
00000001
00000000
00000100
00000000
00000010
00000000
00000010
00000000
00000001
00000000
,
00000100
00000000
00001000
00010000
00000000
00001000
00010000
00000000
01000000
00000000
00100000
00000000
00100000
00000000
10000000
00000000
,
01000000
00000000
00100000
00001000
00000000
00100000
00001000
00000000
00001000
00000010
00000100
00000000
00000110
00000000
00000000
00000000
,
00000001
00001000
00000000
00001000
00010000
00000000
00010000
10000000
00100000
00000000
01000000
00000000
01000000
00000000
10000000
00000000
,
00100000
00000000
00010000
00001000
00000000
00010000
00001000
00000000
00000100
00000000
00000001
00000000
00000001
00000000
00000010
00000000
,
00001000
00000000
00000100
00000010
00000000
00000100
00000010
00000000
00000001
00000000
00001000
00000000
00001000
00000000
00010000
00000000
,
01000000
00000000
00100000
01000000
00000000
00100000
01000000
00000000
10010000
00000000
10000000
00000000
00010000
00000000
00010000
00000000
,
10000000
00010000
00000000
00010000
00001000
00000000
00001000
00000001
00000010
00000100
00000010
00000000
00000001
00000000
00000100
00000010
,
00000000
00001000
00000000
00000001
00000100
00000010
00001000
00000001
00000010
00000100
00000010
00000000
00001000
00000000
00000010
00000100
,
00000000
00010000
00000000
00001000
00000100
00000000
00001000
00000000
00020000
00000000
00100000
00000000
00000000
00000000
00031000
00000000
,
00000100
00000000
00000000
00000001
00000000
00000000
00000010
00000000
00000000
00000100
00001000
00000000
00010000
00000000
00100000
01000000
,
00000000
10000000
01000000
00000000
00100000
00001000
00010000
00000000
00001000
01000000
00010000
00000000
10000000
00000000
00100000
01000000
,
00000000
00010000
00000000
10000000
01000000
00100000
00010000
00100000
00001000
00010000
00001000
00000000
00000100
00000000
00001000
00010000
,
00000000
00000100
00000000
00000010
00000001
00000000
00001000
00000000
00000010
00000100
00000010
00000000
00001000
00000000
00000001
00000100
,
00000000
00001000
00000000
00010000
00001000
00010000
01000000
00010000
00001000
00010000
00001000
00000000
01000000
00000000
00100000
10000000
,
00000000
00010000
00100000
00000000
01000000
00010000
00000000
00001000
00010000
00000000
00000100
00000000
00010000
00000000
00000100
00000000
,
00000010
00000001
00000200
00000000
00001300
00010000
01000000
00100000
,
00001000
00000000
01000000
00000000
00100000
00000000
10000000
00000000
01000000
00100000
00000000
00100000
00010000
00001000
00000100
00000001
,
00000010
00000000
00000000
00000000
00000000
00000000
00000000
00000000
00000000
00000000
00000000
00000000
00001000
00000000
00000000
00000000
00000000
00000000
00000000
00000000
00000000
00000000
00000000
00000000
00010000
00000000
00000000
00000000
00000000
00000000
00000000
00000000
01000000
00000000
00000000
00000000
00000000
00000000
00000000
00000000
10000000
00000000
00000000
00000000
00000000
00000000
00000000
00000000
00100000
00000000
00000000
00000000
00000000
00000000
01000000
00000000
00000000
00000000
00000000
00000000
00100000
00000000
00000000
00000000
00000000
00000000
01000000
00000000
00000000
00000000
00000000
00000000
00020000
00000000
00000000
00000000
00000000
00000000
00000000
00000000
00000000
00000000
00000000
00000000
00000000
00000000
00000000
00000000
00000000
00000000
00000000
00000000
00000000
00000000
00000000
00000000
10030000
00000000
00000000
00000000
00000000
00000000
00000000
00000000
00000000
00000000
00000000
00000000
00000000
00000000
00000000
00000000
00000000
00000000
00000000
00000000
00000000
00000000
00000000
00000000
00000000
00000000
00000000
00000000
00000000
00000000
00000000
00000000
00000000
00000000
00000000
00000000
00000000
00000000
00000000
00000000
00000000
00000000
00000000
00000000
00000000
00000000
00000000
00000000
01000000
00000000
00000000
00000000
00000000
00000000
00000000
00000000
00000000
00000000
00000000
00000000
00000000
00000000
00000000
00000000
00010000
00000000
00000000
00000000
00000000
00000000
00000000
00000000
00000000
00000000
00000000
00000000
00000000
00000000
00000000
00000000
00001000
00000000
00000000
00000000
00000000
00000000
00000000
00000000
00000000
00000000
00000000
00000000
00000000
00000000
00000000
00000000
,
00000020
00000000
00000000
00000000
00000000
00000000
00000000
00000000
00000000
00000032
00000000
00000000
00000000
00000000
00000000
00000000
00000000
00000000
00000203
00000000
00000000
00000000
00000000
00000000
00000000
00000000
00000000
00000000
00000000
00000000
00000301
00000000
00000000
00000000
00000000
00000000
00000100
00000000
00000000
00000000
00001000
00000000
00000000
00000000
00010000
00000000
00000000
00000000
,
00200000
00000000
00000000
00000000
00000000
00000000
00000000
00000000
00000000
20300000
00000000
00000000
00000000
00000000
00000000
00000000
00000000
00000000
32000000
00000000
00000000
00000000
00000000
00000000
03100000
00000000
00000000
00000000
00000000
00000000
00000000
00000000
00000000
00000000
00000000
00000000
01000000
00000000
00000000
00000000
00010000
00000000
00000000
00000000
00001000
00000000
00000000
00000000
,
00000200
00000000
00000000
00000000
00000000
00000000
00000000
00000000
00000000
00000302
00000000
00000000
00000000
00000000
00000000
00000000
00000000
00000000
00000023
00000000
00000000
00000000
00000000
00000000
00000000
00000000
00000000
00000000
00000000
00000000
00000031
00000000
00000000
00001000
00000000
00000000
00000010
00000000
00000000
00000000
00000100
00000000
00000000
00000000
00001000
00000000
00000000
00000000
,
00020000
00000000
00000000
00000000
01030000
10000000
01000000
10000000
00100000
00000000
00010000
00001000
00000000
00000100
00000000
00000201
,
00000000
00000000
00000301
00001000
00000000
00000001
00000000
00000100
00000010
00001000
00000010
00001000
00000100
00010000
00000100
00010000
,
00001000
00000000
00100000
00010000
00000000
00010000
10000000
00000000
00100000
00000000
00100000
01000000
00100000
00000000
00010000
00000000
,
00010000
00001000
00010000
00000000
00000100
00001000
00000100
00000000
00000001
00000000
00000100
00000000
00001000
00000000
00000001
00000100
,
00000000
00001000
00000000
00010000
00000000
00010000
00001000
00010000
01000000
00000000
10000000
00100000
00000000
01000000
00000000
02010000
,
00000000
00000000
03100000
10000000
00000000
00010000
00000000
10000000
01000000
00100000
01000000
00100000
00001000
00010000
00001000
00010000
,
00000100
00000000
00000010
00000001
00000000
00000001
00001000
00000000
00000001
00000000
00000100
00001000
00010000
00000000
01000000
00000000
,
00010000
00001000
00000100
00000000
00000001
00000010
00000100
00000000
00001100
00000000
00000000
00011000
00000000
00000000
00010000
00100000
,
20000000
00000000
00000000
00000000
30000000
00000000
00000000
00000000
00010000
00000000
00100000
00000000
00100000
00000000
10000000
00010000
00000000
10000000
00010000
00000000
00000000
00000000
00010000
00000000
10000000
00000000
00100000
00000000
00100000
00000000
00010000
10000000
,
00000000
00010000
10000000
00000000
00000000
00000000
01000000
00000000
00100000
00000000
00001000
00010000
00001000
00000000
00010000
00000100
00000000
00010000
00000100
00000000
00000010
00000000
00000100
00000000
00001000
00000000
00000001
00000100
00000001
00000000
00001000
00000010
,
00000000
00000100
00000010
00000000
00000000
00000000
00001000
00000000
00000001
00000000
00000010
00000100
00000010
00000000
00000100
00010000
00000000
00000100
00010000
00000000
00001000
00000000
00000100
00000000
00001000
00000000
00010000
00001000
00010000
00000000
00001000
00100000
,
00000000
00001000
00100000
00000000
01000000
00000000
00100000
00000000
00010000
00000000
10000000
00100000
10000000
00000000
00100000
00010000
00000000
00001000
00010000
00000000
01000000
00000000
00010000
00000000
00002000
00000000
00000000
00000000
00003100
00000000
00000000
00000001
,
00000010
00000100
00020000
00030000
00001000
01000000
00001000
00000000
00010000
00000000
01000000
10000000
00000000
00100000
00000000
01000000
,
00010000
00100000
01000000
00100000
00001000
00010000
00001000
00000000
00000100
00000000
00000001
00000010
00000000
00000100
00000000
00001000
,
00000010
00000000
00000100
00000000
00001000
00010000
00001000
00000000
00010000
00000000
00000100
00000010
00000000
00000001
00000000
00000100
,
00000010
00001000
00000100
00000010
00000100
00010000
00000100
00000000
00001000
00000000
00000010
00000100
00000000
00000100
00001000
00000000
,
00001000
00010000
00000000
00010000
01000000
00100000
01000000
00000000
00100000
00000000
00010000
10000000
00000000
00100000
00000000
01000000
,
00100000
00010000
00001000
00100000
00001000
00010000
00001000
00000000
00000100
00000000
00000001
00001000
00000000
00000001
00000000
00000010
,
00000100
00000000
00010000
00000000
00000100
00000010
00000001
00000000
00010000
00000000
00000010
00000100
00000000
00001000
00000000
00010000
,
01000000
00000000
00100000
00000000
00010000
00000000
10000000
00000000
00010000
00000000
10000000
01000000
00100000
00000000
00001000
00010000
00000000
00000000
00000200
00000000
00000000
00000000
00000320
00000000
00000032
00000000
00000000
00000000
00000010
00000000
00000000
00000000
,
00000010
00000000
00000000
00000000
00000100
00000000
00000000
00001000
00000000
00000000
00000103
00000000
00000200
00000000
00000010
00000000
,
00000010
00000000
00000000
00000000
00001000
00000000
00000000
00000010
00000000
00000000
00001000
00000000
00002300
00000000
00100000
00000000
,
00100000
00000000
00000000
00000000
00010000
00000000
00000000
01000000
00000000
00000000
00010000
00000000
00023000
00000000
00001000
00000000
,
00001000
00000000
00000000
00000000
01030000
00010000
00000000
00001000
00010000
00000000
01000000
10000000
01000000
00000000
00100000
00000000
,
00001000
00000000
00010000
00000100
00000010
00000000
00000001
00000100
,
00001000
00000000
00010000
00100000
10000000
00000000
01000000
00100000
,
00010000
00000000
00100000
00000000
00001000
00000000
00000100
00000000
00000010
00000000
00001000
00000000
00000001
00000010
00000100
00001000
,
00000010
00000100
00001000
00010000
00002000
00000000
00000000
00000000
00013000
00100000
00010000
00100000
01000000
00000000
00010000
10000000
,
00000000
10000000
01000000
00000000
00100000
00000000
00010000
00100000
00001000
00010000
00000100
00001000
00000001
00000000
00000010
00000100
,
00000000
00000100
00001000
00000000
00000001
00000000
00000100
00000010
00001000
00000100
00010000
00001000
00100000
00000000
00010000
00000000
,
01000000
00100000
00000000
10000000
01000000
00000000
00100000
00001000
00000000
00010000
00001000
00000000
00000100
00000000
00000002
00000000
,
00000013
00000000
00000000
00000000
00000000
00000000
00000200
00000000
00000000
00000000
00000000
00000000
00001300
00000000
00000000
00000001
00000000
00000000
00000100
00000000
00000000
00000010
00000000
00000000
00001000
00000000
00000000
00000100
00000000
00000000
00000010
00000000
00000000
00000001
00000000
00000000
00001000
00000000
00000000
00000000
00000010
00000000
00000000
00000000
00001000
00000000
00000000
00000000
,
00000010
00000100
00001000
00010000
00001000
00000000
01000000
00010000
00000000
10000000
00100000
01000000
00100000
00000000
10000000
00000000
,
01000000
00010000
00001000
00000000
00010000
00000100
00000010
00000001
00000100
00000010
00001000
00000001
00000100
00000000
00001000
00000000
,
00010000
00000000
01000000
00000000
01100000
00000000
00000000
11000000
00000000
00000000
01010000
00000000
10000000
00100000
00100000
00000000
,
10000000
00000000
00000000
00000000
00000000
00000000
00010000
00000000
00000000
00000000
00000000
00000000
00000000
00000000
00000000
00000000
00000000
00000000
10000000
00000000
00000000
00000000
00000000
00000000
00010000
00000000
00000000
00000000
00000000
00000000
00000000
00000000
00000000
00000000
00000000
00000000
10000000
00000000
00000000
00000000
00000000
00000000
01000000
00000000
00000000
00000000
00000000
00000000
00200000
00000000
00000000
00000000
00000000
00000000
00000000
00000000
00000000
00000000
00000000
00000000
00000000
00000000
00000000
00000000
00000000
00000000
00000000
00000000
00000000
00000000
00000000
00000000
00001000
00000000
00000000
00000000
00000000
00000000
00000000
00000000
00000000
00000000
00000000
00000000
00000000
00000000
00000000
00000000
00000000
00000000
00000000
00000000
00000000
00000000
00000000
00000000
01300000
00000000
00000000
00000000
00000000
00000000
00000000
00000000
00000000
00000000
00000000
00000000
00000000
00000000
00000000
00000000
00000000
00000000
00000000
00000000
00000000
00000000
00000000
00000000
00100000
00000000
00000000
00000000
00000000
00000000
00000000
00000000
00000000
00000000
00000000
00000000
00000000
00000000
00000000
00000000
00000000
00000000
00000000
00000000
00000000
00000000
00000000
00000000
00001000
00000000
00000000
00000000
00000000
00000000
00000000
00000000
00000000
00000000
00000000
00000000
00000000
00000000
00000000
00000000
00000000
00000000
00000000
00000000
00000000
00000000
00000000
00000000
00022000
00030000
00000000
00000000
00000000
00000000
00000000
00000000
00000000
00000000
00000000
00000000
00000000
00000000
00000000
00000000
00000000
00000000
00000000
00000000
00000000
00000000
00000000
00000000
,
00000100
00000000
00000000
00000000
00000000
00000000
00000000
00000000
00000000
00000000
00000000
00000000
00000000
00000000
00000000
00000000
00000000
00000000
00000000
00000000
00000000
00000000
00000000
00000000
00013000
00000000
00000000
00000000
00000000
00000000
00000000
00000000
00000000
00000000
00000000
00000000
00000000
00000000
00000000
00000000
00000000
00000000
00000000
00000000
00000000
00000000
00000000
00000000
00000100
00000000
00000000
00000000
00000000
00000000
00000000
00000000
00000000
00000000
00000000
00000000
00000000
00000000
00000000
00000000
00000000
00000000
00000000
00000000
00000000
00000000
00000000
00000000
00000010
00000000
00000000
00000000
00000000
00000000
00000000
00000000
00000000
00000000
00000000
00000000
00000000
00000000
00000000
00000000
00000000
00000000
00000000
00000000
00000000
00000000
00000000
00000000
00000022
00000003
00000000
00000000
00000000
00000000
00000000
00000000
00000000
00000000
00000000
00000000
00000000
00000000
00000000
00000000
00000000
00000000
00000000
00000000
00000000
00000000
00000000
00000000
00001000
00000000
00000000
00000000
00000000
00000000
00000000
00000000
00000000
00000000
00000000
00000000
00000000
00000000
00000000
00000000
00000000
00000000
00000000
00000000
00000000
00000000
00000000
00000000
00000031
00000000
00000000
00000000
00000000
00000000
00000000
00000000
00000000
00000000
00000000
00000000
00000000
00000000
00000000
00000000
00000000
00000000
00000000
00000000
00000000
00000000
00000000
00000000
00000100
00000000
00000000
00000000
00000000
00000000
00000000
00000000
00000000
00000000
00000000
00000000
00000000
00000000
00000000
00000000
00000000
00000000
00000000
00000000
00000000
00000000
00000000
00000000
,
00001000
00000000
00011000
00000000
00001000
00010000
01000000
00000000
00000000
00100000
00000000
00000000
00001000
00000000
00022000
00000000
,
00000000
00000000
00000000
00000000
00000000
00000000
00000000
00033000
;
