#VERSION:0.83;
#TITLE:ROCK ONNA feat. Oyama Aimi, Ken ;
#SUBTITLE:;
#ARTIST:Y&Co. ;
#TITLETRANSLIT:;
#SUBTITLETRANSLIT:;
#ARTISTTRANSLIT:;
#GENRE:;
#CREDIT:KONAMI ;
#MUSIC:ROCK ONNA feat. Oyama Aimi, Ken .ogg;
#BANNER:;
#BACKGROUND:;
#CDTITLE:;
#SAMPLESTART:40.089;
#SAMPLELENGTH:12.800;
#SELECTABLE:YES;
#OFFSET:-0.289;
#BPMS:0.000=150.000;
#STOPS:;
#BGCHANGES:;
#FGCHANGES:;

//--------------- dance-single - ----------------
#NOTEDATA:;
#STEPSTYPE:dance-single;
#DESCRIPTION:;
#DIFFICULTY:Hard;
#METER:9;
#RADARVALUES:0,0,0,0,0;
#NOTES:
0000
0000
0000
0000
,
0000
0000
0000
0000
,
0000
0000
0000
0000
,
0000
0000
0000
0000
,
0000
0000
0000
0000
0000
0000
0000
1000
,
0000
0001
0000
0000
0100
0000
0010
0000
1000
0000
1010
0000
0000
0000
0010
0000
,
0000
0100
0000
0000
0001
0000
0010
0000
0001
0000
0100
0000
0001
0000
1000
0000
,
0100
1000
0001
0010
0001
0100
0000
0011
,
0000
0101
0000
0000
0220
0000
0000
0000
0000
0000
0330
0000
0000
0000
1000
0000
,
0000
0001
0000
0000
0100
0000
0000
0010
0000
0000
1000
0000
0100
0000
1000
0000
,
0001
0000
0100
0010
0000
1000
0010
1000
0000
0010
0100
0010
1000
0000
0001
0010
,
0000
0001
0100
0000
0001
1000
0000
0100
1000
0000
0100
0010
0000
0001
0010
0000
,
0100
1000
0000
0010
1000
0000
0001
0010
0000
0100
0010
0000
0001
0010
0100
0000
,
0000
1000
0000
0000
0010
0000
0000
1000
0000
0000
0001
0000
0100
0000
0010
0000
,
0100
0001
1000
0100
0001
0010
1000
0001
,
1000
0100
1000
0100
1000
0000
0010
0000
1000
0000
0001
0000
1000
0000
0002
0000
,
0000
0203
0000
0000
0320
0000
0000
2030
0000
0000
3100
0000
0010
0000
0200
0000
,
0000
1000
0300
0000
0001
0000
0000
0100
0000
0000
0000
0001
0100
0000
0002
0000
,
0000
0013
0000
0000
0001
0000
0000
1000
0000
0000
0000
0100
0010
0000
0002
0000
,
0000
1003
0000
0000
0010
0000
0000
1000
0000
0000
0000
0001
0010
0000
0200
0000
,
0000
1300
0000
0000
0100
0000
0000
1000
0000
0000
0000
0010
1000
0000
0002
0000
,
0000
0103
0000
0100
1000
0000
0002
0000
0000
0013
0000
0010
1000
0000
0002
0000
,
0000
0103
0000
0100
1000
0000
0002
0000
0000
0013
0000
0010
1000
0000
0100
0000
,
0001
0100
1000
0010
0100
0001
0010
1000
,
0010
0001
0100
1000
0100
0110
0000
0001
,
0000
0010
0000
0000
0001
0000
0000
0100
0000
0000
0010
0000
1000
0000
0001
0000
,
0010
0000
0100
0000
1000
0001
0000
0100
0001
0000
0100
0010
0100
0000
0001
0100
,
0000
0100
0010
0000
0100
0010
0000
0010
1000
0000
0100
0000
1000
0000
0001
0000
,
0010
0100
0000
1000
0001
0000
1000
0010
0000
1000
0001
0000
0010
0000
0001
0000
,
0000
1000
0000
0000
0100
0000
0000
1000
0000
0000
0010
0000
0100
0000
0001
0000
,
0100
0010
1000
0001
0100
0001
1000
0001
,
0010
0001
1000
0100
0010
0001
1000
0001
,
0100
0010
0000
0010
1000
0000
0001
0000
0100
0000
0010
0000
0000
0000
0110
0000
,
0000
1001
0000
0000
0011
0000
0000
1010
0000
0000
0001
0000
0100
0000
0010
0000
,
1000
0000
0100
0010
0000
0100
1000
0000
0001
0010
0100
0000
1000
0000
0001
0100
,
0000
0010
1000
0000
0001
0100
0000
0010
1000
0000
0001
0000
1000
0000
0100
0000
,
0000
1000
0000
0000
0010
0000
0000
1000
0000
0000
0010
0000
1000
0000
0100
0000
,
0000
0010
0000
0000
0001
0000
0000
0100
0000
0000
0010
0000
1000
0000
0010
0000
,
1000
0010
0000
0100
0010
0000
0100
0000
0001
0000
0010
0000
0001
0000
0100
0000
,
1000
0100
0001
1000
0100
0001
0010
1000
,
0100
1000
0001
0100
0010
0110
0000
0100
,
0000
0001
0010
0001
1000
1010
0000
0010
,
0000
0100
0001
0100
0010
1010
1000
0100
,
1000
0001
1000
0010
1000
0001
0100
0010
,
0000
1000
0000
0000
2200
0000
0000
0000
0000
0000
3300
0000
0000
0000
1001
0000
,
0000
0010
0100
1000
0010
1010
0000
1000
,
0000
0010
1000
0100
1000
0100
0001
0100
,
1000
0000
0001
0000
0100
0000
0001
0000
0000
0010
0000
0000
0001
0000
1100
0000
,
0000
0101
0000
0000
0022
0000
0000
0000
0000
0000
0033
0000
0000
0000
1000
0000
,
0000
0100
0000
0000
0010
0000
0001
0000
0000
1000
0000
0000
0100
0000
0010
0000
,
0000
0001
0000
0000
0010
0000
0100
0000
0000
1000
0000
0000
0001
0000
0010
0000
,
0000
0100
0000
0000
1000
0000
0100
0000
0000
0010
0000
0000
0100
0000
1000
0000
,
0000
0001
0000
0000
0010
0000
0100
0000
0000
0010
0000
0000
0001
0000
1000
0000
,
0000
0010
0000
0000
0001
0000
0010
0000
1000
0000
1001
0000
0000
0000
1000
0000
,
0000
0100
0000
0000
0001
0000
0100
0000
1000
0000
1100
0000
0000
0000
1000
0000
,
0010
1000
0001
0010
0001
0101
0000
1000
,
0001
0010
0001
0010
0100
0110
0000
1000
,
0010
0100
0000
0001
0100
0000
0001
0000
1000
0000
1100
0000
0000
0000
1000
0000
,
0001
0100
0000
0001
0010
0000
0100
0000
0010
0000
0011
0000
0001
0000
1000
0000
,
0100
1000
0010
1000
0100
0010
0100
1100
,
0000
0110
0000
0000
0022
0000
0000
0000
0000
0000
0000
0000
0033
0000
0010
0000
,
0001
0100
0000
0010
0100
0000
0001
0000
1000
0000
1100
0000
0000
0000
0010
0000
,
0100
0010
0000
1000
0001
0000
0100
0000
0010
0000
1000
0000
0100
0000
0010
0000
,
0100
1000
0010
0001
0010
1000
0000
1100
,
0000
1001
0000
0000
0220
0000
0000
0000
0000
0000
0000
0000
0330
0000
0020
0000
,
0000
0230
0000
2300
0000
3002
0000
0203
,
0000
0320
0000
0032
0000
0203
0000
0320
,
0000
0032
0000
0203
0000
2300
0000
3020
,
0000
0032
0000
0203
0000
2300
0000
3020
,
0000
0130
0001
0100
0001
0101
0000
1000
,
0100
1000
0100
1100
0000
1000
0100
0001
,
0100
1000
0001
0010
0001
0100
0001
1000
,
0010
1000
0100
1000
0001
0010
0001
2002
,
0000
0000
0000
3003
;
