#TITLE:Light Emitting Diode X;
#SUBTITLE:;
#ARTIST:Neko;
#TITLETRANSLIT:;
#SUBTITLETRANSLIT:;
#ARTISTTRANSLIT:;
#GENRE:;
#CREDIT:;
#MUSIC:led.ogg;
#BANNER:banner.png;
#BACKGROUND:BG.png;
#CDTITLE:;
#SAMPLESTART:66.805;
#SAMPLELENGTH:12.000;
#SELECTABLE:YES;
#OFFSET:0.009;
#BPMS:0.000=172.132;
#STOPS:163.500=1.394
,167.500=0.697
,174.500=1.046
;
#BGCHANGES:;
#FGCHANGES:;

//--------------- dance-single - ----------------
#NOTES:
     dance-single:
     :
     Beginner:
     3:
     0,0,0,0,0:
0000
0000
0000
0000
,
0000
0000
0000
0000
,
1000
0000
0000
0000
,
0000
0000
0000
0000
,
1001
0000
0000
0000
,
1001
0000
0000
0000
,
1001
0000
0110
0000
,
1001
0000
0000
0000
,
0010
0000
0100
0000
,
0010
0000
1000
0000
,
0001
0000
0100
0000
,
0010
0000
1000
1000
,
1001
0000
0001
0000
,
0100
0000
0010
0000
,
1000
0000
0001
0000
,
0100
0000
0010
0010
,
0110
0000
0100
0000
,
0001
0000
1000
0000
,
0001
0000
0100
0000
,
0010
0000
1000
1000
,
1001
0000
0010
0000
,
1000
0000
0010
0000
,
0100
0000
0001
0000
,
1000
0000
0000
1001
,
0001
0000
0100
0000
,
0010
0000
1000
0000
,
0001
0000
0100
0000
,
0010
0000
0000
0000
,
1001
0000
0001
0000
,
0100
0000
0010
0000
,
1000
0000
0001
0000
,
0100
0000
0010
0000
,
1001
0000
0010
0000
,
0100
0000
0010
0000
,
1000
0000
0001
0000
,
0100
0000
0010
0000
,
0110
0000
1000
0000
,
0100
0000
0010
0000
,
1000
1000
0000
0000
,
1001
1001
1001
1001
,
0001
0000
0000
1000
,
0001
0000
0000
0100
,
0000
0000
0100
0000
,
0000
0010
0000
1000
,
0000
0000
0001
0000
,
0000
1001
1001
0001
,
0000
1000
0000
0001
,
0000
0100
0000
0010
,
0000
1000
0000
0001
,
0000
1000
0000
1001
,
0000
0010
0000
0100
,
0000
0010
0000
1000
,
0000
0001
0000
0100
,
0100
0100
0100
0110
,
0000
0100
0000
0000
,
0000
1000
0000
1000
,
0000
1000
0000
0001
,
0000
0001
0001
1001
,
0000
1000
0000
0001
,
0000
0100
0000
0000
,
1001
0000
1001
0000
,
0001
1000
0001
0000
;

//--------------- dance-single - ----------------
#NOTES:
     dance-single:
     :
     Easy:
     6:
     0,0,0,0,0:
0000
0000
0000
0000
,
0000
0000
0000
0000
,
1000
0000
0000
0000
0001
0000
0000
0100
0000
0000
0000
0000
0000
0000
0000
0000
,
0000
0000
0000
0001
,
0101
0000
0000
0000
0000
0000
0000
0010
0000
0000
0000
0000
0000
0000
1000
0000
,
1001
0000
0000
0001
0000
0000
0100
0000
,
1010
0100
0101
0001
,
1001
1000
0010
0000
,
1100
0100
1000
0001
,
0100
0010
1000
0100
,
0010
0100
1000
0001
,
0100
0010
1000
0001
,
1001
0001
0100
0010
,
1000
0100
0010
0100
,
1000
0001
0100
0010
,
1000
0100
0010
0001
,
1001
1000
0010
0100
,
0001
0010
0100
1000
,
0010
0100
0001
1000
,
0010
1000
0001
0100
,
0101
0010
1000
0100
,
1000
0001
0100
0010
,
1000
0100
0010
0001
,
2000
3000
0010
1010
,
1000
0001
0100
0010
,
1000
0100
0010
0001
,
1000
1000
0000
0001
,
0100
0010
0000
1000
,
1001
0001
0100
0010
,
1000
0100
0010
0100
,
1000
0001
0000
0001
,
0001
0100
0000
0010
,
1010
1000
0001
1000
,
0010
1000
0001
1000
,
0010
1000
0000
0001
,
0100
0010
0000
1000
,
1001
0001
0100
0010
,
1000
0001
0100
0010
,
1000
0001
0000
1000
,
1001
0110
1001
0110
,
1000
0000
0000
0001
0000
0000
0100
0000
,
0001
0000
0000
1000
0000
0000
0001
0000
,
0000
0000
0100
0000
0010
0000
0000
1000
,
0000
0000
0001
0000
0000
1000
0000
0000
,
0100
0100
0000
0000
,
0000
1001
1010
0100
,
0001
0000
1000
0001
1000
0000
0010
0000
,
0100
0001
1000
0001
,
0100
0010
1000
0001
,
0100
0010
0010
1010
,
1000
0001
0100
0010
,
1000
0000
0100
0000
0010
0001
1000
0000
,
0010
0100
0001
1001
,
0110
1001
0110
1000
,
0001
0000
0100
0010
0100
0000
0001
0000
,
1000
0010
0100
0001
,
1000
0100
0010
0001
,
0100
0010
1000
1010
,
0100
0000
0001
0010
0001
0000
1000
0000
,
0010
0000
0100
0001
0100
0000
0010
0000
,
1010
0010
0110
0001
,
1000
0001
1000
0000
;

//--------------- dance-single - Braeden ----------------
#NOTES:
     dance-single:
     Braeden:
     Medium:
     9:
     0,0,0,0,0:
0000
0000
0000
0000
,
0000
0000
0000
0000
0000
0000
0000
1000
,
0010
0000
0100
0000
0001
0000
0000
1000
0000
0000
0000
0000
0000
0000
0000
0000
,
0000
0000
0000
0000
0000
0001
0100
0001
,
0101
0000
0000
0000
0010
0000
0000
1000
0000
0000
0000
0000
0001
0000
0100
0000
,
0101
0000
0000
1010
0000
1000
1001
0000
,
0001
0100
0010
0000
1000
0100
1000
0000
,
0001
0000
0100
0000
0010
0000
0000
1000
0000
1000
0000
0000
1001
0000
0000
0000
,
0001
0100
0001
0000
0100
0010
0000
1000
,
0010
0000
1000
0001
0000
0100
0010
0000
,
1000
0100
0000
0010
0001
0000
0100
0010
,
0000
1000
0100
0000
0010
0001
0100
0010
,
1010
0000
1000
0000
0001
0100
0010
1000
,
0100
0000
1000
0001
0000
0100
0010
0000
,
1000
0001
1000
0001
0100
0000
0010
1000
,
0000
0010
0100
0000
0001
0010
0100
1000
,
1100
0000
1000
0000
0001
0100
0010
1000
,
0001
0000
1000
0100
0000
0010
0001
0100
,
0010
1000
0000
0001
0100
0000
0010
1000
,
0000
0001
0010
0000
0100
0010
0001
1000
,
1100
0000
0010
0000
0001
0100
0000
0010
,
1000
0000
0100
1000
0000
0001
0010
0000
,
0100
1000
0000
0010
0100
0000
0001
0010
,
0100
0000
1000
0000
0020
0000
0000
0130
0000
0100
0000
0000
0101
0000
0000
0000
,
0001
0000
1000
0000
0001
0000
0000
0100
0001
0000
0100
0001
0000
0100
0000
0000
,
0010
1000
0001
0100
0010
1000
0020
0000
,
1030
0001
1000
0001
1000
0000
0010
0000
0000
0000
0100
0000
0001
0000
0100
0000
,
0010
1000
0100
0010
0000
0001
0100
0010
,
2000
0000
3010
0000
0100
0000
0000
0001
0100
0000
0001
0100
0000
0001
0000
0000
,
1000
0010
0100
0001
1000
0100
1000
0000
,
0001
0100
0001
0100
0001
0000
1000
0000
0000
0000
0010
0000
0100
0000
0001
0000
,
0100
0010
1000
0001
0000
1000
0100
1000
,
0020
0000
1030
0000
0100
0000
0000
1000
0010
0000
0100
0001
0000
1000
0000
0000
,
0001
0010
0100
1000
0010
0100
0001
0000
,
1000
0100
1000
0100
1000
0000
0001
0000
0000
0000
0100
0000
0010
0000
0100
0000
,
0001
0000
0010
0001
0010
0000
0001
0000
0000
0000
0100
0000
0010
0000
1000
0000
,
0001
0000
1000
0000
0001
0000
0000
0001
1000
0000
0001
1000
0000
0010
0000
0000
,
1000
0010
0100
0001
1000
0100
0020
0000
,
0031
1000
0001
1000
0001
0000
0100
0000
0000
0000
0010
0000
1000
0000
0100
0000
,
1100
0011
1001
0110
,
1000
1000
0000
0010
0010
0000
0100
0100
,
0001
0001
0000
0100
0100
0000
0010
0010
,
1000
0000
0010
0000
0100
0100
0000
0001
,
0001
0000
1000
1000
0000
0010
0100
0010
,
0100
0000
0010
0000
1000
0010
0000
0000
,
0000
0000
1001
0000
0101
0000
0001
0100
,
0010
0000
0000
1000
0000
0000
0001
0100
0000
0000
0010
1000
0000
0000
0001
0000
,
0000
0100
0000
0000
0010
0000
0000
1000
0000
0000
0001
0100
0001
0000
0100
0000
,
0010
0000
1000
0001
0000
0000
1000
0100
0000
0000
0010
0001
0000
0000
0100
0000
,
0010
0000
0000
1000
0000
0001
0000
1000
0000
0000
0010
0000
0100
0000
0001
0000
,
1000
0000
0001
1000
0000
0000
0010
0100
0000
0000
0001
0100
0000
0000
0010
0000
,
0000
1000
0000
0000
0100
0000
0000
0010
0000
0000
0100
1000
0100
0000
0010
0000
,
0100
0000
1000
0001
0000
0000
0100
0010
0000
0000
1000
0000
1001
0000
0000
0000
,
0101
0000
0000
0010
0000
1000
0000
0010
0000
0000
1000
0000
0001
0000
0100
0000
,
0010
0000
1000
0001
0000
0000
1000
0100
0000
0000
1000
0001
0000
0000
1000
0000
,
0000
0100
0000
0000
1000
0000
0000
0100
0000
0000
1000
0001
0100
0000
0010
0000
,
1000
0000
0010
0100
0000
0000
0001
0100
0000
0000
0010
1000
0000
0000
0001
0000
,
0100
0000
0000
0010
0000
1000
0000
1000
0000
0000
0001
0000
1001
0000
1000
0000
,
0010
0000
0100
0010
0000
0000
0100
0010
0000
0000
1000
0001
1000
0000
0001
0000
,
0000
0100
0000
0000
0010
0000
0000
1000
0000
0000
0001
1000
0001
0000
0100
0000
,
0101
0000
0010
1000
1010
0000
1001
0000
,
0001
0000
0000
0100
0000
0100
0000
0100
0000
0000
0010
0000
0000
0000
0000
0000
;

//--------------- dance-single - Braeden ----------------
#NOTES:
     dance-single:
     Braeden:
     Hard:
     11:
     0.706798,1.146033,0.163107,0.043495,0.483885,455,440,15,4,72,2,0.706798,1.146033,0.163107,0.043495,0.483885,455,440,15,4,72,2:
0000
0000
0000
0000
,
0000
0000
0000
0000
0000
0000
0000
0000
0000
0000
0000
0000
0000
0000
1000
0100
,
0010
0001
0010
0001
1000
0010
1000
0010
0000
0000
0000
0000
0000
0000
0000
0000
,
0000
0000
0000
0000
0000
0000
0000
0000
0000
0000
1000
0001
1000
0001
1000
0000
,
0001
0010
0100
1000
0001
0100
0010
1000
0000
0000
0000
0000
0001
0000
1000
0000
,
1001
0000
0000
0000
0000
0000
1001
0000
0000
0000
1000
0000
0101
0000
0001
0010
,
0100
1000
0100
1000
0001
0100
0010
1000
0001
0100
0001
0100
0010
1000
0001
1000
,
0001
0010
0100
1000
0001
0100
0000
0010
0000
1000
0000
0001
2000
0000
3000
0000
,
0001
0100
0001
0100
0001
0000
1000
0010
1000
0100
1000
0001
1000
0000
0001
0100
,
0010
0000
1000
0000
1010
0000
0100
0001
0100
0000
0010
0000
1010
0000
1000
0100
,
0010
0001
0100
0010
1000
0000
0001
0000
0100
0000
0010
1000
0020
0000
0130
0000
,
0001
1000
0100
1000
0001
0010
0100
0000
1000
0000
0010
0000
0100
0000
0001
0000
,
1001
0000
1000
0010
1000
0000
0010
0100
0010
0100
0001
1000
0010
0100
0001
0010
,
0001
0000
1000
0000
1010
0000
0010
0000
0100
0001
0100
0010
0100
0000
0010
1000
,
0010
0000
1000
0000
1010
0000
0100
0001
0010
0000
0001
0100
0010
0000
1000
0000
,
0010
0100
0110
0010
0001
0100
0010
1000
,
1010
0000
0100
0001
1000
0010
0100
0001
1000
0000
0001
0010
0100
1000
0001
0100
,
0010
0000
1000
0000
1001
0000
0001
0100
0001
0000
0100
0010
0100
0000
0001
0000
,
0100
0000
0010
0000
1010
0000
0100
0001
0010
0000
0100
1000
0001
0000
0100
0000
,
0010
1000
1010
0100
0001
0010
0100
1000
,
1100
0000
0010
0001
0010
0100
1000
0010
0100
0000
0001
1000
0001
0010
0001
1000
,
0001
0000
0100
0000
0110
0000
0010
0000
1000
0000
0001
0000
1001
0000
1000
0010
,
0100
0001
1000
0000
1010
0000
0100
0001
0010
0001
1000
0010
0100
0000
0001
1000
,
0010
0100
0001
1000
0100
1000
0000
0001
0000
1000
0000
0001
0020
0000
0030
0000
,
0002
0000
1003
0000
0010
0100
0000
0001
0010
0000
0100
1000
0000
0010
0000
1000
,
0001
0000
1000
0000
0010
0100
0010
0100
0001
0000
1000
0010
1000
0000
0001
0000
,
1000
0010
1000
0010
0100
0000
0001
0000
0000
0000
1000
0100
0010
0001
0100
0010
,
1000
0001
0100
0010
1000
0000
0001
0000
0000
0000
0100
0010
0100
0001
1000
0000
,
0001
1000
0001
0000
1000
0100
0000
1000
0010
0000
1000
0100
0000
0010
0000
0001
,
0100
0000
0002
0000
1003
0100
1000
0010
1000
0000
0010
0100
0020
0000
0030
0000
,
1000
0001
1000
0100
1000
0000
0010
0000
0000
0000
0100
0001
0010
0001
0100
0010
,
0100
0001
0010
0100
1000
0000
0010
0000
0000
0000
1000
0100
1000
0010
0100
0000
,
0001
0010
0001
0000
0100
0010
0000
0100
0001
0000
0010
0100
0000
0010
0000
0001
,
0100
0000
0002
0000
1003
0001
1000
0001
1000
0000
0010
0100
0002
0000
0003
0000
,
1000
0001
1000
0001
1000
0000
0010
0000
0000
0000
0100
0001
0100
0010
1000
0100
,
1000
0010
0100
0001
1000
0000
0010
0000
0000
0000
1000
0100
0010
0001
0100
0000
,
0001
1000
0001
0000
0010
0100
0000
1000
0100
0000
0010
0001
0010
0100
0000
1000
,
0010
0000
0100
0001
0100
0010
1000
0010
1000
0000
0001
0100
0001
1000
0010
0000
,
0100
0001
0100
0001
0100
0000
0010
0000
0000
0000
0010
0001
0100
0010
1000
0001
,
1000
1001
0101
1001
,
0001
1000
0001
0000
0000
0000
1000
0010
1000
0000
0000
0000
0001
1000
0001
0000
,
0100
0010
0100
0000
0000
0000
0001
1000
0001
0000
0000
0000
1000
0001
1000
0000
,
0010
0100
0010
0000
1000
0001
0000
0000
1000
0010
1000
0000
0000
0000
0100
0010
,
0100
0000
0000
0000
1000
0001
1000
0000
0000
0000
0001
0000
1000
0001
1000
0000
,
0000
0000
0000
0000
0010
1000
0010
0000
1000
0001
1000
0000
0000
0000
0000
0000
,
0000
0000
0000
0000
1001
0000
1000
0000
1010
0000
0010
0000
0100
0001
1000
0100
,
0010
0001
0100
0010
0000
1000
0100
1000
0000
0001
0100
0001
0010
0000
0100
0000
,
0000
1000
0000
0000
0010
0000
0000
1000
0000
0000
0001
0100
0002
0000
1003
0000
,
0001
0010
0100
1000
0000
0010
0100
0010
0000
1000
0001
1000
0002
0000
0103
0000
,
0010
1000
0100
1000
0000
0010
0000
0100
0010
0000
1000
0000
1010
0000
1000
0000
,
0010
0100
0001
1000
0000
0001
1000
0001
0000
0010
0100
0010
0100
0000
0010
0000
,
0000
0001
0000
0000
0100
0000
0000
0010
0000
0000
0100
0001
0020
0000
0130
0000
,
0010
0001
0100
0010
0000
1000
0010
1000
0001
0000
0100
0010
1000
0000
0010
0000
,
0110
0000
0100
0001
0000
0010
0000
0001
1000
0000
0010
0000
1010
0000
0100
0001
,
0000
0100
0010
0100
0000
0010
1000
0010
0100
0001
0010
0100
1000
0010
0100
0000
,
0010
0100
0000
0001
1000
0000
0010
0100
0010
0000
1000
0001
0200
0000
0310
0000
,
0100
0001
0010
0001
0000
0100
0010
0100
0001
1000
0100
1000
0010
0100
0010
0000
,
1010
0000
1000
0001
0000
0100
0000
0010
1000
0000
0001
0000
1001
0000
1000
0010
,
0000
1000
0001
1000
0000
0001
0100
0001
0010
0100
0010
0100
1000
0010
0100
0000
,
0001
0010
0000
0100
1000
0000
0010
0100
0001
0000
0010
0100
0010
0000
0001
0000
,
1001
0000
1000
0100
0000
0000
0010
0001
0200
0000
0310
0000
1010
0000
1000
0000
,
1001
0000
0000
0001
0000
0001
0000
0001
0000
0000
0001
0000
0000
0000
0000
0000
;

//--------------- dance-single - Braeden ----------------
#NOTES:
     dance-single:
     Braeden:
     Challenge:
     14:
     0,0,0,0,0:
0000
0000
0000
0000
,
0000
0000
0000
0000
0000
0000
0000
0000
0000
0000
0000
0000
0000
0000
1000
0100
,
0010
0001
0100
0010
1000
0100
0010
0001
1000
0000
0010
0000
0100
0000
0001
0010
,
0001
0000
0100
0000
0010
0000
1000
0100
1000
0000
0001
0010
0001
0010
0001
0000
,
2000
3100
0010
0001
0100
0010
1000
0001
0100
0000
0010
0000
1000
0000
1010
0000
,
1001
0000
0001
0000
0100
0000
0110
0000
0010
0000
0010
0000
1010
0000
1000
0100
,
0010
0001
0010
0001
0100
0010
1000
0001
1000
0100
1000
0100
0010
0001
0100
0010
,
2000
3200
0320
0032
2003
3020
0030
0200
0300
0002
0003
1000
0011
0000
0000
0000
,
0001
0010
0100
1000
0001
0100
0001
0010
0100
1000
0001
0100
0001
1000
0100
0010
,
0001
0100
0010
1000
0001
0010
0001
0100
0010
1000
0100
0010
0001
0100
0001
0010
,
0001
0100
0010
1000
0010
0100
0010
1000
0001
1000
0010
0100
0010
1000
0100
0010
,
0001
0100
0010
1000
0001
0010
0100
1000
0001
0000
0100
0000
0010
0000
1000
0000
,
0002
0103
0010
1000
0001
0010
0001
0100
0010
1000
0001
0010
0001
0100
0010
0100
,
0001
0010
0100
1000
0001
0010
0001
0010
0100
1000
0001
0100
0001
1000
0001
0010
,
0100
1000
0001
0100
0010
1000
0100
0010
0001
1000
0010
0100
0010
1000
0001
0100
,
0001
0010
0100
1000
0010
0100
0001
0010
0100
1000
0100
0010
0001
0100
0010
1000
,
0001
0100
0001
0100
0001
0010
0100
1000
0100
1000
0001
0100
0001
0010
0100
1000
,
0010
0100
0001
1000
0010
0100
0010
1000
0001
0010
0001
0100
0010
1000
0100
0010
,
0001
1000
0001
0010
0100
1000
0010
0100
0010
1000
0001
0010
0100
1000
0001
0100
,
0001
1000
0100
0010
0001
0100
0010
1000
0001
0000
0100
0000
0001
0000
0010
0000
,
0011
0000
0100
1000
0001
0010
0001
0100
0010
1000
0010
0100
0010
1000
0001
0100
,
0010
0100
0001
1000
0010
0100
0010
1000
0010
1000
0100
0010
0001
0100
0010
1000
,
0001
0010
0100
1000
0010
0100
0001
1000
0100
0010
0001
0100
0010
1000
0001
1000
,
0020
0230
0302
2003
3020
0230
0300
0002
0003
2000
3000
0001
1100
0000
0000
0000
,
0010
0001
0010
0001
0010
0000
0100
0000
1000
0000
0010
0000
0000
0000
0100
0001
0100
0000
0000
0000
0010
0000
1000
0000
0002
0000
0103
0000
0000
0000
0100
0000
,
0010
0000
0000
0000
4000
0000
0000
0000
3001
0000
0100
0000
0010
0000
0100
0000
0001
0000
0000
0000
1000
0000
0100
0010
0100
0000
0010
0000
0000
0000
0000
0000
,
0001
0100
0010
0100
0002
0000
1003
0000
0000
0000
0001
0010
0100
1000
0100
0010
,
0001
0100
0010
1000
0001
0000
0101
0000
0000
0000
0010
1000
0100
1000
0001
0000
,
1000
0001
1000
0001
1000
0000
0000
0000
0010
0000
0100
0000
0000
0000
0001
1000
0001
0000
0000
0000
0010
0000
0200
0000
0300
0000
2000
0000
3000
0000
0010
0100
,
0010
0000
0000
0000
1000
0000
0010
0000
0100
0000
0001
0000
0010
0000
0001
0000
2000
0000
0000
0000
3010
0000
0100
0001
0100
0000
0010
0000
1000
0000
0000
0000
,
0001
0100
0010
1000
0002
0000
0103
0000
0000
0000
0001
0100
0010
1000
0100
0010
,
0100
1000
0010
0100
0002
0000
0013
0000
0000
0000
0010
0000
0100
0010
0100
0000
,
1000
0010
1000
0010
1000
0000
0001
0000
0100
0000
0001
0000
0000
0000
0010
0001
0010
0000
0000
0000
0100
0000
1000
0000
0010
0000
0100
0000
0000
0000
0001
1000
,
0001
0000
0000
0000
4000
0000
0000
0000
3001
0000
0100
0000
0010
0000
0100
0000
0001
0000
0000
0000
0010
0000
0100
0010
0100
0000
1000
0000
0001
0000
0000
0000
,
1000
0100
1000
0100
1000
0000
0020
0000
0030
0000
0100
0001
0010
0001
0100
0010
,
1000
0100
0010
0001
1000
0000
1010
0000
0000
0000
0100
0001
0010
0001
0100
0000
,
0001
1000
0001
1000
0001
0000
0010
0000
0001
0000
0100
0000
0000
0000
0001
1000
0001
0000
0000
0000
0100
0000
0010
0000
0100
0000
0001
0000
0000
0000
1000
0010
,
1000
0000
0000
0000
0010
0000
0000
0000
0100
0000
0010
0000
1000
0000
0010
0000
1000
0000
0000
0000
0100
0000
1000
0100
1000
0000
0010
0000
0100
0000
0000
0000
,
0001
0010
0100
1000
0010
0000
0100
0000
0000
0000
0001
0010
0100
1000
0010
0100
,
0011
1001
1010
0101
,
0001
1000
0001
0000
0000
0000
1000
0010
1000
0000
0000
0000
0001
0100
0001
0000
,
1000
0100
1000
0000
0000
0000
0001
0100
0001
0000
0000
0000
1000
0100
1000
0000
,
0010
0100
0010
0000
1000
0100
1000
0000
0010
0100
0001
0000
0000
0000
1000
0100
,
1000
0000
0000
0000
0010
0100
0010
0000
0000
0000
1000
0000
0010
1000
0010
0000
,
0000
0000
0100
0000
0001
0100
0001
0000
1000
0010
1000
0001
0000
0000
0000
0000
,
0000
0000
0000
0000
0000
0000
0000
0000
1000
0000
0100
0000
0010
0001
0010
0001
0010
0000
0100
0000
1000
0000
0001
0000
1000
0000
0100
0000
0010
0000
0001
0000
,
0100
0010
1000
0001
1000
0010
0100
0010
1000
0001
1000
0001
1000
0100
0010
0001
,
0100
0000
0010
0000
1000
0000
0100
0000
0010
0000
0001
0000
0100
0000
0010
0000
1000
0000
0100
0000
0010
0000
0001
0000
1000
0001
1000
0000
0100
0000
0010
0000
,
0001
0000
0100
0000
0010
0000
1000
0000
0001
0000
0010
0000
0100
0000
0010
0000
0100
0000
1000
0000
0010
0000
1000
0000
0001
0000
0100
0010
0100
0000
0001
0000
,
1000
0100
0010
0001
0100
0001
0010
0001
1000
0100
0010
0100
1000
0010
0100
0001
,
1000
0100
0010
0001
1000
0010
0100
0010
1000
0001
0010
0001
0100
0010
1000
0100
,
1000
0000
0001
0000
1000
0000
0100
0000
0010
0000
0001
0000
0010
0000
0100
0000
1000
0000
0010
0000
0100
0000
0001
0000
1000
0010
1000
0000
0010
0000
0100
0000
,
0001
0010
0001
0100
0010
1000
0100
1000
0001
0100
0010
0100
0002
0013
0100
1000
,
0002
0103
0010
1000
0002
0013
0100
1000
0020
0130
0001
1000
0001
0010
0100
1000
,
0001
0100
0010
1000
0001
0100
0010
0100
0001
1000
0100
1000
0001
0010
0100
1000
,
0100
0000
0010
0000
0100
0000
1000
0000
0010
0000
0100
0000
0001
0000
0100
0000
0010
0000
1000
0000
0001
0000
0100
0000
0010
0000
1000
0001
1000
0000
0010
0000
,
0100
0000
0001
0000
1000
0000
0100
0000
0010
0000
0001
1000
0001
0000
0100
0000
0010
0000
1000
0000
0001
0000
0010
0000
0001
1000
0001
0000
0010
0000
0001
0000
,
0100
0000
0010
0000
1000
0000
0001
0100
0001
0000
0010
0000
0100
0000
1000
0000
0010
0000
0100
0000
0001
0000
1000
0010
1000
0000
0001
0000
0100
0000
0010
0000
,
0100
0001
0100
0010
1000
0001
0100
0001
1000
0010
0100
0010
1000
0100
1000
0010
,
1000
0000
0001
0000
0100
0000
0001
0000
1000
0000
0010
0000
1000
0000
0001
0000
0100
0000
0010
0000
1000
0000
0100
0000
1000
0000
0001
0100
0001
0000
0010
0000
,
0200
0310
0001
0100
0010
1000
0001
0100
0002
1003
0010
0100
0002
0013
0100
1000
,
0001
0000
0100
0000
0000
0000
0001
0100
0001
0000
0100
0000
0000
0000
0100
0000
0000
0000
0000
0000
0100
0000
0000
0000
0000
0000
0000
0000
0000
0000
0000
0000
;

//--------------- dance-single - Tech ----------------
#NOTES:
     dance-single:
     Tech:
     Edit:
     15:
     0,0,0,0,0,0,0,0,0,0,0,0,0,0,0,0,0,0,0,0,0,0:
0000
0000
0000
0000
0000
0000
0000
0000
0000
0000
0000
0000
0000
0000
0000
1000
,
0010
0100
0001
0000
1000
0M10
0000
0010
0001
0000
1000
0000
0010
0100
0001
1000
,
0100
0001
0100
1000
0001
0100
0010
1000
0000
0000
0001
0000
1001
0000
1000
0100
,
0010
0001
0100
0000
01M0
1000
0000
0010
0100
0000
0001
1000
0001
1000
0001
0000
,
1100
0010
1000
0100
0010
0001
1000
0001
0000
0000
0010
0000
1100
0000
0011
0000
,
1001
0000
1000
0000
0001
0000
0101
0000
0000
0000
0001
0000
1001
0000
1000
0100
,
0020
0130
1000
0010
0100
0001
0010
0001
0020
0031
1000
0100
1000
0010
0100
0001
,
2000
3020
0230
0302
2003
3020
0030
0200
0300
0002
0003
1000
0101
0000
0000
0000
,
1000
0100
0010
0001
0100
0010
1000
0100
0010
0001
1000
1000
0010
0100
0001
1000
,
0001
0010
0001
0100
0010
1000
0100
1000
0010
1000
0100
0010
0001
1000
0100
0100
,
0010
0001
1000
0010
0100
0001
1000
0100
0010
0001
1000
0010
0100
0001
1000
0100
,
0010
0001
0100
0010
1000
0001
0010
0100
1000
0010
0100
0001
0010
0100
1000
0001
,
1100
0001
1000
0010
0100
0001
1000
0010
0100
0001
1000
0100
0001
0100
0010
0001
,
1000
0001
0100
0010
1000
0100
1000
0010
0100
0001
0010
0001
1000
0010
0100
0100
,
0001
0010
0001
0100
0010
1000
0100
0010
0001
0100
0010
1000
0001
0100
0010
1000
,
0001
0010
0100
1000
0001
0100
0010
1000
0100
0010
0001
1000
0010
0100
0001
1000
,
0011
1000
0001
0100
0010
1000
0001
0100
0010
1000
0001
0100
1000
0100
0010
1000
,
0100
0010
0001
0100
0010
1000
0100
0010
0001
0100
0010
1000
0100
0001
0100
0010
,
0100
1000
0010
0100
0001
0010
0100
1000
0010
0100
0001
1000
0100
0010
0001
0100
,
0010
1000
0100
0010
0001
0100
0010
1000
0001
0100
0010
1000
0100
0010
0001
1000
,
0101
0010
0001
0010
0001
0100
0010
1000
0100
0010
0001
0100
0010
1000
0100
0010
,
0001
0100
0010
1000
0100
0010
0001
0100
0010
1000
0100
0010
0001
1000
0010
0100
,
0001
0010
0100
1000
0010
0100
0001
0010
0100
1000
0010
0100
0001
0010
0100
1000
,
0001
0100
0010
1000
0010
1000
0000
2000
3000
0001
0000
1000
0101
0000
0000
0000
,
0001
0100
0010
1000
0001
0000
0100
0000
0010
0000
1000
0000
0001
0100
0010
1000
0100
0000
0000
0000
1000
0000
0100
0000
0010
0000
0100
0000
1000
0000
0010
0000
,
0100
0000
0000
0000
0001
1000
0001
1000
0001
0000
0100
0000
0010
0000
M010
0000
0001
0000
0000
0000
0100
0000
0010
1000
0001
0000
0000
0000
0000
0000
0000
0000
,
0001
1000
0100
01M0
0001
0000
1000
0000
0000
0000
0001
0100
0020
0130
0001
0100
,
0010
1000
0100
0010
0002
0003
1000
0000
0000
0000
0001
0010
0100
0000
1000
0000
,
0001
0000
0000
0100
0000
0000
0010
0000
0000
1000
0000
0000
0001
0000
0000
0000
0000
0000
0200
0300
0000
0000
0000
0000
0010
0000
0000
0000
0000
0000
1000
0000
0000
0000
0000
0000
0000
0000
0000
0000
0000
0000
0001
0000
0000
1000
0000
0000
0001
0000
0000
0000
0000
0000
0000
0000
0000
0000
0000
0000
1000
0000
0000
0000
0000
0000
0100
0000
0000
0000
0000
0000
0010
0000
0000
0000
0000
0000
0100
0000
0000
0000
0000
0000
0010
0000
0000
0000
0000
0000
0001
0000
0000
1000
0000
0000
,
0001
0000
0000
0000
0001
0000
1000
0000
0010
0000
0M10
0000
0001
0000
0010
0000
0001
0000
0000
0000
1000
0000
0010
0100
0010
0000
1000
0000
0100
0000
0000
0000
,
0010
0001
0010
0001
0200
0000
0310
0000
0000
0000
1000
0100
0001
0100
0010
0001
,
0100
0010
0100
010M
1000
0000
0010
0000
0000
0000
0100
0001
1000
0100
M100
0001
,
1000
0010
0100
0001
1000
0000
0010
0000
0100
0000
0001
0000
0000
0000
0000
0001
0010
0000
0000
0000
0001
0000
0100
0000
0010
0000
0100
0000
0001
0000
0000
0010
,
0100
0000
0000
0000
1000
0000
0001
0000
0010
0000
001M
0000
1000
0000
0010
0000
0100
0000
0000
0000
0001
0000
1000
0010
0100
0000
0001
0000
1000
0000
0010
0000
,
0100
0001
0100
0001
0020
0000
0130
0000
0000
0000
0010
0001
1000
0100
0001
0100
,
1000
0001
0100
01M0
1000
0000
0001
0000
0000
0000
0100
0001
M100
0100
0010
0001
,
0100
0010
1000
0001
1000
0000
0001
0000
0100
0000
0010
0000
0000
0000
0000
1000
0001
0000
0000
0000
0100
0000
1000
0000
0010
0000
0100
0000
0010
0000
0000
0100
,
0001
0000
0000
0000
1000
0000
0100
0000
0001
0000
0100
0000
0010
0000
0100
0000
1000
0000
0000
0000
0010
0100
0001
1000
0001
0000
0100
0000
0010
0000
0000
0000
,
1000
0100
0001
0100
1000
0000
0010
0000
0000
0000
1000
0100
0010
0001
1000
0010
,
1M01
11M1
111M
11M1
,
1000
0100
0001
0000
0000
0000
1000
0010
0001
0000
0000
0000
1000
0100
0001
0000
,
0001
0010
1000
0000
0000
0000
0001
0100
1000
0000
0000
0000
0001
0001
1000
0000
,
0001
0001
0100
0000
1000
1000
0100
0000
0001
1000
0010
0000
0000
0000
0010
0100
,
1000
0000
0000
0000
0001
0100
0010
0100
0000
0000
MMMM
0000
1000
0001
0100
0000
,
0010
0010
0000
0000
1000
0100
0001
0000
1000
0010
0001
1000
0000
0000
0000
0000
,
0000
0000
0000
0000
0000
0000
0000
0000
0010
0000
0100
0000
1000
0010
0100
0000
0010
0000
1000
0000
0100
0000
1000
0000
0011
0000
0100
0000
0001
0000
0010
0000
,
0100
0000
1000
0000
0001
0000
0010
0000
0100
0000
1000
0000
0010
0000
1000
0000
0100
0000
0010
0000
0001
0000
0100
0000
0010
0100
0001
1000
0001
0000
0010
0000
,
0200
0000
0000
0300
0000
0000
0100
0000
0000
0000
0000
0000
0001
0000
0000
0000
0000
0000
0100
0000
0000
0000
0000
0000
0010
0000
0000
0000
0000
0000
1000
0000
0000
0000
0000
0000
0001
0000
0000
0000
0000
0000
0010
0000
0000
0000
0000
0000
0100
0000
0000
0000
0000
0000
1000
0000
0000
0000
0000
0000
0200
0000
0000
0000
0300
0000
0100
0000
0000
0000
0000
0000
0001
0000
0000
0000
1000
0000
0000
0000
0010
0000
0000
0000
0100
0000
0000
0000
0001
0000
0000
0000
1000
0000
0000
0000
,
0001
0000
0000
0100
0000
0000
0010
0000
0000
1000
0000
0000
0000
0000
0000
0100
0000
0000
0010
0000
0000
0001
0000
0000
1100
0000
0000
0001
0000
0000
0010
0000
0000
0000
0000
0000
1000
0000
0010
0000
0100
0000
0001
0000
1000
0000
0001
0000
,
1000
0010
0000
0101
0000
1100
0000
0101
0000
0000
1001
0000
0001
0100
0010
1000
,
0100
0010
0100
1000
0000
0010
0100
0010
0000
1000
0001
0100
0010
0000
1000
0001
,
1100
0010
1000
0010
0100
0001
1000
0100
0010
0001
0010
0010
1000
0001
0100
0010
,
0100
0001
1000
0100
0010
0001
0100
0010
1000
0000
1000
0000
0101
0000
0000
0000
,
1M11
0000
0000
0000
1111
0000
0000
0000
1111
0000
0000
0000
1000
0100
0001
0100
,
0010
0001
1000
0010
0001
0010
1000
0100
1000
0010
0100
0100
0001
0010
0100
1000
,
0001
0000
0100
0000
1000
0000
0100
0000
0001
0000
0010
0000
1000
0000
0010
0000
0001
0000
0100
0000
0010
0000
1000
0000
0001
0100
0001
0100
0001
0000
0010
0000
,
0100
0000
0010
0000
0001
0000
0100
0000
0010
0000
1000
0000
0100
0000
1000
0000
0001
0000
0010
0000
0100
0000
1000
0000
0001
0100
0001
0100
0001
0000
0010
0000
,
0100
0000
0000
0000
0010
0001
0010
0001
0010
0000
0001
0000
0000
0000
0010
0000
0000
0000
0000
0000
0001
0000
0000
0000
0010
0000
0100
0000
1000
0000
0100
0000
,
0010
0000
0000
1000
0000
0000
0020
0000
0030
0010
0000
0000
0001
0000
0000
0100
0000
0000
2000
0000
3000
1000
0000
0000
0001
0000
0000
0010
0000
0000
0100
0000
0000
0100
0000
0000
0001
0000
0000
0010
0000
0000
0001
0000
0000
0100
0000
0000
,
1000
0000
0001
0000
0010
0000
1000
0000
0001
0000
0100
0000
0010
0000
0001
0000
0010
0000
0100
0000
0001
0000
0001
0000
0100
0010
1000
0001
1000
0000
0100
0000
,
1001
0000
1000
0001
0100
0010
1000
0000
0101
0000
1000
0001
0100
0000
0000
0000
,
1101
0000
0000
1000
0000
0000
0000
0000
0000
0000
0000
0000
0000
0000
0000
0000
;
