#VERSION:0.83;
#TITLE:LOVELY♥BOMB;
#SUBTITLE:;
#ARTIST:P*Light;
#TITLETRANSLIT:;
#SUBTITLETRANSLIT:;
#ARTISTTRANSLIT:;
#GENRE:;
#ORIGIN:;
#CREDIT:;
#BANNER:;
#BACKGROUND:;
#PREVIEWVID:;
#JACKET:;
#CDIMAGE:;
#DISCIMAGE:;
#LYRICSPATH:;
#CDTITLE:;
#MUSIC:LOVELY BOMB.ogg;
#OFFSET:-0.626000;
#SAMPLESTART:51.025997;
#SAMPLELENGTH:19.199997;
#SELECTABLE:YES;
#BPMS:0.000=200.000;
#STOPS:152.500=0.300,
153.500=0.300;
#DELAYS:;
#WARPS:;
#TIMESIGNATURES:0.000=4=4;
#TICKCOUNTS:0.000=4;
#COMBOS:0.000=1;
#SPEEDS:0.000=1.000=0.000=0;
#SCROLLS:0.000=1.000;
#FAKES:;
#LABELS:0.000=Song Start;
#BGCHANGES:;
#KEYSOUNDS:;
#ATTACKS:
;

//---------------dance-single - ----------------
#NOTEDATA:;
#CHARTNAME:;
#STEPSTYPE:dance-single;
#DESCRIPTION:;
#CHARTSTYLE:;
#DIFFICULTY:Hard;
#METER:9;
#RADARVALUES:0.629753,0.882955,0.364463,0.242975,0.130165,508.000000,466.000000,42.000000,28.000000,0.000000,0.000000,0.000000,0.000000,0.000000,0.629753,0.882955,0.364463,0.242975,0.130165,508.000000,466.000000,42.000000,28.000000,0.000000,0.000000,0.000000,0.000000,0.000000;
#CREDIT:;
#NOTES:
0000
0000
0000
0000
,
0000
0000
0000
0000
,
0000
0000
0000
0000
,
0000
0000
0000
0000
,
0000
0000
0000
0000
,
0000
0000
0000
0000
,
0000
0000
0000
0000
,
1001
0110
1001
1001
,
0001
0010
0100
0010
,
0001
0000
0100
0000
0010
1000
0001
0000
,
0010
0100
0010
0001
,
0100
0000
0010
0000
1000
0010
0100
0001
,
1001
0000
0110
0000
,
1001
0000
0110
0000
,
1001
0000
0110
0000
0100
0010
1001
0000
,
0001
0000
1000
0000
0010
0000
0100
0000
0001
1000
0001
1000
0001
1000
0001
1000
,
0020
0000
0000
0000
,
0030
0000
0000
0000
,
0100
0001
1000
0001
,
0010
0010
0010
0010
,
0200
0000
0000
2300
0000
3001
0010
0100
,
0010
0001
0100
0010
2000
0000
3002
0000
,
0013
0001
0010
0000
0001
0100
0001
0000
,
0100
0000
0010
0000
0100
0001
2000
0000
,
3100
1000
0010
0100
,
0000
0000
1001
0000
0000
1010
0000
0000
0022
0000
0000
0030
0003
0000
0000
0000
,
1200
0000
0000
0310
0000
0100
0010
0001
,
2000
0000
0000
3010
0000
0100
0010
0100
,
0002
0000
0000
0013
0000
0100
0010
0001
,
1000
0000
1000
0000
1000
0001
1000
0001
,
1000
0200
0000
0010
0000
0310
0001
1000
,
0010
0200
0000
0010
0000
0310
1000
0001
,
0010
0000
0000
0000
0100
0000
0000
0000
1000
0100
1000
0100
0010
0001
0010
0001
,
0000
0000
1001
0000
0000
1010
0000
0000
0022
0000
0000
0000
0033
0000
0000
0000
,
1000
0010
0100
0001
1000
0010
0100
0001
,
1000
0001
0010
0001
0100
0010
1000
0100
,
1000
0001
0100
0010
1000
0001
0100
0010
,
1000
0100
0010
0001
0010
0100
0010
0001
,
1000
0010
0010
0001
0010
0100
0001
1000
,
0100
0010
0001
1000
0001
0100
0010
1000
,
0001
1000
0001
1000
0001
1000
0001
0000
0000
0000
0000
0000
0000
0000
0000
0000
,
0000
0000
0100
0010
,
1000
0010
0100
0010
1000
0001
0010
0100
,
0010
0001
1000
0000
0001
0000
0010
0000
,
0100
0010
0001
0100
0010
1000
0010
1000
,
0010
0100
0001
0010
0001
0000
1000
0000
,
0100
0010
0100
1000
0001
0100
0010
0100
,
0001
1000
0100
0000
0010
0000
0100
0000
,
0010
0001
0100
0010
0000
1000
0000
0001
,
0001
1000
0010
0100
0010
0000
0100
0000
,
0010
0100
0001
1000
0100
1000
0010
0100
,
0010
1000
0100
0000
1000
0000
0010
0000
,
0100
0001
0010
0100
0010
0001
0010
0001
,
0010
0001
0010
0001
1000
0000
0010
0000
,
0100
0010
1000
0001
1000
0000
0010
0000
,
1000
0010
0100
0001
1000
0000
0010
0000
,
0100
0010
1000
0001
0000
1001
0000
1001
,
1000
0001
0110
0000
2002
0000
0000
0000
,
0000
0000
0000
0000
,
0000
3003
1000
0000
,
0010
0000
0100
0010
,
0100
0000
0001
0000
,
0010
0000
0001
0100
,
0010
1000
0001
0100
,
0010
1000
0010
0010
,
0010
0010
0100
0001
,
1000
0000
0000
0000
0100
0000
0000
0000
0000
0000
1001
0000
0000
1010
0000
0000
,
0022
0033
0201
0310
,
1000
0000
0001
0010
0100
0000
0010
0001
,
0100
0000
0000
0010
0000
0000
1000
0000
0001
0000
0000
0000
0100
0000
0000
0000
,
0010
0000
1000
0001
0100
0000
0100
0000
,
0100
0001
0100
1000
0100
0010
0000
0100
,
0010
0100
0000
0001
1000
0001
1000
0001
,
0100
0100
0001
1000
0100
0010
0001
1000
,
0010
0100
0010
0100
0010
0100
0010
0100
0000
0000
1001
0000
0000
1100
0000
0000
,
0022
0000
0000
0000
0033
0000
0000
0000
0000
0000
0101
0000
0000
1010
0000
0000
,
2200
0000
3300
0000
0010
0001
0000
0100
,
0000
0010
0100
0001
1000
0000
0100
0000
,
0010
0100
1000
0010
0100
0001
0000
0010
,
0000
0001
1000
0010
0100
0100
0000
0100
,
0100
0000
1001
0000
0001
0010
0000
0001
,
0000
0000
1000
0010
0100
0001
0000
1000
,
0000
0100
0010
0001
1000
0000
0001
0000
,
0100
0010
0100
0010
0100
0010
0100
0010
0100
0000
1000
0000
0100
0000
0001
0000
,
0010
0000
1001
0000
1000
0001
0000
0010
,
0000
0001
0000
1000
1001
0000
0110
0000
,
0100
0100
1001
0000
0001
0010
0000
0100
,
0000
0010
0000
0001
1000
1000
0000
1000
,
1000
0000
1001
0000
0001
0100
0010
1000
,
0001
0100
0010
1000
0001
0010
0100
1000
,
0001
0010
0100
1000
0002
0000
2003
0000
,
3010
0100
0010
0100
0010
0100
0010
0100
0000
0000
1001
0000
0000
1100
0000
0000
,
0022
0033
1001
0000
;

//---------------dance-single - ----------------
#NOTEDATA:;
#CHARTNAME:;
#STEPSTYPE:dance-single;
#DESCRIPTION:;
#CHARTSTYLE:;
#DIFFICULTY:Medium;
#METER:7;
#RADARVALUES:0.471075,0.642149,0.182232,0.138843,0.030372,380.000000,359.000000,21.000000,16.000000,0.000000,0.000000,0.000000,0.000000,0.000000,0.471075,0.642149,0.182232,0.138843,0.030372,380.000000,359.000000,21.000000,16.000000,0.000000,0.000000,0.000000,0.000000,0.000000;
#CREDIT:;
#NOTES:
0000
0000
0000
0000
,
0000
0000
0000
0000
,
0000
0000
0000
0000
,
0000
0000
0000
0000
,
0000
0000
0000
0000
,
0000
0000
0000
0000
,
0000
0000
0000
0000
,
0010
0100
1001
1001
,
0001
0100
0010
0100
,
0001
0000
1000
0000
0100
0010
0100
0000
,
0010
0001
0010
0001
,
1000
0000
0010
0000
0100
0010
1000
0001
,
0010
0000
0001
0000
,
1000
0000
0010
0000
,
0100
0000
0010
0000
0100
0001
1000
0000
,
0001
0100
0010
1000
0001
0010
0100
1000
,
0002
0000
0000
0000
,
0003
0000
0000
0000
,
1000
0000
0010
0000
,
0100
0000
0001
0000
,
0010
0000
0001
0000
,
1000
0000
0001
1000
,
0010
1000
0010
0100
,
0001
0010
0001
1000
,
0001
0100
0010
1000
,
0000
0000
0001
0000
0000
0100
0000
0000
0220
0000
0000
0000
0330
0000
0000
0000
,
1001
1000
0001
0010
,
0001
1000
0010
1000
,
1001
1000
0100
1000
,
0010
0000
0010
0000
0010
0100
0010
0000
,
1001
0000
0000
1000
0000
1000
0000
0000
,
1001
0000
0000
0001
0000
0001
0000
0000
,
0110
0000
0100
0000
0010
1000
0001
0010
,
0000
0000
0100
0000
0000
1000
0000
0000
2002
0000
0000
0000
3003
0000
0000
0000
,
1000
0010
0100
0001
,
1000
0000
0010
0000
1000
0100
0010
0001
,
1000
0001
0100
0010
,
1000
0000
0001
0000
0010
0100
1000
0001
,
0100
0010
1000
0010
,
0100
0010
0100
0000
0010
0100
0001
1000
,
0001
0001
1000
0010
0000
0000
0000
0000
,
0000
0000
0100
0001
,
0010
0001
1000
0100
,
0010
0100
1000
0000
0100
0000
1000
0000
,
0010
0000
0100
0000
0001
0100
0001
0100
,
0001
0100
0001
0100
0001
0000
1000
0000
,
0010
0100
0001
1000
,
0100
1000
0010
0000
0100
0000
0001
0000
,
1000
0000
0010
0000
0000
1000
0000
0010
,
0100
0001
1000
0100
0010
0000
0100
0000
,
1000
0010
0100
0001
,
1000
0100
0001
0000
0100
0000
0010
0000
,
0001
0000
1000
0000
0010
0100
0010
0100
,
0010
0100
0010
0100
0010
0000
1000
0000
,
0001
1000
0001
0000
1000
0000
0010
0000
,
1000
0001
1000
0000
0010
0000
0100
0000
,
0001
0100
0010
0100
0000
0010
0000
1000
,
0010
0100
0001
0000
2002
0000
0000
0000
,
0000
0000
0000
0000
,
0000
3003
0001
0000
,
1000
0000
0100
1000
,
0100
0000
1000
0000
,
0010
0000
0100
0001
,
0100
0000
0001
0000
,
0010
0000
0100
0010
,
0100
0000
0010
0000
,
0001
0000
0000
0000
0000
0000
0000
0000
0000
0000
1000
0000
0000
0001
0000
0000
,
0022
0033
1001
0001
,
0100
0000
0010
1000
0010
0000
0100
0001
,
0100
0000
0000
0001
0000
0000
1000
0000
1001
0000
0000
0000
1000
0000
0000
0000
,
0100
0000
0010
0100
1000
0000
1000
0000
,
1000
0001
0100
0001
0010
0001
0000
0010
,
0100
0010
0000
0100
1000
0100
1000
0100
,
2000
0000
3010
0100
0001
0100
0010
1000
,
0001
0000
0100
0000
0010
0000
1000
0000
0000
0000
0001
0000
0000
1000
0000
0000
,
0220
0000
0000
0000
0330
0000
0000
0000
0000
0000
0100
0000
0000
0010
0000
0000
,
2002
3003
1000
0010
,
0100
0001
0010
0100
,
0010
0001
1000
0001
,
0100
0000
0001
0000
1000
0001
0000
1000
,
0001
1001
0001
0100
,
0010
1000
0010
0100
,
0001
1000
0100
0100
,
0100
0010
0001
0010
1000
0010
0001
0010
,
0100
0000
0010
0000
0001
0000
0000
0100
,
0000
0010
0000
0000
0110
0000
1001
0000
,
0001
0001
0100
0000
0010
0000
0000
1000
,
0000
1000
0000
0000
0001
1000
0000
0001
,
1000
0000
1001
0000
0001
0100
0010
0000
,
0100
0010
1000
0000
0001
0010
0100
0000
,
0010
0001
1000
0000
0001
0000
0100
0000
,
0001
0000
0100
0000
0010
0000
1000
0000
0000
0000
0001
0000
0000
1000
0000
0000
,
0220
0330
1001
0000
;

//---------------dance-single - ----------------
#NOTEDATA:;
#CHARTNAME:;
#STEPSTYPE:dance-single;
#DESCRIPTION:;
#CHARTSTYLE:;
#DIFFICULTY:Easy;
#METER:5;
#RADARVALUES:0.358265,0.441478,0.078099,0.008678,0.000000,289.000000,280.000000,9.000000,1.000000,0.000000,0.000000,0.000000,0.000000,0.000000,0.358265,0.441478,0.078099,0.008678,0.000000,289.000000,280.000000,9.000000,1.000000,0.000000,0.000000,0.000000,0.000000,0.000000;
#CREDIT:;
#NOTES:
0000
0000
0000
0000
,
0000
0000
0000
0000
,
0000
0000
0000
0000
,
0000
0000
0000
0000
,
0000
0000
0000
0000
,
0000
0000
0000
0000
,
0000
0000
0000
0000
,
0001
0100
0010
0010
,
0100
0001
0010
0001
,
1000
0100
1000
0001
,
0100
0001
0010
0001
,
1000
0001
1000
0100
,
0010
0100
1000
0010
,
0100
0001
0010
0100
,
1000
1000
1000
1000
,
0001
0000
0100
0000
0010
0100
0010
0100
,
0020
0000
0000
0000
,
0030
0000
0000
0000
,
1000
0000
0001
0000
,
0010
0000
0001
0000
,
1000
0000
0001
0000
,
0100
0000
0001
0010
,
0001
1000
0010
0100
,
0010
1000
0001
0010
,
0001
1000
0010
0100
,
0000
1001
0000
0000
0000
0000
0000
0000
,
0001
0000
0000
0000
,
1000
0000
0000
0000
,
0010
0000
0000
0000
,
0100
0100
0010
0010
,
1000
0000
0000
0000
,
0001
0000
0000
0000
,
0010
0001
0100
0010
,
0000
1010
0000
0000
0000
0000
0000
0000
,
1000
0010
0100
0001
,
0010
1000
0010
0001
,
1000
0100
0010
0001
,
1000
0100
0001
0100
,
0010
0001
0100
0001
,
0010
0001
1000
0001
,
0100
0000
0010
1000
0000
0000
0000
0000
,
0000
0000
0001
0010
,
0001
1000
0100
0001
,
0100
1000
0001
1000
,
0010
1000
0001
0001
,
0001
0001
0010
0001
,
0100
0010
1000
0001
,
0010
1000
0010
0100
,
0010
0000
0001
0010
0000
0001
0000
0100
,
0010
1000
0001
0000
0010
0000
0001
0000
,
0100
0001
1000
0100
,
0010
0100
1000
0010
,
0100
0001
1000
1000
,
1000
1000
0001
1000
,
0010
0010
1000
0001
,
0010
0010
0001
1000
,
0010
0000
0010
0000
0000
0100
0000
0010
,
0100
0001
1000
0000
1001
0000
0000
0000
,
0000
0000
0000
0000
,
0000
0000
0001
0000
,
0100
0000
0010
1000
,
0010
0000
1000
0000
,
0001
0000
0010
0001
,
0010
0000
0001
0000
,
1000
0000
0100
1000
,
0100
0000
1000
0000
,
0010
0000
0000
0000
0000
0101
0000
0000
,
0000
0000
0001
0000
,
1000
0000
0010
1000
,
0010
0100
0001
0000
,
0010
0000
0001
0001
,
0001
1000
0001
0000
1000
0000
0000
0000
,
0001
0000
0100
0100
,
0010
0100
0010
0000
0100
0000
0010
0000
,
1000
0000
0010
0000
0000
1010
0000
0000
,
0000
0000
0000
0000
0000
0101
0000
0000
,
0000
0000
0001
1000
,
0010
1000
0010
0100
,
0001
0010
0100
0010
,
0001
0000
1000
0000
0001
0100
0000
0100
,
0001
1001
0001
0010
,
0001
0010
0001
0100
,
0001
0100
0001
0001
,
1000
1000
0001
0100
,
0010
1000
0010
0100
,
0001
1000
0001
0010
,
0001
0100
0001
0000
0100
0000
0001
0000
,
0010
0000
0100
0000
1000
0100
0000
0100
,
1000
0100
1000
0010
,
0100
0001
1000
0010
,
0100
0001
1000
0100
,
0010
0001
0100
0000
0000
0110
0000
0000
,
0000
0000
1001
0000
;

//---------------dance-single - ----------------
#NOTEDATA:;
#CHARTNAME:;
#STEPSTYPE:dance-single;
#DESCRIPTION:;
#CHARTSTYLE:;
#DIFFICULTY:Beginner;
#METER:2;
#RADARVALUES:0.138843,0.240806,0.017355,0.000000,0.000000,112.000000,110.000000,2.000000,0.000000,0.000000,0.000000,0.000000,0.000000,0.000000,0.138843,0.240806,0.017355,0.000000,0.000000,112.000000,110.000000,2.000000,0.000000,0.000000,0.000000,0.000000,0.000000,0.000000;
#CREDIT:;
#NOTES:
// measure 0
0000
0000
0000
0000
,  // measure 1
0000
0000
0000
0000
,  // measure 2
0000
0000
0000
0000
,  // measure 3
0000
0000
0000
0000
,  // measure 4
0000
0000
0000
0000
,  // measure 5
0000
0000
0000
0000
,  // measure 6
0000
0000
0000
0000
,  // measure 7
0010
0100
0010
0010
,  // measure 8
1000
0000
0000
0000
,  // measure 9
0001
0000
0000
0000
,  // measure 10
0010
0000
0000
0000
,  // measure 11
0001
0000
0000
0000
,  // measure 12
1000
0000
1000
0000
,  // measure 13
0001
0000
0001
0000
,  // measure 14
0100
0000
0010
0000
,  // measure 15
0100
0000
0010
0010
,  // measure 16
0010
0000
0000
0000
,  // measure 17
0000
0000
0000
0000
,  // measure 18
1000
0000
0000
0000
,  // measure 19
0000
0000
0000
0000
,  // measure 20
0001
0000
0000
0000
,  // measure 21
0000
0000
0000
0000
,  // measure 22
0100
0000
0000
0000
,  // measure 23
0000
0000
0000
0000
,  // measure 24
0010
0000
0000
0000
,  // measure 25
0000
0000
0000
0000
,  // measure 26
1000
0000
0000
0000
,  // measure 27
0001
0000
0000
0000
,  // measure 28
1000
0000
0000
0000
,  // measure 29
0001
0000
0001
0000
,  // measure 30
0100
0000
0000
0000
,  // measure 31
0010
0000
0000
0000
,  // measure 32
0100
0000
0010
0000
,  // measure 33
1000
0000
0000
0000
,  // measure 34
0001
0000
0000
0000
,  // measure 35
0010
0000
0100
0000
,  // measure 36
1000
0000
0000
0000
,  // measure 37
0100
0000
0010
0000
,  // measure 38
0001
1000
0001
0000
,  // measure 39
0000
0000
0100
0000
,  // measure 40
0000
0000
0000
0000
,  // measure 41
0000
0000
0010
0000
,  // measure 42
0000
0000
1000
0000
,  // measure 43
0000
0000
0001
0000
,  // measure 44
0000
0000
0010
0000
,  // measure 45
0010
0000
0001
0000
,  // measure 46
0000
0000
1000
0000
,  // measure 47
0000
0000
0100
0000
,  // measure 48
1000
0000
0010
0000
,  // measure 49
0000
0000
0100
0000
,  // measure 50
0000
0000
0010
0000
,  // measure 51
0000
0000
1000
0000
,  // measure 52
0000
0000
0001
0000
,  // measure 53
0001
0000
1000
0000
,  // measure 54
0000
0000
0001
0000
,  // measure 55
0000
0000
1000
0000
,  // measure 56
0001
0000
1000
0000
,  // measure 57
0000
0000
0110
0000
,  // measure 58
0000
0000
0000
0000
,  // measure 59
0000
0000
0010
0000
,  // measure 60
0000
0000
0000
0000
,  // measure 61
0000
0000
0100
0000
,  // measure 62
0000
0000
0000
0000
,  // measure 63
0000
0000
0001
0000
,  // measure 64
0000
0000
0000
0000
,  // measure 65
0000
0000
1000
0000
,  // measure 66
0000
0000
0001
0000
,  // measure 67
0000
0000
0100
0000
,  // measure 68
0000
0000
0010
0000
,  // measure 69
0010
0000
0010
0000
,  // measure 70
0000
0000
1000
0000
,  // measure 71
1000
0000
0001
0000
,  // measure 72
1000
0000
0001
0001
,  // measure 73
0001
0000
1000
0000
,  // measure 74
0010
0000
0100
0000
,  // measure 75
0000
0000
0010
0000
,  // measure 76
0000
0000
1000
0000
,  // measure 77
0000
0000
0010
0000
,  // measure 78
0000
0000
0100
0000
,  // measure 79
0000
0000
0001
0001
,  // measure 80
0001
0000
1000
0000
,  // measure 81
0000
0000
0001
0000
,  // measure 82
0000
0000
0010
0000
,  // measure 83
0001
0000
0100
0100
,  // measure 84
0100
0000
0010
0000
,  // measure 85
0000
0000
1000
1000
,  // measure 86
1000
0000
0001
0000
,  // measure 87
0000
0000
0010
0010
,  // measure 88
0010
0000
0100
0000
,  // measure 89
0000
0000
0010
0000
,  // measure 90
0000
0000
0001
0000
,  // measure 91
1000
0000
0010
0000
,  // measure 92
0000
0000
1001
0000
;
