#TITLE:Jeh Jeh Rocket;
#SUBTITLE:;
#ARTIST:長沼英樹;
#TITLETRANSLIT:;
#SUBTITLETRANSLIT:;
#ARTISTTRANSLIT:Hideki Naganuma;
#GENRE:;
#CREDIT:;
#BANNER:[The Sampling Paradise] - Jeh Jeh Rocket.png;
#BACKGROUND:[The Sampling Paradise] - Jeh Jeh Rocket-bg.png;
#LYRICSPATH:;
#CDTITLE:;
#MUSIC:[The Sampling Paradise] - Jeh Jeh Rocket.ogg;
#OFFSET:-0.306000;
#SAMPLESTART:13.817035;
#SAMPLELENGTH:15.000000;
#SELECTABLE:YES;
#BPMS:0.000000=142.000000
;
#STOPS:
;
#BGCHANGES:;
#KEYSOUNDS:;
#ATTACKS:;

//---------------dance-single - ----------------
#NOTES:
     dance-single:
     :
     Hard:
     8:
     0.601981,0.933534,0.243108,0.623977,0.202590,413.000000,30.000000,77.000000,0.000000,0.000000,0.000000,0.601981,0.933534,0.243108,0.623977,0.202590,413.000000,30.000000,77.000000,0.000000,0.000000,0.000000:
// measure 0
0000
0000
0000
0000
,  // measure 1
0000
0000
0000
0000
,  // measure 2
0000
0000
0000
0000
,  // measure 3
0000
0000
0000
0000
,  // measure 4
0001
0000
0000
1000
0100
0000
1000
0000
0001
0000
0010
0000
0001
0000
0000
0000
,  // measure 5
1000
0000
0000
0001
0100
0000
0001
0000
1000
0000
0010
0000
0100
0010
0000
0000
,  // measure 6
1000
0000
0000
0100
0010
0000
0100
0000
1000
0000
0001
0000
0100
0000
0100
0000
,  // measure 7
0001
0101
0000
0001
1000
1100
0000
0100
,  // measure 8
1002
0000
0000
0100
0000
0000
2003
0000
0001
0000
0000
0100
0000
0000
3002
0000
,  // measure 9
1000
0000
0000
0100
0000
0000
2003
0000
0001
0000
0000
0100
0000
0000
3001
0000
,  // measure 10
1001
0000
0001
0000
0100
0000
0000
0000
0001
0000
0001
0010
0000
0000
0001
0000
,  // measure 11
0010
0000
0100
0000
1000
0000
0000
0000
1000
0000
1000
0010
0000
0000
0010
0000
,  // measure 12
1000
0000
0001
0000
0100
0000
0000
0000
0100
0000
0001
0010
0000
0000
0010
0000
,  // measure 13
0001
0000
1000
0000
0100
0000
0000
0000
0100
0000
1000
0010
0000
0000
0010
0100
,  // measure 14
0001
0000
1000
0000
0010
0000
0000
0000
0001
0000
0010
0100
0000
0000
0100
0000
,  // measure 15
1000
0000
0001
0000
0010
0000
0000
0000
1000
0000
0010
0100
0000
0000
0001
0000
,  // measure 16
0100
0000
0001
0010
0000
0000
0010
0000
0100
0000
1000
0010
0000
0000
0010
0000
,  // measure 17
1000
0000
0001
0010
0001
0000
1000
0010
1000
0000
0001
0000
0001
0000
0001
0000
,  // measure 18
0010
0000
0100
0000
1000
0000
0100
0000
0010
0000
0002
0000
0003
0000
0000
0010
,  // measure 19
0000
0001
0010
0000
0100
0000
0010
0000
0001
0000
2000
0000
3000
0000
0000
0000
,  // measure 20
0010
0000
0100
0000
0001
0000
1000
0000
0010
0000
1000
0000
0100
0000
0010
0001
,  // measure 21
0000
0001
0100
0000
0001
0000
1000
0000
0001
0000
0020
0000
0030
0000
0000
0000
,  // measure 22
0010
0000
0100
0000
1000
0000
0010
0000
0100
0000
0002
0000
0003
0000
0000
0100
,  // measure 23
0000
0010
0100
0000
0001
0000
0010
0000
0100
0000
2000
0000
3000
0000
0000
0000
,  // measure 24
0100
0000
1000
0000
0001
0000
0100
0000
0010
0000
1000
0000
0001
0000
0010
0100
,  // measure 25
0000
0100
1000
0000
0100
0000
0010
0000
0002
0000
0000
0100
0000
0000
1003
0000
,  // measure 26
2000
0000
0000
0000
3100
0000
0010
0000
0100
0000
0000
1000
0000
0000
0001
0000
,  // measure 27
0002
0000
0000
0000
0103
0000
0010
0000
0100
0000
0000
0001
0000
0000
1000
0000
,  // measure 28
2000
0000
0000
0000
3010
0000
0100
0000
0001
0000
0000
1000
0000
0000
0001
0000
,  // measure 29
0002
0000
0000
0000
0013
0000
0100
0000
1000
0000
0000
0001
0000
0000
1000
0000
,  // measure 30
1000
0000
0000
1000
0100
0000
0010
0000
0010
0000
0000
0010
0001
0000
0100
0000
,  // measure 31
0100
0000
0000
0100
0010
0000
1000
0000
1000
0000
0000
1000
0001
0000
0100
0000
,  // measure 32
0002
0000
0000
0010
0000
0000
0100
0000
2003
0000
0000
0010
0000
0000
0100
0000
,  // measure 33
3002
0000
0000
0010
0000
0000
0100
0000
2003
0000
0000
0010
0000
0000
3001
0000
,  // measure 34
1002
0100
1000
0010
,  // measure 35
2003
0000
0100
0000
0001
0000
0010
3000
,  // measure 36
1002
0100
0010
0100
,  // measure 37
2003
0100
0010
0100
,  // measure 38
3001
0101
0000
0011
0000
0010
0001
0100
,  // measure 39
0000
1100
0000
1010
0000
1000
0010
0100
,  // measure 40
0000
0011
0000
0101
0000
0100
0001
0010
,  // measure 41
0000
1010
0000
1100
0000
0010
1000
0100
,  // measure 42
0000
0101
0000
0110
0000
0001
0100
0010
,  // measure 43
0000
1010
0000
0110
0000
0010
1000
0001
,  // measure 44
0000
0110
0000
1001
0000
0001
0100
0010
,  // measure 45
2000
0200
0300
0200
0300
0200
3300
0200
,  // measure 46
1300
0100
0001
0100
2000
0000
3002
0000
,  // measure 47
1003
0010
0001
0010
2000
0000
3002
0000
,  // measure 48
1003
0000
0100
0000
0001
0000
0100
0000
1000
0000
0001
0000
0010
0000
0100
1000
,  // measure 49
0000
1000
0001
0000
0100
0000
0010
0000
1000
0000
0002
0000
0003
0000
0000
0000
,  // measure 50
0001
0000
1000
0000
0010
0000
0100
0000
0001
0000
2000
0000
3000
0000
0000
1000
,  // measure 51
0000
1000
0100
0000
1000
0000
0010
0000
0100
0000
0002
0000
0003
0000
0000
0000
,  // measure 52
0000
0001
0000
0100
0010
0000
1000
0000
0001
0000
1000
0000
0100
0000
0010
0000
,  // measure 53
0220
0000
0000
0000
0330
0000
0100
1000
,  // measure 54
0001
0000
2100
0000
3001
0000
0100
0001
,  // measure 55
1000
0000
0102
0000
1003
0000
1000
0001
,  // measure 56
0010
0000
2100
0000
3010
0000
0001
1000
,  // measure 57
0010
0000
0102
0000
0013
0000
0001
0010
,  // measure 58
0200
0000
0300
0100
2000
0000
3000
1000
,  // measure 59
0020
0000
0030
0010
0200
0000
0300
0100
,  // measure 60
0002
2003
3002
2003
,  // measure 61
3001
0100
0001
0001
1000
0100
1000
1000
,  // measure 62
0020
0000
0000
0000
,  // measure 63
0000
0000
0000
0030
,  // measure 64
0010
1001
0010
1001
,  // measure 65
0100
1001
0100
1001
,  // measure 66
1000
0100
1000
0100
1000
0100
1000
0100
,  // measure 67
2000
3000
0002
0003
2000
3000
0002
0003
2000
3000
0002
0003
2000
3000
0002
0003
,  // measure 68
0200
0302
0203
0302
0203
0302
0203
0302
,  // measure 69
0203
0000
0020
0300
0200
0030
0020
0300
0200
0030
0020
0300
0200
0030
0020
0300
,  // measure 70
2030
0000
0000
0010
0000
0000
3002
0000
0100
0000
0000
0010
0000
0000
2003
0000
,  // measure 71
0100
0000
0000
0010
0000
0000
3002
0000
0100
0000
0000
0010
0003
0000
0010
0000
,  // measure 72
1001
0000
0000
0000
;

//---------------dance-single - ----------------
#NOTES:
     dance-single:
     :
     Beginner:
     1:
     0.115766,0.116692,0.064829,0.000000,0.000000,92.000000,8.000000,0.000000,0.000000,0.000000,0.000000,0.115766,0.116692,0.064829,0.000000,0.000000,92.000000,8.000000,0.000000,0.000000,0.000000,0.000000:
0000
0000
0000
0000
,
0000
0000
0000
0000
,
0000
0000
0000
0000
,
0000
0000
0000
0000
,
1000
0000
0000
0000
,
1000
0000
0000
0000
,
0001
0000
0000
0000
,
0001
0000
0000
0000
,
0010
0000
0010
0000
,
0010
0000
0010
0000
,
0001
0000
0000
0000
,
0100
0000
0000
0000
,
0001
0000
0000
0000
,
0010
0000
0000
0000
,
1000
0000
0000
0000
,
0100
0000
0000
0000
,
1000
0000
0000
0000
,
0010
0010
0010
0000
,
1000
0000
0000
0000
,
0001
0000
0000
0000
,
1000
0000
0100
0000
,
0010
0000
0000
0000
,
0001
0000
0000
0000
,
1000
0000
0000
0000
,
0001
0000
0100
0000
,
0010
0000
0000
0000
,
1000
0000
0000
0000
,
0001
0000
0000
0000
,
1000
0000
0000
0000
,
0001
0000
0000
0000
,
0010
0000
0100
0000
,
0010
0000
0100
0000
,
0010
0000
0010
0000
,
0010
0000
0010
0000
,
1001
0000
0000
0000
,
0000
0000
0000
0000
,
1001
0000
0000
0000
,
0000
0000
0000
0000
,
0000
0001
0000
0001
,
0000
1000
0000
1000
,
0000
0001
0000
0001
,
0000
1000
0000
1000
,
0000
0001
0000
0001
,
0000
1000
0000
1000
,
0000
0001
0000
0001
,
0100
0000
0000
0000
,
0001
0000
0000
0000
,
0100
0000
0000
0000
,
0010
0000
0000
0000
,
1000
0000
0001
0000
,
1000
0000
0000
0000
,
0100
0000
0000
0000
,
0010
0000
0000
0000
,
0001
0000
0000
0000
,
1001
0000
0000
0000
,
0110
0000
0000
0000
,
1001
0000
0000
0000
,
0110
0000
0000
0000
,
0001
0000
1000
0000
,
0001
0000
1000
0000
,
0100
0000
0100
0000
,
0010
0000
0010
0000
,
0110
0000
0000
0000
,
0000
0000
0000
0000
,
0000
0000
0000
0000
,
0000
0000
0000
0000
,
0000
1000
0000
1000
,
0000
0100
0000
0100
,
0000
0010
0000
0010
,
0000
0001
0000
0001
,
0100
0000
0100
0000
,
0100
0000
0100
0000
,
1001
0000
0000
0000
;

//---------------dance-single - ----------------
#NOTES:
     dance-single:
     :
     Easy:
     3:
     0.259315,0.233384,0.032414,0.421387,0.000000,168.000000,4.000000,52.000000,0.000000,0.000000,0.000000,0.259315,0.233384,0.032414,0.421387,0.000000,168.000000,4.000000,52.000000,0.000000,0.000000,0.000000:
0000
0000
0000
0000
,
0000
0000
0000
0000
,
0000
0000
0000
0000
,
0000
0000
0000
0000
,
2000
3000
0200
0300
,
0020
0030
0002
0003
,
2000
3000
0020
0030
,
0200
0300
0002
0003
,
0020
0030
0020
0030
,
0020
0030
0020
0030
,
0001
0100
0001
0000
,
0100
0001
1000
0000
,
0001
0010
0001
0000
,
1000
0010
0100
0000
,
0001
1000
0001
0000
,
1000
0001
1000
0000
,
0001
1000
0100
0010
,
0100
0100
0200
0300
,
1000
0000
1000
1000
,
0001
0000
0001
0001
,
1000
0000
1000
1000
,
0200
0300
0020
0030
,
0001
0000
0001
0001
,
1000
0000
1000
1000
,
0001
0000
0001
0001
,
0200
0300
0020
0030
,
1000
0200
0300
1000
,
0001
0020
0030
0001
,
1000
0020
0030
1000
,
0001
0200
0300
0001
,
1000
0100
1000
0100
,
0010
0001
0010
0001
,
0200
0300
0200
0300
,
0200
0300
0200
0300
,
1001
0000
0000
0000
,
0000
0000
0000
0000
,
1001
0000
0000
0000
,
0000
0000
0000
0000
,
0002
0003
0001
0100
,
0020
0030
0010
1000
,
0200
0300
0100
0010
,
0002
0003
0001
1000
,
0020
0030
1000
0001
,
0200
0300
0001
1000
,
0001
0010
0100
1000
,
0200
0000
0000
0300
,
1000
0000
1000
0000
,
0001
0000
0001
0000
,
1000
0000
1000
0100
,
0200
0300
0200
0300
,
1000
0010
0200
0300
,
0001
0010
0200
0300
,
1000
0010
0100
0001
,
1001
0000
0000
0002
,
0003
0000
0100
0200
,
0300
0000
0010
0020
,
0030
0000
1000
2000
,
3000
0000
0001
2000
,
3000
0200
0300
0020
,
0030
0002
0003
2000
,
3000
0001
1000
0001
,
0200
0300
0200
0300
,
0020
0000
0000
0000
,
0000
0000
0000
0000
,
0030
0000
0000
0000
,
0000
0000
0000
0000
,
1000
0100
1000
0100
,
1000
0001
1000
0001
,
0100
0001
0100
0001
,
0100
0010
0100
0010
,
0200
0300
0200
0300
,
0200
0300
0200
0300
,
1001
0000
0000
0000
;

//---------------dance-single - ----------------
#NOTES:
     dance-single:
     :
     Medium:
     5:
     0.466536,0.466767,0.218797,0.664495,0.048622,294.000000,27.000000,82.000000,0.000000,0.000000,0.000000,0.466536,0.466767,0.218797,0.664495,0.048622,294.000000,27.000000,82.000000,0.000000,0.000000,0.000000:
0000
0000
0000
0000
,
0000
0000
0000
0000
,
0000
0000
0000
0000
,
0000
0000
0000
0000
,
2000
3100
0002
0103
,
2000
3010
0002
0013
,
2000
3100
0002
0103
,
2000
0100
0001
3100
,
0002
0000
0003
0100
0000
0000
0010
0000
2000
0000
3000
0100
0000
0000
0010
0000
,
0002
0000
0003
0100
0000
0000
0010
0000
2000
0000
3000
0100
0000
0000
0010
0000
,
0010
0000
1100
0000
0100
0010
0001
0000
,
0010
0000
1100
0000
1000
0010
0100
0000
,
0010
0000
0101
0000
0100
0010
1000
0000
,
0010
0000
0101
0000
0001
1000
0100
1000
,
0020
0000
0130
0000
0001
1000
0100
0000
,
0020
0000
0130
0000
1000
0001
0100
0000
,
0001
1000
0100
0000
1000
0001
0100
0000
,
0010
0100
0010
0100
0010
0010
0010
0000
,
2000
0000
0100
3010
,
0002
0000
0100
0013
,
2000
0000
0100
3100
,
0002
0000
2003
3001
,
1000
0100
2000
0010
,
3001
0100
0002
0010
,
2003
3100
0002
0013
,
0100
0100
0010
0010
,
1001
2000
3100
0000
,
1001
0002
0013
0000
,
1001
2000
3010
0000
,
1001
0002
0103
0000
,
1001
0100
1001
0100
,
1001
0010
1001
0010
,
2000
0000
3000
0010
0000
0000
0100
0000
0002
0000
0003
0010
0000
0000
0100
0000
,
2000
0000
3000
0010
0000
0000
0100
0000
0002
0000
0003
0010
0000
0000
0100
0000
,
0200
1000
0000
0001
,
0000
1000
0000
0301
,
0000
1100
0000
0101
,
0000
1010
0000
0011
,
0000
2000
3000
2000
3000
1000
0100
0010
,
0000
0002
0003
0002
0003
0001
0100
0010
,
0000
2000
3000
0200
0300
0001
0100
1000
,
0000
0002
0003
0200
0300
1000
0100
0001
,
0000
2000
3000
0002
0003
1000
0010
0100
,
0000
0002
0003
2000
3000
0001
0010
0100
,
0000
2000
3000
2000
3000
1000
0100
0010
,
0002
0003
0002
0003
0002
0003
0002
0003
,
1000
0000
0001
1000
0200
0000
0300
0000
,
0001
0000
1000
0001
0200
0000
0300
0000
,
1000
0000
0001
1000
0200
0000
1300
0001
,
0010
0010
0100
0100
,
0010
0000
0001
1000
0100
0000
1001
0000
,
0010
0000
1000
0001
0100
0000
1001
0000
,
0010
0000
0001
1000
0100
0000
1000
0001
,
0020
0000
0030
0100
,
0200
0000
1000
0000
0310
0001
0100
0000
,
0200
0000
0001
0000
0310
1000
0100
0000
,
0200
0000
0010
0000
1300
0001
0100
0000
,
0200
0000
0010
0000
0301
1000
0100
0000
,
2100
3001
0102
1003
,
2100
3001
0102
1003
,
1100
0101
1100
0101
,
0100
0001
0100
0001
1000
0100
1000
0100
,
0020
0000
0000
0000
,
0000
0000
0000
0030
,
0010
0100
1000
0100
,
0010
0001
0100
0001
,
0020
0032
2003
3200
,
2300
3020
0230
0302
,
0023
0032
2003
3200
,
2300
3020
0230
0302
,
0203
0000
0300
0001
0000
0000
1000
0000
0200
0000
0300
1000
0000
0000
0001
0000
,
0020
0000
0030
0001
0000
0000
1000
0000
0020
0000
0030
1000
0000
0000
0001
0000
,
1001
0000
0000
0000
;
