#TITLE:HELL SCAPER;
#SUBTITLE:-Last Escape Remix-;
#ARTIST:Remixed by DJ TECHNORCH fw.GUHROOVY;
#TITLETRANSLIT:;
#SUBTITLETRANSLIT:;
#ARTISTTRANSLIT:;
#GENRE:GABBAH;
#CREDIT:Graphics made by TonyAkita;
#MUSIC:[The Sampling Paradise] - HELL SCAPER -Last Escape Remix-.ogg;
#BANNER:[The Sampling Paradise] - HELL SCAPER -Last Escape Remix-.png;
#BACKGROUND:[The Sampling Paradise] - HELL SCAPER -Last Escape Remix--bg.png;
#JACKET:[The Sampling Paradise] - HELL SCAPER -Last Escape Remix--jacket.png;
#CDTITLE:;
#SAMPLESTART:72.178;
#SAMPLELENGTH:15.882;
#SELECTABLE:YES;
#OFFSET:-0.185;
#BPMS:0.000=180.000;
#STOPS:;
#DISPLAYBPM:180.000;
#BGCHANGES:;
#FGCHANGES:;

//--------------- dance-single - forcednature ----------------
#NOTES:
     dance-single:
     forcednature:
     Beginner:
     3:
     0,0,0,0,0:
0000
0000
0000
0000
,
0000
0000
0000
0000
,
0000
0000
0000
0000
,
0000
0000
0000
0000
,
0000
0000
0000
0000
,
0000
0000
0000
0000
,
0000
0000
0000
0000
,
0000
0000
0000
0000
,
1001
0000
0000
0000
,
0001
0001
0100
0000
,
1001
0000
0000
0000
,
1000
1000
0100
0000
,
1001
0000
0000
0000
,
0001
0001
0010
0000
,
1001
0000
0000
0000
,
1000
1000
0010
0000
,
0110
0000
0000
0000
,
0001
0100
1000
0000
,
0110
0000
0000
0000
,
1000
0100
0001
0000
,
0110
0000
0000
0000
,
0001
0010
1000
0000
,
0110
0000
0000
0000
,
1000
0010
0001
0000
,
0010
0000
0010
0000
,
0100
0000
0001
1000
,
0100
0000
0100
0000
,
0100
0000
1000
0001
,
0010
0000
0010
0000
,
0010
0000
1001
0000
,
0010
0000
0010
0000
,
0100
0000
0001
1000
,
0010
0000
0010
0000
,
0010
0000
0001
1000
,
0100
0000
0100
0000
,
0100
0000
1000
0010
,
0100
0000
0100
0000
,
0100
0000
1001
0000
,
0010
0000
0010
0000
,
0001
0000
0100
0000
,
0010
0000
0010
0000
,
0010
0000
0010
0000
,
0010
0000
0010
0000
,
0010
0000
0010
0000
,
0010
0010
0010
0010
,
0010
0010
0010
0010
,
0010
0010
0010
0010
,
0010
0010
0010
0010
,
0010
0000
0000
0000
,
0000
0000
0000
0000
,
0000
0000
0000
0000
,
0000
0000
0000
0000
,
0000
0000
0000
0000
,
0000
0000
0000
0000
,
1001
0000
0100
0000
,
0010
0000
0000
0000
,
0100
0000
0001
0000
,
0010
0000
0000
0000
,
1001
0000
0100
0000
,
0010
0000
0000
0000
,
0100
0000
1000
0000
,
0010
0000
0000
0000
,
1000
0000
0001
0000
,
0100
0000
0100
0000
,
1000
0000
0001
0000
,
0100
0000
0100
0000
,
0001
0000
1000
0000
,
0100
0000
0100
0000
,
0001
0000
1000
0000
,
1001
0000
0000
0000
,
1001
0000
0001
0000
,
0100
0000
1000
0000
,
0100
0000
0010
0000
,
0001
0000
0010
0000
,
1000
0000
0100
0000
,
0010
0000
0001
0000
,
0100
0000
0010
0000
,
1001
0000
0000
0000
,
1001
0000
0001
0000
,
0100
0000
0010
0000
,
0001
0000
1000
0000
,
0100
0000
0010
0000
,
1000
0000
0001
0000
,
0100
0000
0010
0000
,
0001
0000
0100
0000
,
1001
0000
0000
0000
,
1001
0000
0000
0000
,
0010
0000
0010
0000
,
1001
0000
0000
0000
,
0010
0000
0010
0000
,
1001
0000
1001
0000
,
1001
0000
0000
0000
,
1001
0000
0001
0000
,
0100
0100
0100
0000
,
1001
0000
1000
0000
,
0100
0100
0100
0000
,
1001
0000
1000
0010
,
1000
0010
1000
0000
,
1001
0000
0001
0010
,
0001
0010
0001
0000
,
1001
0000
0000
0000
,
0000
0000
0000
0000
,
0000
0000
0000
0000
,
0000
0000
0000
0000
,
1001
0000
0000
0000
;

//--------------- dance-single - forcednature ----------------
#NOTES:
     dance-single:
     forcednature:
     Easy:
     5:
     0,0,0,0,0:
0000
0000
0000
0000
,
0000
0000
0000
0000
,
0000
0000
0000
0000
,
0000
0000
0000
0000
,
0000
0000
0000
0000
,
0000
0000
0000
0000
,
0000
0000
0000
0000
,
0000
0000
0000
0000
,
1001
0001
0100
0010
,
1100
0100
0011
0010
,
1001
0001
0100
0010
,
1100
0010
0101
0010
,
1001
0010
1000
0100
,
0011
0010
1010
0010
,
0101
1000
0010
0001
,
0020
0000
0000
0130
,
1001
1000
0010
0001
,
0020
0000
0100
0130
,
1001
1000
0010
0100
,
0020
0000
0001
0031
,
1001
0001
0100
0010
,
0020
0000
0100
0130
,
1001
1000
0010
0100
,
0020
0100
0100
0130
,
1001
0100
0001
0010
,
0110
1000
0001
0100
,
1001
1000
0010
0001
,
0110
0001
0010
1000
,
1001
0100
0001
1000
,
0010
0001
0110
0110
,
1001
0001
0100
1000
,
0110
1000
0001
1001
,
1001
0100
0010
0001
,
0110
0010
1000
0001
,
1001
0001
0100
1000
,
0110
1000
0010
0001
,
1001
1000
0100
0001
,
0110
1000
0010
0001
,
1001
0001
0010
1000
,
0220
0000
0000
0330
,
1000
1000
0001
0001
,
1000
1000
0001
0001
,
0001
0001
1000
1000
,
0001
0001
1000
1000
,
0001
1000
0001
1000
,
0001
1000
0001
1000
,
0001
0001
0001
0000
1000
1000
1000
0000
,
0001
0001
0001
0000
1000
1000
1000
0000
,
2002
0000
0000
0000
,
0000
0000
0000
0000
,
0000
0000
0000
0000
,
0000
0000
0000
0000
,
3003
0000
0000
0000
,
0000
0000
0000
0000
,
1001
0001
0100
0010
,
0100
0100
0100
0000
,
1001
1000
0100
0010
,
0001
0001
0001
0000
,
0110
0001
0010
1000
,
0010
0010
0010
0000
,
0110
1000
0100
0001
,
0200
0000
0000
0310
,
1001
1000
0010
0100
,
0001
0010
0001
1000
,
1001
0001
0100
1000
,
0010
0100
0001
0010
,
0110
0001
1000
0010
,
1000
0100
0001
0100
,
1001
0001
0100
1000
,
0020
0000
0000
0130
,
0110
1000
0001
0100
,
0010
1000
0001
0010
,
1001
0001
0100
1000
,
0100
0001
0010
1000
,
0110
1000
0010
0001
,
0100
0010
0001
1000
,
1001
0001
0100
1000
,
0020
0000
0000
0000
0000
0130
0000
0000
,
1001
0001
0100
0010
,
1000
0100
0001
0100
,
1001
0001
0100
0010
,
1000
0010
0001
0010
,
1001
0001
0100
1000
,
0100
0001
0100
1000
,
1001
1000
0010
0001
,
0110
0000
0000
0000
,
0100
0000
0100
0000
0100
0000
0000
0010
,
0000
0010
0000
0000
0100
0000
0100
0000
,
0100
0000
0100
0000
0100
0000
0000
0010
,
0000
0010
0000
0000
0100
0000
0100
0000
,
1001
0000
0110
0000
,
1001
0000
0000
0000
,
1001
1000
0010
0100
,
0001
0010
0100
1000
,
0110
0001
0100
1000
,
0010
0100
0001
0010
,
1001
0100
1000
0001
,
0100
0010
0001
1000
,
0110
0001
0010
1000
,
0100
0100
0100
0000
,
1001
0000
0000
0000
,
0000
0000
0000
0000
,
0000
0000
0000
0000
,
0000
0000
0000
0000
,
0110
0000
0000
0000
;

//--------------- dance-single - forcednature ----------------
#NOTES:
     dance-single:
     forcednature:
     Medium:
     7:
     0,0,0,0,0:
0000
0000
0000
0000
,
0000
0000
0000
0000
,
0000
0000
0000
0000
,
0000
0000
0000
0000
,
0000
0000
0000
0000
,
0000
0000
0000
0000
,
0000
0000
0000
0000
,
0000
0000
0000
0000
,
1001
0001
0100
1000
,
0100
0001
1000
0000
0100
1000
0001
0000
,
1001
1000
0100
0001
,
0100
1000
0001
0000
0100
0001
1000
0000
,
1001
1000
0010
0001
,
1000
0100
0001
0000
1000
0001
1000
0000
,
1001
0001
0100
1000
,
0001
0010
1000
0000
0001
1000
0001
0000
,
0101
1000
0010
0100
,
0001
0001
0001
0000
1001
0000
0110
0000
,
1000
0100
0010
0001
,
1000
0000
0000
0010
0000
0100
0000
0000
0001
0000
0000
0000
1001
0000
0000
0000
,
0110
1000
0001
0010
,
0001
1000
0001
0000
0100
0000
0010
0000
,
1001
1000
0010
0001
,
0020
0000
0000
0030
,
1000
0100
0000
0010
0000
0001
0000
0100
,
0000
0010
0000
1000
0001
0000
1000
0010
,
0000
1000
0000
0100
0000
0001
0100
0000
,
1000
0000
0010
0000
0001
0010
1000
0000
,
0001
0010
1000
0010
,
0001
0000
0000
0000
0100
0000
0000
0000
1000
0000
0000
0100
0000
0000
0001
0000
,
1000
0010
0001
0010
,
0200
0000
0000
0300
,
0001
0010
0000
1000
0000
0010
0001
0100
,
0000
0010
0000
1000
0100
0000
0001
0100
,
0000
1000
0000
0001
0000
0100
1000
0100
,
0000
0001
0000
1000
0000
0100
0001
0100
,
0000
1000
0000
0010
0000
0100
0000
0001
,
0000
0000
0010
0000
0000
0000
0100
0000
0001
0000
0000
0100
0000
0000
1000
0000
,
0000
0010
0000
0100
0000
1000
0000
0100
,
0001
0000
1000
0100
0001
0000
0100
0000
,
1000
1000
0001
0001
,
1000
1000
0001
0001
,
1000
1000
0001
0001
,
1000
1000
0001
0001
,
1000
0100
0001
0000
0001
0100
1000
0000
,
1000
0100
0001
0000
0001
0100
1000
0000
,
0010
0100
0010
0100
0010
0100
0010
0100
,
0010
0100
0010
0100
0010
0100
0010
0000
,
2002
0000
0000
0000
,
0000
0000
0000
0000
,
0000
0000
0000
0000
,
0000
0000
0000
0000
,
3003
0000
0000
0000
,
0000
0000
0000
0000
,
1001
0000
0000
0000
0001
0000
0000
0000
0000
1000
0000
0000
0100
0000
0000
0000
,
0001
0000
0100
0000
1000
0000
0001
0000
0000
0100
0000
0000
0010
0000
0000
0000
,
1000
0000
0000
0000
0001
0000
0000
0000
0000
1000
0000
0000
0010
0000
0000
0000
,
0001
0000
0010
0000
1000
0000
0001
0000
0000
0010
0000
0000
1000
0000
0000
0000
,
0010
0000
0000
0000
0001
0000
0000
0000
0000
1000
0000
0000
0100
0000
0000
0000
,
0010
0000
0100
0000
1000
0000
0001
0000
0000
0100
0000
0000
1000
0000
0000
0000
,
0100
0000
0000
0000
0010
0000
0000
0000
0000
1000
0000
0000
0001
0000
0000
0000
,
2002
0000
0000
3003
,
0001
0000
0000
0000
0100
0000
0000
0000
0000
0010
0000
0000
1000
0000
0000
0000
,
0100
0001
0100
1000
,
0001
0000
0000
0000
0100
0000
0000
0000
0000
1000
0000
0000
0100
0000
0000
0000
,
0010
1000
0100
0010
,
1000
0000
0000
0000
0010
0000
0000
0000
0000
0001
0000
0000
1000
0000
0000
0000
,
0001
0100
0010
1000
,
0100
0010
0100
0010
0100
0010
0100
0000
,
2002
0000
0000
3003
,
1000
0000
0000
0000
0001
0000
0000
0000
0100
0001
0000
0100
0001
0000
0000
0000
,
1000
0100
0010
0001
,
0100
0000
0000
0000
0001
0000
0000
0000
1000
0010
0000
1000
0010
0000
0000
0000
,
1000
0100
0001
0100
,
1000
0000
0000
0000
0001
0000
0000
0000
0100
0010
0000
0100
0010
0000
0000
0000
,
1000
0010
0001
0010
,
1000
0000
0000
0000
0001
0000
0000
0000
0010
0100
0000
0010
0100
0000
0000
0000
,
2002
0000
0000
0000
0000
0000
0000
3003
0000
0000
0010
0000
0000
0000
0000
0000
,
1000
0000
0000
0000
0100
0000
0000
0000
0001
0100
0000
0001
0100
0000
0000
0000
,
1000
0001
0100
0010
,
0100
0000
0000
0000
1000
0000
0000
0000
0100
0001
0000
0100
0001
0000
0000
0000
,
1000
0100
0010
0001
,
1000
0000
0000
0000
0010
0000
0000
0000
0100
0001
0000
0100
0001
0000
0000
0000
,
1000
0100
0001
0100
,
0010
0100
0010
0100
0010
0100
0010
0100
,
2002
0000
3003
0000
,
0010
0010
0010
0010
0010
0000
0000
0010
,
0000
0010
0000
0010
0010
0010
0010
0010
,
0010
0010
0010
0010
0010
0000
0010
0010
,
0000
0010
0000
0010
0010
0010
0010
0010
,
1001
0000
0110
0000
,
2002
0000
0000
0000
0000
3003
0000
0000
,
1000
0000
0000
0000
0100
0000
0000
0000
0001
0100
0000
0001
0100
0000
0000
0000
,
1000
0100
0001
0100
,
0001
0000
0000
0000
0100
0000
0000
0000
1000
0100
0000
1000
0100
0000
0000
0000
,
1000
0100
0001
0100
,
1000
0000
0000
0000
0010
0000
0000
0000
0001
0010
0000
0001
0010
0000
0000
0000
,
0001
0010
1000
0010
,
0001
0000
0000
0000
0010
0000
0000
0000
1000
0010
0000
1000
0010
0000
0000
0000
,
1000
0000
0001
0000
1000
0000
0001
0000
0000
1000
0000
0000
0001
0000
0000
0000
,
2002
0000
0000
0000
,
0000
0000
0000
0000
,
0000
0000
0000
0000
,
0000
0000
3003
0000
,
0110
0000
0000
0000
;

//--------------- dance-single - forcednature ----------------
#NOTES:
     dance-single:
     forcednature:
     Hard:
     9:
     0,0,0,0,0:
0000
0000
0000
0000
,
0000
0000
0000
0000
,
0000
0000
0000
0000
,
0000
0000
0000
0000
,
0000
0000
0000
0000
,
0000
0000
0000
0000
,
0000
0000
0000
0000
,
0000
0000
0000
0000
,
0011
0110
1100
1001
,
1000
0010
0001
0010
1000
0100
0001
0000
,
0101
0110
1010
1001
,
0001
0010
1000
0010
0001
0100
1000
0000
,
0011
1001
1100
1001
,
1000
0100
0001
0100
1000
0010
0001
0000
,
1001
0101
0110
1010
,
0020
0000
0100
0000
0100
0030
1001
0000
,
1001
0101
1010
1001
,
0010
0010
0010
0010
0010
0000
1001
0000
,
1100
0110
0011
1001
,
0001
0000
0100
0001
0000
0100
0000
0001
0100
0000
0000
0000
0101
0000
0000
0000
,
1010
1001
1100
0011
,
0100
0100
0100
0100
0100
0000
1001
0000
,
1010
1001
0011
0110
,
0020
0000
0100
0000
0100
0030
0010
0010
,
1001
1000
0000
0100
0000
0010
0001
0010
,
0000
0001
0000
0100
1000
0100
0001
0100
,
0000
0110
0000
0010
0000
1000
0100
0001
,
0000
0110
0000
0100
0000
0001
0100
1000
,
0000
1010
0000
0100
0000
0011
0000
0100
,
0000
0000
1100
0000
0000
0000
0010
0000
0011
0000
0000
1001
0000
0000
1100
0000
,
0000
1000
0000
0001
0000
0100
0000
0010
,
0200
0010
0000
0010
0000
0310
1001
0000
,
0101
0001
0000
1000
0000
0100
0010
0001
,
0000
1001
0000
1000
0100
0001
0100
1000
,
0000
1001
0000
0100
0000
0010
1000
0001
,
0000
1001
0000
0100
0000
0010
0001
1000
,
0000
0101
0000
1100
0000
1010
0000
0011
,
0000
0000
1001
0000
0000
0000
0010
0000
1010
0000
0000
0011
0000
0000
1001
0000
,
0000
0101
0000
1000
0000
1100
0000
0001
,
0020
0000
0100
0100
0100
0030
1001
0000
,
1000
0100
1000
0100
0001
0100
0001
0100
,
1000
0010
1000
0010
0001
0010
0001
0010
,
1000
0100
0001
0100
1000
0010
0001
0010
,
1000
0100
0001
0100
1000
0010
0001
0010
,
1000
0000
1000
0001
0000
0000
0001
0100
0000
0000
0100
0010
0000
0000
0010
1000
,
0000
0000
1000
0100
0000
0000
0100
0010
0000
0000
0010
0001
0000
0000
0001
1000
,
0001
0100
1000
0100
0010
0100
1000
0100
,
0001
0100
0010
0100
1000
0100
0001
0100
,
1001
0000
0000
0000
,
0000
0000
0000
0000
,
0000
0000
0000
0000
,
0000
0000
0000
0000
,
0000
0000
0000
0000
,
0000
0000
0000
0000
,
1001
0000
0000
0000
0001
0000
0000
0000
0100
0001
0000
0100
0001
0000
0000
0000
,
1000
0000
0010
0000
1000
0000
0100
0000
0000
0100
0000
0000
0100
0000
0000
0000
,
0010
0000
0000
0000
0001
0000
0000
0000
1000
0010
0000
1000
0010
0000
0000
0000
,
1000
0000
0010
0000
0100
0000
0001
0000
0000
0001
0000
0000
0001
0000
0000
0000
,
0010
0000
0000
0000
0001
0000
0000
0000
0100
0001
0000
0100
0001
0000
0000
0000
,
1000
0000
0100
0000
0010
0000
0100
0000
0000
0100
0000
0000
0100
0000
0000
0000
,
1000
0000
0000
0000
0001
0000
0000
0000
1000
0010
0000
1000
0010
0000
0000
0000
,
2002
0000
0000
0000
0000
3003
0110
0000
,
1001
0000
0000
0000
0101
0000
0000
0000
1000
0100
0000
1000
0100
0000
0000
0000
,
0010
0000
0001
0000
1000
0000
0010
0000
0000
0010
0000
0000
0010
0000
0000
0000
,
0101
0000
0000
0000
1100
0000
0000
0000
0001
0010
0000
0001
0010
0000
0000
0000
,
0001
0000
1000
0000
0010
0000
0100
0000
0000
0100
0000
0000
0100
0000
0000
0000
,
0010
1000
0010
1000
0001
0100
0001
0100
,
0001
0010
0001
0010
0100
1000
0100
1000
,
0001
0010
0001
0000
1000
0100
1000
0000
0001
0100
0001
0000
1000
0010
1000
0000
,
1001
0000
0000
0000
0000
0000
0000
0000
0000
0000
0000
0000
0001
1000
0001
1000
,
0001
0000
0000
0000
1100
0000
0000
0000
1000
0010
0000
1000
0010
0000
0000
0000
,
1000
0000
0100
0000
0010
0000
0001
0000
0000
0001
0000
0000
0001
0000
0000
0000
,
1001
0000
0000
0000
0101
0000
0000
0000
0001
0010
0000
0001
0010
0000
0000
0000
,
0100
0000
1000
0000
0001
0000
1000
0000
0000
1000
0000
0000
1000
0000
0000
0000
,
1100
0000
0000
0000
0011
0000
0000
0000
0001
0100
0000
0001
0100
0000
0000
0000
,
0010
0000
1000
0000
0001
0000
0100
0000
0000
0100
0000
0000
0100
0000
0000
0000
,
1010
0000
0000
0000
0011
0000
0000
0000
1000
0100
0000
1000
0100
0000
0000
0000
,
2002
0000
0000
0000
0000
0000
0000
0000
3003
0000
0100
0010
0100
0000
0000
0000
,
1001
0000
0000
0000
0101
0000
0000
0000
1000
0001
0000
1000
0001
0000
0000
0000
,
0101
0110
1010
1001
,
1100
0000
0000
0000
0011
0000
0000
0000
0001
0100
0000
0001
0100
0000
0000
0000
,
0110
1010
1001
0011
,
1100
0000
0000
0000
1001
0000
0000
0000
1000
0100
0000
1000
0100
0000
0000
0000
,
0110
1100
1001
0011
,
0110
0000
0000
0000
1001
0000
0000
0000
0100
0001
0000
0100
0001
0000
0000
0000
,
2002
0000
0000
0000
0000
0000
0000
3003
,
0010
0010
0010
0010
0010
0000
0000
1001
,
0000
0110
0000
0100
0100
0100
0100
0100
,
0100
0100
0100
0100
0100
0000
1000
0001
,
0000
0110
0000
0010
0010
0010
0010
0010
,
1001
0000
0110
0000
,
1001
0000
0000
0000
,
1100
0000
0000
0000
0011
0000
0000
0000
0001
0100
0000
0001
0100
0000
0000
0000
,
0010
0000
1000
0000
0001
0000
0100
0000
0000
0100
0000
0000
0100
0000
0000
0000
,
1010
0000
0000
0000
0011
0000
0000
0000
1000
0100
0000
1000
0100
0000
0000
0000
,
0010
0000
0001
0000
1000
0000
0010
0000
0000
0010
0000
0000
0010
0000
0000
0000
,
0101
0000
0000
0000
1010
0000
0000
0000
1000
0100
0000
1000
0100
0000
0000
0000
,
0010
0000
0001
0000
1000
0000
0001
0000
0000
0001
0000
0000
0001
0000
0000
0000
,
0101
0000
0000
0000
1010
0000
0000
0000
1000
0001
0000
1000
0001
0000
0000
0000
,
1000
0000
0001
0000
0100
0000
0010
0000
0000
0110
0000
0000
1001
0000
0000
0000
,
0110
0000
0000
0000
,
0000
0000
0000
0000
,
0000
0000
0000
0000
,
0000
0000
0000
0000
,
1001
0000
0000
0000
;

//--------------- dance-single - forcednature ----------------
#NOTES:
     dance-single:
     forcednature:
     Challenge:
     10:
     0,0,0,0,0:
0000
0000
0000
0000
,
0000
0000
0000
0000
,
0000
0000
0000
0000
,
0000
0000
0000
0000
,
0000
0000
0000
0000
,
0000
0000
0000
0000
,
0000
0000
0000
0000
,
0000
0000
0000
0000
,
1001
0101
0110
1010
,
1000
0000
0100
0010
0100
0000
1000
0000
0001
0000
0010
0000
0001
0000
0000
0000
,
1001
1100
0110
0011
,
0001
0000
1000
0000
0001
0010
0100
1000
0001
0100
0001
1000
0010
0000
0000
0000
,
1010
1100
0011
0101
,
1000
0000
0001
0100
0001
0000
1000
0000
0010
0000
1000
0000
0100
0000
0000
0000
,
1001
0011
1010
1001
,
0001
0000
0100
0001
1000
0001
1000
0100
0010
0001
1000
0001
0100
0000
0000
0000
,
0110
1010
1001
0011
,
0001
0000
1000
0010
1000
0010
1000
0010
1000
0000
0000
0000
1010
0000
0000
0000
,
1001
1100
0110
0011
,
0001
0000
0100
0010
0000
1000
0000
0100
0010
0000
0000
0000
0001
0000
0000
0000
,
1001
0101
1100
1010
,
1000
0001
1000
0001
1000
0000
0010
0000
0100
0000
0000
0000
0011
0000
0000
0000
,
1001
0101
1100
1010
,
0020
0000
0000
0000
0000
0000
0000
0000
0000
0000
0000
0000
0100
0000
0000
0000
0000
0000
0000
0000
0000
0000
0000
0000
0100
0000
0000
0000
0000
0000
0000
0000
0000
0000
0000
0030
0010
0000
0000
0000
0000
0000
0010
0000
0000
0000
0000
0000
,
1001
1000
0100
0001
0100
1000
1000
1000
,
0010
0100
0001
0100
0010
1000
0001
0010
,
0001
1000
0001
0100
1000
0100
0100
0100
,
0010
1000
0100
0010
0001
0010
1000
0010
,
0001
1000
0001
0100
1000
0100
0010
1000
,
0100
0000
0001
0000
0100
0000
0010
0000
0011
0000
0000
1010
0000
0000
1001
0000
,
0001
0100
1000
0100
0010
0100
1000
0100
,
0002
0000
0000
0000
0000
0000
0000
0000
0000
0000
0000
0000
0010
0000
0000
0000
0000
0000
0000
0000
0000
0000
0000
0000
0010
0000
0000
0000
0000
0000
0000
0000
0000
0000
0000
0003
1001
0000
0000
0000
0000
0000
0000
0000
0000
0000
0000
0000
,
0011
0001
0100
1000
0100
0010
0010
0010
,
1000
0100
0001
0100
1000
0001
0010
1000
,
0010
0001
1000
0001
0100
0010
0010
0010
,
1000
0010
0001
0010
1000
0001
0100
0001
,
1000
0100
0001
0100
1000
0010
0100
1000
,
0100
0000
0001
0000
0100
0000
0010
0000
1010
0000
0000
1001
0000
0000
0011
0000
,
0001
0100
1000
0100
0010
1000
0100
0010
,
1001
0000
1000
0100
0001
0000
1001
0000
,
0001
0100
1000
0100
0001
0100
1000
0100
,
0001
0010
1000
0010
0001
0010
1000
0010
,
0001
0100
0001
0010
0001
0100
0001
0010
,
0100
1000
0010
1000
0100
1000
0010
1000
,
0100
0000
1000
0010
0100
0000
0001
0010
0100
0000
1000
0100
0010
0000
0001
0100
,
0010
0000
1000
0001
0010
0000
0001
1000
0100
0000
1000
0001
0100
0000
0001
1000
,
0010
1000
0010
1000
0001
1000
0001
1000
0001
0010
0001
0010
0100
0010
0100
0010
,
0100
1000
0001
0010
0001
1000
0100
0010
0001
1000
0001
0100
0010
1000
0010
0100
,
0001
0000
0000
0000
,
0000
0000
0000
0000
,
0000
0000
0000
0000
,
0000
0000
0000
0000
,
0000
0000
0000
0000
,
0000
0000
0000
0000
,
1001
0000
0001
0000
0100
0000
0010
0000
1000
0100
0000
1000
0100
0000
0010
0000
,
0001
0000
0010
0000
1000
0000
0010
0000
0000
0010
0000
0000
0010
0000
0000
0000
,
0001
0000
0100
0000
1000
0000
0100
0000
0010
1000
0000
0010
1000
0000
0100
0000
,
0010
0000
0001
0000
0010
0000
1000
0000
0000
1000
0000
0000
1000
0000
0000
0000
,
0010
0000
0001
0000
0100
0000
1000
0000
0100
0001
0000
0100
0001
0000
1000
0000
,
0100
0000
0001
0000
0100
0000
0010
0000
0000
0010
0000
0000
0010
0000
0000
0000
,
0001
0000
0100
0000
1000
0000
0100
0000
0001
0010
0000
0001
0010
0000
0100
0000
,
1000
0000
0000
0000
0000
0000
0002
0000
0000
0000
0000
0000
1000
0000
0000
0000
0000
0000
1000
0000
0000
0000
0000
0000
1000
0000
0000
0000
0000
0000
1000
0000
0000
0000
0000
0003
1001
0000
0000
0000
0000
0000
0000
0000
0000
0000
0000
0000
,
0001
0000
0010
0000
1000
0000
0010
0000
0001
0100
0000
0001
0100
0000
0010
0000
,
1000
0000
0100
0000
0010
0000
0100
0000
0000
0100
0000
0000
0100
0000
0000
0000
,
0010
0000
0001
0000
0010
0000
1000
0000
0010
0001
0000
0010
0001
0000
1000
0000
,
0001
0000
0100
0000
1000
0000
0100
0000
0000
0100
0000
0000
0100
0000
0000
0000
,
0010
0000
1000
0000
0001
0000
0010
0000
0100
1000
0000
0100
1000
0000
0001
0000
,
1000
0000
0010
0000
0100
0000
0001
0000
0000
0001
0000
0000
0001
0000
0000
0000
,
0001
0100
0010
1000
0010
0100
0001
1000
0001
0100
0010
1000
0001
1000
0010
0100
,
0001
0000
0001
0000
0001
0000
0001
0000
0000
0000
0000
0000
1000
0001
1000
0001
,
1000
0000
0010
0000
0001
0000
0010
0000
1000
0100
0000
1000
0100
0000
0010
0000
,
1000
0000
0010
0000
0001
0000
0100
0000
0000
0100
0000
0000
0100
0000
0000
0000
,
0001
0000
0100
0000
1000
0000
0100
0000
0010
1000
0000
0010
1000
0000
0100
0000
,
0010
0000
1000
0000
0010
0000
0001
0000
0000
0001
0000
0000
0001
0000
0000
0000
,
1000
0000
0001
0000
1000
0000
0100
0000
0010
1000
0000
0010
1000
0000
0010
0000
,
0001
0000
0100
0000
1000
0000
0100
0000
0000
0100
0000
0000
0100
0000
0000
0000
,
0010
0000
1000
0000
0001
0000
0010
0000
0100
1000
0000
0100
1000
0000
0010
0000
,
2002
0000
0000
0000
0000
0000
0000
0000
0000
0000
0000
0000
3003
0000
0000
0001
1000
0001
1000
0000
0000
0000
0000
0000
,
0001
0100
1000
0001
0010
1000
0100
0010
,
1000
0010
0001
1000
0100
0001
0100
1000
,
0010
0100
0001
0010
1000
0010
0001
0100
,
1000
0100
0001
1000
0100
0010
0100
0001
,
0100
1000
0010
0001
0010
0100
0001
0010
,
1000
0010
0001
1000
0010
0100
1000
0100
,
1100
0101
0011
1010
,
1001
0000
0000
0000
,
0001
0100
1000
0100
0001
0000
0000
1001
,
0000
0110
0000
1000
0100
0001
0100
1000
,
0001
0100
1000
0100
0001
0000
1010
0101
,
0000
0110
0000
0001
0010
1000
0010
0100
,
0110
1001
0110
1001
,
2002
0000
0000
0000
0000
0000
0000
3003
,
0001
0000
0100
0000
1000
0000
0100
0000
0001
0010
0000
0100
1000
0000
0001
0000
,
1000
0000
0010
0000
0001
0000
0010
0000
0000
2000
0000
0000
0001
3000
0000
0000
,
1000
0000
0100
0000
0010
0000
1000
0000
0010
0001
0000
1000
0010
0000
0100
0000
,
1000
0000
0100
0000
0001
0000
1000
0000
0000
0200
0000
0000
0010
0300
0000
0000
,
0001
0000
1000
0000
0001
0000
0100
0000
1000
0100
0000
0010
1000
0000
0100
0000
,
0010
0000
0001
0000
1000
0000
0010
0000
0000
0002
0000
0000
0010
0003
0000
0000
,
1100
0000
0000
0000
0101
0000
0000
0000
1000
0100
0010
0001
0010
0100
1000
0001
,
0100
0000
0000
0000
0000
0000
0010
0000
0000
0000
0000
0000
1000
0000
0000
0000
0000
0000
0011
0000
0000
0000
0000
0000
0000
0000
0000
1100
0000
0000
0000
0000
0000
0000
0000
0000
1000
0000
0001
0000
1000
0000
0001
0000
1000
0000
0001
0000
,
1000
0000
0000
0000
,
0000
0000
0000
0000
,
0000
0000
0000
0000
,
0000
0000
0000
0000
,
1001
0000
0000
0000
;

//--------------- dance-double - forcednature ----------------
#NOTES:
     dance-double:
     forcednature:
     Easy:
     5:
     0,0,0,0,0:
00000000
00000000
00000000
00000000
,
00000000
00000000
00000000
00000000
,
00000000
00000000
00000000
00000000
,
00000000
00000000
00000000
00000000
,
00000000
00000000
00000000
00000000
,
00000000
00000000
00000000
00000000
,
00000000
00000000
00000000
00000000
,
00000000
00000000
00000000
00000000
,
00011000
00100000
00010000
01000000
,
00100000
00100000
10000000
01000000
,
00011000
00000010
00001000
00000001
,
00000100
00000001
00000010
00001000
,
00011000
01000000
10000000
00010000
,
01000000
00100000
00001000
00010000
,
00011000
00000010
00001000
00000001
,
00000100
00000100
00000100
00000010
,
00011000
00100000
01000000
10000000
,
10010000
00000000
00100000
00100000
,
00011000
00000100
00001000
00000001
,
00000110
00000000
00000001
00001000
,
00011000
00100000
01000000
10000000
,
01100000
00000000
00010000
10000000
,
00011000
00000010
00001000
00000001
,
00000110
00000000
00000000
00000000
,
00000010
00000100
00000001
00000010
,
00000100
00001000
00001100
00011000
,
01000000
00010000
10000000
00100000
,
10000000
01000000
01100000
00110000
,
00100000
00001000
00010000
00000010
,
00001000
00000100
00000110
00001100
,
00000001
00000100
00000010
00001000
,
00011000
00000000
00000000
00000000
,
00110000
00010000
10000000
00100000
,
01000000
00001000
00011000
00010100
,
00000100
00001000
00000001
00000100
,
00001000
00010000
00110000
10100000
,
01000000
00010000
10000000
00100000
,
10000000
01000000
01010000
01001000
,
00001000
00010000
00000100
00000010
,
00001001
00000000
00000000
00000000
,
00000001
00000100
00000001
00000100
,
00001000
00000100
00001000
00000100
,
00001000
00010000
00001000
00010000
,
01000000
00010000
01000000
00010000
,
01000000
10000000
00100000
00010000
,
00001000
00000100
00000001
00000010
,
00001000
00010000
01000000
00010000
,
00001000
00000100
00001000
00010000
,
00022000
00000000
00000000
00000000
,
00000000
00000000
00000000
00000000
,
00000000
00000000
00000000
00000000
,
00000000
00000000
00000000
00000000
,
00033000
00000000
00000000
00000000
,
00000000
00000000
00000000
00000000
,
00011000
00001000
01000000
00100000
,
10000000
10000000
10000000
01000000
,
00100000
00010000
01000000
00001000
,
00000100
00000100
00000100
00000010
,
00001001
00000001
00000100
00001000
,
00010000
00010000
00010000
00100000
,
10000000
00010000
01000000
00010000
,
00011000
00000000
00000000
00000000
,
00011000
00000100
00001000
00000010
,
00000100
00000001
00000010
00000100
,
00011000
00010000
01000000
10000000
,
00100000
01000000
00010000
00100000
,
00011000
00000100
00001000
00000001
,
00000100
00000001
00001000
00000100
,
00011000
00100000
10000000
00010000
,
01100000
00000000
00000000
00000000
,
10010000
01000000
11000000
01010000
,
00100000
00001000
00010000
00000100
,
00001001
00000100
00000011
00001010
,
00000001
00000100
00001000
00010000
,
00011000
00000100
00011000
01001000
,
00100000
00010000
10000000
00100000
,
01010000
00100000
00110000
00101000
,
00011000
00000000
00000000
00000000
,
00001100
00000010
00000101
00001100
,
00000001
00001000
00000010
00010000
,
00011000
00001000
01010000
00110000
,
10000000
01000000
10000000
00100000
,
10100000
01000000
00110000
00011000
,
00000100
00001000
00000001
00000100
,
00001010
00000100
00000011
00001010
,
00001001
00000000
00000000
00000000
,
00000001
00000000
00001000
00000000
00000100
00000000
00000000
00010000
,
00000000
01000000
00000000
00000000
00100000
00000000
10000000
00000000
,
01000000
00000000
00100000
00000000
00010000
00000000
00000000
01000000
,
00000000
00001000
00000000
00000000
00010000
00000000
00000010
00000000
,
00001001
00000000
00000110
00000000
,
00011000
00000000
00000000
00000000
,
00011000
00001000
01010000
00110000
,
10010000
01000000
10000000
00100000
,
01100000
01000000
01010000
00101000
,
00011000
00001000
00010000
00000100
,
00000110
00000001
00000101
00001100
,
00001001
00000010
00000100
00001000
,
00011000
00001000
00001100
00010000
,
00011000
00010000
01010000
00001000
,
00011000
00000000
00000000
00000000
,
00000000
00000000
00000000
00000000
,
00000000
00000000
00000000
00000000
,
00000000
00000000
00000000
00000000
,
00011000
00000000
00000000
00000000
;

//--------------- dance-double - forcednature ----------------
#NOTES:
     dance-double:
     forcednature:
     Medium:
     7:
     0,0,0,0,0:
00000000
00000000
00000000
00000000
,
00000000
00000000
00000000
00000000
,
00000000
00000000
00000000
00000000
,
00000000
00000000
00000000
00000000
,
00000000
00000000
00000000
00000000
,
00000000
00000000
00000000
00000000
,
00000000
00000000
00000000
00000000
,
00000000
00000000
00000000
00000000
,
00011000
00010000
00000010
00001000
,
00000001
00000100
00000010
00000000
00001000
00000100
00000010
00000000
,
00000101
00000010
00010000
00001000
,
00100000
01000000
10000000
00000000
00010000
01000000
00100000
00000000
,
11000000
00100000
01000000
00001000
,
00010000
00000010
00001000
00000000
00000010
00010000
00001000
00000000
,
00001100
00000010
00000001
00000100
,
00000020
00000100
00000130
00000000
00000001
00000000
00001001
00000000
,
00000101
00001000
00010000
01000000
,
00100000
00010000
00001000
00000000
01000000
00000000
10010000
00000000
,
10100000
10000000
01000000
00010000
,
00001000
00000000
00000000
00001000
00000000
00001000
00000000
00000000
00000001
00000000
00000000
00000000
00000100
00000000
00000000
00000000
,
00001001
00000001
00000100
00001000
,
00010000
00100000
10000000
00000000
01000000
00000000
10010000
00000000
,
10100000
10000000
01000000
00010000
,
00001000
00000010
00001000
00000000
00000001
00000100
00000001
00000000
,
00001000
00000010
00000000
00000101
00000000
00000010
00010000
00001000
,
00000000
00110000
00000000
01000000
00010000
00000000
10000000
01000000
,
00000000
01100000
00000000
00100000
00000000
00001000
01000000
00010000
,
00000000
00011000
00000000
00000100
00000000
00001000
00000001
00000100
,
00000000
00001010
00000000
00000100
00000000
00011000
00000000
00100000
,
00000000
00000000
01010000
00000000
00000000
00000000
10000000
00000000
00100000
00000000
00000000
00100000
00000000
00000000
10010000
00000000
,
00000000
01000000
00000000
00010000
00000000
00110000
00000000
00001000
,
00000020
00000001
00000000
00000001
00000000
00000031
00000010
00000000
,
00000001
00000100
00000000
00000110
00000000
00000010
00010000
00001000
,
00000000
00110000
00000000
01000000
10000000
00000000
00010000
01000000
,
00000000
01100000
00000000
10000000
00000000
01000000
00010000
00001000
,
00000000
00001010
00000000
00000001
00000000
00000100
00001000
00010000
,
00000000
00110000
00000000
00100000
00000000
00001010
00000000
00000010
,
00000000
00000000
00110000
00000000
00000000
00000000
00100000
00000000
01000000
00000000
00000000
01000000
00000000
00000000
10010000
00000000
,
00000000
01000000
00000000
10000000
00000000
00110000
00000000
00001000
,
00010000
00000000
00000010
00001000
00000001
00000000
00000100
00000000
,
00000010
00000010
00010000
00010000
,
00001000
00001000
00100000
00100000
,
00100000
00100000
00001000
00001000
,
00010000
00010000
00000010
00000010
,
00001000
00000010
00001000
00000000
00000010
00010000
00000010
00000000
,
00010000
00001000
00010000
00000000
00001000
00100000
00001000
00000000
,
10000000
01000000
00100000
00000000
01000000
00100000
00010000
00000000
,
00001000
00000010
00000100
00000000
00000010
00000100
00000001
00000000
,
00002002
00000000
00000000
00000000
,
00000000
00000000
00000000
00000000
,
00000000
00000000
00000000
00000000
,
00000000
00000000
00000000
00000000
,
00003003
00000000
00000000
00000000
,
00000000
00000000
00000000
00000000
,
10010000
00000000
00000000
00000000
01000000
00000000
00000000
00000000
00000000
00001000
00000000
00000000
00001000
00000000
00000000
00000000
,
00010000
00000000
00000000
00000000
00000100
00000000
00000010
00000000
00000000
00000010
00000000
00000000
00000010
00000000
00000000
00000000
,
00000001
00000000
00000000
00000000
00000100
00000000
00000000
00000000
00000000
00000010
00000000
00000000
00000010
00000000
00000000
00000000
,
00010000
00000000
00000000
00000000
00001000
00000000
00100000
00000000
00000000
00100000
00000000
00000000
00100000
00000000
00000000
00000000
,
10010000
00000000
00000000
00000000
01000000
00000000
00000000
00000000
00000000
00001000
00000000
00000000
00001000
00000000
00000000
00000000
,
00010000
00000000
00000000
00000000
00010000
00000000
00000010
00000000
00000000
00000010
00000000
00000000
00000010
00000000
00000000
00000000
,
00000100
00000000
00000000
00000000
00000001
00000000
00000000
00000000
00000000
00000010
00000000
00000000
00000010
00000000
00000000
00000000
,
00002002
00000000
00000000
00003003
,
00000010
00000000
00000100
00000000
00001000
00000000
00000000
00000000
00000000
00010000
00000000
00000000
00010000
00000000
00000000
00000000
,
01000000
00000000
00000000
00000000
00010000
00000000
10000000
00000000
00000000
10000000
00000000
00000000
10000000
00000000
00000000
00000000
,
00100000
00000000
10000000
00000000
01000000
00000000
00000000
00000000
00000000
00100000
00000000
00000000
00100000
00000000
00000000
00000000
,
00001000
00000000
00000000
00000000
00010000
00000000
00000010
00000000
00000000
00000010
00000000
00000000
00000010
00000000
00000000
00000000
,
00000100
00000001
00000100
00000000
00000010
00001000
00000010
00000000
,
00010000
00001000
00010000
00000000
00100000
01000000
00100000
00000000
,
10000000
01000000
00100000
00000000
01000000
00100000
00001000
00000000
,
00022000
00000000
00000000
00033000
,
00011000
00000000
00000000
00000000
00010000
00000000
00000000
00000000
00000010
00001000
00000000
00000010
00001000
00000000
00000000
00000000
,
00000001
00000100
00000110
00001010
,
00000100
00000000
00000000
00000000
00010000
00000000
00000000
00000000
00001000
00100000
00000000
00001000
00100000
00000000
00000000
00000000
,
00010000
01000000
10100000
00110000
,
10000000
00000000
00000000
00000000
01000000
00000000
00000000
00000000
00100000
00010000
00000000
00100000
00010000
00000000
00000000
00000000
,
01000000
00001000
00011000
00010100
,
00000100
00000000
00000000
00000000
00001000
00000000
00000000
00000000
00000010
00000100
00000000
00000010
00000100
00000000
00000000
00000000
,
00002002
00000000
00000000
00000000
00003003
00000010
00000010
00000000
,
00000101
00000000
00000000
00000000
00001000
00000000
00000000
00000000
00010000
00001000
00000000
00010000
00001000
00000000
00000000
00000000
,
00110000
01000000
10100000
01000000
,
00110000
00000000
00000000
00000000
01000000
00000000
00000000
00000000
00001000
00010000
00000000
00001000
00010000
00000000
00000000
00000000
,
00001010
00000001
00000110
00001000
,
00000101
00000000
00000000
00000000
00000010
00000000
00000000
00000000
00010000
00001000
00000000
00010000
00001000
00000000
00000000
00000000
,
00110000
10000000
10100000
00010000
,
01010000
00000000
00000000
00000000
00001000
00000000
00000000
00000000
00010000
00001000
00000000
00010000
00001000
00000000
00000000
00000000
,
00001010
00000000
00000000
00000000
,
00001000
00010000
01000000
10000000
00010000
00000000
00000000
10100000
,
00000000
01010000
00000000
10000000
01000000
00010000
00001000
00000000
,
00010000
00001000
00000100
00000001
00001000
00000000
00000001
00000100
,
00000000
00001010
00000000
00010000
00001000
00010000
00001000
00000000
,
00011000
00000000
00011000
00000000
,
01000100
00000000
00000000
00000000
,
10010000
00000000
00000000
00000000
00010000
00000000
00000000
00000000
01000000
00001000
00000000
01000000
00001000
00000000
00000000
00000000
,
00010000
00000000
00000100
00000000
00000010
00000000
00000001
00000000
00000000
00000001
00000000
00000000
00000001
00000000
00000000
00000000
,
00001001
00000000
00000000
00000000
00000001
00000000
00000000
00000000
00001000
00000010
00000000
00001000
00000010
00000000
00000000
00000000
,
00010000
00000000
00001000
00000000
00100000
00000000
01000000
00000000
00000000
01000000
00000000
00000000
01000000
00000000
00000000
00000000
,
10010000
00000000
00000000
00000000
00010000
00000000
00000000
00000000
01000000
00001000
00000000
01000000
00001000
00000000
00000000
00000000
,
00010000
00000000
00000100
00000000
00001000
00000000
00000010
00000000
00000000
00000010
00000000
00000000
00000010
00000000
00000000
00000000
,
00001001
00000000
00000000
00000000
00000001
00000000
00000000
00000000
00000010
00000001
00000000
00000010
00000001
00000000
00000000
00000000
,
00000001
00000000
00000100
00000000
00000010
00000000
00001000
00000000
00000000
00001000
00000000
00000000
00000010
00000000
00000000
00000000
,
00000110
00000000
00000000
00000000
,
00000000
00000000
00000000
00000000
,
00000000
00000000
00000000
00000000
,
00000000
00000000
00000000
00000000
,
00011000
00000000
00000000
00000000
;

//--------------- dance-double - forcednature ----------------
#NOTES:
     dance-double:
     forcednature:
     Hard:
     9:
     0,0,0,0,0:
00000000
00000000
00000000
00000000
,
00000000
00000000
00000000
00000000
,
00000000
00000000
00000000
00000000
,
00000000
00000000
00000000
00000000
,
00000000
00000000
00000000
00000000
,
00000000
00000000
00000000
00000000
,
00000000
00000000
00000000
00000000
,
00000000
00000000
00000000
00000000
,
00011000
00000011
00000101
00001001
,
00001000
00000100
00000010
00001000
00010000
00000010
00000100
00000000
,
00000101
00001100
01010000
11000000
,
10000000
00100000
10000000
01000000
00010000
00001000
00100000
00000000
,
01010000
01001000
00011000
00010010
,
00000001
00000100
00000001
00000010
00001000
00010000
01000000
00000000
,
10010000
01010000
00001100
00001001
,
00000001
00000100
00001000
00100000
00010000
01000000
10000000
00000000
,
11000000
01010000
00011000
00001010
,
00000010
00000010
00000010
00000010
00000010
00000000
00000010
00000000
,
00000011
00001010
00110000
10100000
,
10000000
00000000
00000000
00010000
00000000
01000000
00000000
00010000
00100000
00000000
00000000
00000000
10010000
00000000
00000000
00000000
,
00011000
00000110
00011000
00000110
,
00000100
00000100
00000100
00000100
00000100
00000000
00000100
00000000
,
00011000
01100000
00011000
01100000
,
00200000
00000000
10000000
00000000
00010000
00300000
00100000
00100000
,
01000000
10010000
00000000
01010000
00000000
10000000
00100000
00010000
,
00000000
00011000
00000000
00001000
00000100
00000001
00000100
00001000
,
00000000
00000011
00000000
00001010
00000000
00010000
01000000
10000000
,
00000000
10100000
00000000
00110000
00000000
00001000
00000100
00000001
,
00000000
00000101
00000000
00001100
00000000
01010000
00000000
11000000
,
00000000
00000000
10100000
00000000
00000000
00000000
00110000
00000000
00001000
00000000
00000000
00010000
00000000
00000000
00011000
00000000
,
00000000
00001010
00000000
00000101
00000000
00000011
00000000
00001100
,
00000000
00010000
01000000
00100000
00001000
00010000
01000000
00000000
,
10010000
00000000
10000000
01000000
00010000
00001000
00100000
00001000
,
01000000
00000000
00010000
01000000
00001000
00000010
00000100
00010000
,
00000010
00000000
00000100
00000001
00000010
00000100
00010000
00100000
,
01000000
00000000
00010000
00100000
00001000
00000100
00000001
00001000
,
00000100
00000000
00000010
00001000
00100000
00010000
01000000
00100000
,
00010000
00000000
00000000
00000000
00001000
00000000
00000100
00000000
00000101
00000000
00000000
00001100
00000000
00000000
00001001
00000000
,
00000001
00000011
00000110
00011000
,
02000000
00000000
03010000
00100000
02000000
00000000
23000000
00000000
,
31000000
10000000
01000000
10000000
01000000
00010000
01000000
00010000
,
00001000
00010000
00001000
00010000
00001000
00000010
00001000
00000010
,
00000001
00000010
00000001
00000010
00000001
00000100
00000001
00000100
,
00001000
00000100
00001000
00000100
00001000
00010000
00001000
00010000
,
00100000
00010000
00100000
00010000
00100000
10000000
00100000
10000000
,
01000000
00010000
01000000
00010000
00001000
00000010
00001000
00000010
,
00000001
00000100
00000001
00000100
00001000
00010000
00001000
00010000
,
01000000
10000000
01000000
10000000
00100000
00010000
00100000
00010000
,
00022000
00000000
00000000
00000000
,
00000000
00000000
00000000
00000000
,
00000000
00000000
00000000
00000000
,
00000000
00000000
00000000
00000000
,
00033000
00000000
00000000
00000000
,
00000000
00000000
00000000
00000000
,
00011000
00000000
00000000
00000000
00010000
00000000
00000000
00000000
00000010
00001000
00000000
00000001
00000100
00000000
00000000
00000000
,
00000001
00000000
00000010
00000000
00000100
00000000
00001000
00000000
00000000
00001000
00000000
00000000
00001000
00000000
00000000
00000000
,
00000100
00000000
00000000
00000000
00010000
00000000
00000000
00000000
00001000
00100000
00000000
00010000
10000000
00000000
00000000
00000000
,
00100000
00000000
01000000
00000000
00001000
00000000
00010000
00000000
00000000
00010000
00000000
00000000
00010000
00000000
00000000
00000000
,
00000010
00000000
00000000
00000000
00001000
00000000
00000000
00000000
00000001
00000100
00000000
00000010
00001000
00000000
00000000
00000000
,
00000001
00000000
00000010
00000000
00000100
00000000
00010000
00000000
00000000
00010000
00000000
00000000
00010000
00000000
00000000
00000000
,
00001000
00000000
00000000
00000000
00100000
00000000
00000000
00000000
00001000
01000000
00000000
00010000
10000000
00000000
00000000
00000000
,
10000000
01000000
00010000
00001000
00000100
00000001
00001001
00000000
,
00000001
00000000
00000100
00000000
00000001
00000000
00001000
00000000
00000100
00001000
00000000
00000100
00001000
00000000
00000000
00000000
,
00000010
00000000
00010000
00000000
00001000
00000000
00100000
00000000
00000000
00100000
00000000
00000000
00100000
00000000
00000000
00000000
,
00010000
00000000
10000000
00000000
00100000
00000000
01000000
00000000
00001000
01000000
00000000
00001000
01000000
00000000
00000000
00000000
,
00001000
00000000
00010000
00000000
00000010
00000000
00001000
00000000
00000000
00001000
00000000
00000000
00001000
00000000
00000000
00000000
,
00000001
00000000
00000010
00000000
00000100
00000000
00010000
00000000
00001000
01000000
00000000
00001000
01000000
00000000
00000000
00000000
,
00100000
00000000
10000000
00000000
01000000
00000000
00100000
00000000
00000000
00100000
00000000
00000000
00100000
00000000
00000000
00000000
,
00010000
00000000
01000000
00000000
00001000
00000000
00010000
00000000
00000010
00001000
00000000
00000010
00001000
00000000
00000000
00000000
,
00002001
00000001
00000001
00000002
00000000
00000000
00003003
00000000
,
00000001
00000000
00000100
00000000
00000010
00000000
00010000
00000000
00001000
00100000
00000000
00001000
00100000
00000000
00000000
00000000
,
01000000
00000000
10000000
00000000
00010000
00000000
01000000
00000000
00000000
01000000
00000000
00000000
01000000
00000000
00000000
00000000
,
00001000
00000000
00010000
00000000
00000100
00000000
00001000
00000000
00000001
00000100
00000000
00000001
00000100
00000000
00000000
00000000
,
00000010
00000000
00001000
00000000
00000100
00000000
00010000
00000000
00000000
00010000
00000000
00000000
00010000
00000000
00000000
00000000
,
00001000
00000000
00100000
00000000
00010000
00000000
10000000
00000000
00100000
01000000
00000000
00100000
01000000
00000000
00000000
00000000
,
00001000
00000000
00010000
00000000
00000100
00000000
00001000
00000000
00000000
00001000
00000000
00000000
00001000
00000000
00000000
00000000
,
00000001
00000000
00000100
00000000
00000010
00000000
00010000
00000000
00000100
00001000
00000000
00000100
00001000
00000000
00000000
00000000
,
00022000
00000000
00000000
00000000
00000000
00000000
00000000
00000000
00033000
00000000
00010000
00001000
00010000
00000000
00000000
00000000
,
00001000
01000000
00010000
00100000
10000000
00100000
00010000
01000000
,
00001000
00010000
00001000
00000100
00001000
00010000
01000000
00010000
,
00001000
00000010
00000001
00000100
00001000
00000100
00000010
00010000
,
00001000
00010000
01000000
10000000
01000000
00010000
00001000
00000100
,
00001000
00010000
00100000
10000000
01000000
00010000
00001000
00000100
,
00000001
00000010
00001000
00010000
00100000
10000000
00100000
00010000
,
00001000
00000100
00001000
00010000
01000000
00010000
00001000
00000010
,
00010010
00011000
01001000
00000000
,
10000000
01000000
00001000
00000100
00000001
00000000
00000000
00001100
,
00000000
00000101
00000000
00000001
00000100
00010000
01000000
10000000
,
01000000
00001000
00000100
00000001
00000100
00000000
00010000
01000000
,
00000000
10010000
00000000
10000000
01000000
00010000
00000100
00000001
,
00001001
00000010
10010000
00100000
,
00022000
00000000
00000000
00000000
00000000
00000000
00000000
00000000
00000000
00000000
00000000
00000000
00000000
00000000
00000000
00033000
,
00001000
00000000
00010000
00000000
00000100
00000000
00001000
00000000
00000001
00000100
00000000
00000001
00000100
00000000
00000010
00000000
,
00010000
00000000
00001000
00000000
00100000
00000000
00010000
00000000
00000000
02000000
00000000
00000000
03100000
00000000
00000000
00000000
,
10000000
00000000
00100000
00000000
01000000
00000000
00001000
00000000
00010000
00000100
00000000
00010000
00000100
00000000
00001000
00000000
,
00000010
00000000
00000100
00000000
00000001
00000000
00001000
00000000
00000000
00000020
00000000
00000000
00000130
00000000
00000000
00000000
,
00000010
00000000
00010000
00000000
00001000
00000000
00100000
00000000
00010000
01000000
00000000
00010000
01000000
00000000
00100000
00000000
,
10000000
00000000
01000000
00000000
00100000
00000000
00010000
00000000
00000000
02000000
00000000
00000000
03001000
00000000
00000000
00000000
,
00010000
00000000
00000100
00000000
00000010
00000000
00000001
00000000
00001000
00000010
00001000
00000010
00001000
00000000
00000000
00000000
,
00000010
00000000
00010000
00000000
00001000
00000000
00011000
00000000
00000000
01010000
00000000
00000000
11000000
00000000
00000000
00000000
,
00022000
00000000
00000000
00000000
,
00000000
00000000
00000000
00000000
,
00000000
00000000
00000000
00000000
,
00000000
00000000
00033000
00000000
,
01000100
00000000
00000000
00000000
;

//--------------- dance-double - forcednature ----------------
#NOTES:
     dance-double:
     forcednature:
     Challenge:
     10:
     0,0,0,0,0:
00000000
00000000
00000000
00000000
,
00000000
00000000
00000000
00000000
,
00000000
00000000
00000000
00000000
,
00000000
00000000
00000000
00000000
,
00000000
00000000
00000000
00000000
,
00000000
00000000
00000000
00000000
,
00000000
00000000
00000000
00000000
,
00000000
00000000
00000000
00000000
,
00011000
01010000
11000000
10010000
,
10000000
00000000
01000000
00100000
01000000
00000000
10000000
00000000
00100000
00000000
00010000
00000000
00001000
00000000
00000000
00000000
,
00001100
00000101
00001001
00000110
,
00000001
00000000
00000010
00000000
00000100
00001000
00000100
00010000
00001000
00100000
00010000
00100000
01000000
00000000
00000000
00000000
,
10100000
00110000
00001010
00000011
,
00000001
00000000
00001000
00000100
00001000
00000000
00000010
00000000
00010000
00000000
00100000
00000000
01000000
00000000
00000000
00000000
,
11000000
01010000
00001100
00000101
,
00000001
00000000
00000100
00000001
00001000
00000010
00010000
00001000
01000000
00010000
10000000
00100000
01000000
00000000
00000000
00000000
,
11000000
10100000
00010100
00001010
,
00000001
00000000
00000010
00000100
00000010
00000100
00000010
00000100
00000010
00000000
00000000
00000000
00000010
00000000
00000000
00000000
,
00000101
00001100
01010000
11000000
,
10000000
00000000
00100000
01000000
00000000
00010000
00000000
00100000
01000000
00000000
00000000
00000000
01000000
00000000
00000000
00000000
,
10010000
01100000
00011000
00000110
,
00000001
00000100
00000001
00000100
00000001
00000000
00000100
00000000
00000001
00000000
00000000
00000000
00000001
00000000
00000000
00000000
,
00000011
00001010
01010000
11000000
,
02000000
00000000
00000000
00000000
00000000
00000000
00100000
03100000
,
10010000
00010000
00100000
00010000
01000000
00001000
00001000
00001000
,
00010000
00000100
00000010
00000100
00001000
00000010
00000100
00000001
,
00000010
00000100
00001000
00000100
00010000
00001000
00001000
00001000
,
01000000
00010000
00100000
00010000
01000000
00100000
10000000
01000000
,
00010000
00001000
00000100
00001000
00010000
01000000
00010000
00001000
,
00000100
00000000
00001000
00000000
00010000
00000000
00001000
00000000
00000101
00000000
00000000
00001010
00000000
00000000
00001001
00000000
,
00000001
00000010
00001000
00010000
00100000
10000000
01000000
00100000
,
00020000
00000000
00000000
00000000
01000000
00000000
00000000
00000000
00100000
00000000
00000000
00030000
10010000
00000000
00000000
00000000
,
00010000
01000000
00010000
00100000
00001000
00000010
00000001
00001000
,
00000001
00000100
00000010
00010000
00001000
00100000
01000000
00010000
,
01000000
10000000
00010000
01000000
00100000
00001000
00000010
00001000
,
00000100
00000010
00000001
00000010
00001000
00010000
01000000
10000000
,
00100000
00010000
00001000
00000010
00001000
00010000
00100000
00010000
,
00001000
00000000
00000010
00000000
00001000
00000000
00010000
00000000
11000000
00000000
00000000
00110000
00000000
00000000
10010000
00000000
,
10000000
01000000
00010000
00001000
00000100
00000001
00000100
00001000
,
00000200
00000000
00000301
00000010
00000200
00000300
00001001
00000000
,
00000001
00000100
00000010
00001000
00010000
01000000
00100000
10000000
,
10000000
01000000
00100000
00010000
00001000
00000100
00000010
00000001
,
00000001
00000010
00000100
00001000
00010000
00100000
01000000
10000000
,
10000000
00100000
01000000
00010000
00001000
00000010
00000100
00000001
,
00000001
00000000
00001000
00000100
00001000
00000000
00000010
00010000
00000010
00000000
00100000
00001000
00100000
00000000
00010000
01000000
,
00010000
00000000
00100000
00001000
00100000
00000000
00000010
00010000
00000010
00000000
00001000
00000100
00001000
00000000
00000010
00010000
,
00000010
00010000
00000010
00010000
00001000
00010000
00001000
00010000
00001000
00100000
00001000
00100000
00001000
00010000
00001000
00010000
,
00000100
00010000
00000100
00010000
00001000
00010000
00001000
00010000
00001000
01000000
00001000
01000000
00001000
00010000
00001000
00010000
,
00001000
00000000
00000000
00000000
,
00000000
00000000
00000000
00000000
,
00000000
00000000
00000000
00000000
,
00000000
00000000
00000000
00000000
,
00000000
00000000
00000000
00000000
,
00000000
00000000
00000000
00000000
,
00011000
00000000
00010000
00000000
01000000
00000000
10000000
00000000
00010000
01000000
00000000
00010000
01000000
00000000
00100000
00000000
,
00010000
00000000
00001000
00000000
00000010
00000000
00000001
00000000
00000000
00000001
00000000
00000000
00000001
00000000
00000000
00000000
,
00000100
00000000
00001000
00000000
00010000
00000000
01000000
00000000
10000000
00010000
00000000
10000000
00010000
00000000
00100000
00000000
,
00001000
00000000
00000010
00000000
00000001
00000000
00000100
00000000
00000000
00000100
00000000
00000000
00000100
00000000
00000000
00000000
,
00011000
00000000
00001000
00000000
00000010
00000000
00000001
00000000
00001000
00000100
00000000
00001000
00000100
00000000
00010000
00000000
,
01000000
00000000
00100000
00000000
00001000
00000000
01000000
00000000
00000000
01000000
00000000
00000000
01000000
00000000
00000000
00000000
,
00100000
00000000
10000000
00000000
01000000
00000000
00100000
00000000
00001000
00010000
00000000
00001000
00010000
00000000
00000010
00000000
,
00000100
00000000
00000020
00000000
00000000
00000000
00000100
00000000
00000000
00000000
00000100
00000030
00000110
00000000
00000000
00000000
,
00000001
00000000
00000100
00000000
00001000
00000000
00010000
00000000
01000000
10000000
00000000
01000000
10000000
00000000
00100000
00000000
,
00010000
00000000
00100000
00000000
10000000
00000000
01000000
00000000
00000000
01000000
00000000
00000000
01000000
00000000
00000000
00000000
,
00100000
00000000
00010000
00000000
00001000
00000000
00000100
00000000
00010000
00000010
00000000
00010000
00000010
00000000
00001000
00000000
,
00000100
00000000
00001000
00000000
00010000
00000000
00100000
00000000
00000000
00100000
00000000
00000000
00100000
00000000
00000000
00000000
,
01000000
10000000
00100000
00010000
00001000
00000100
00000001
00000010
,
00001000
00010000
01000000
10000000
00100000
00010000
00001000
00000100
,
00000001
00000010
00000001
00000010
00000100
00010000
00000100
00010000
00001000
00100000
00001000
00100000
01000000
10000000
01000000
10000000
,
00100000
00000000
00100000
00000000
00100000
00000000
00100000
00000000
00000000
00000000
00000000
00000000
10000000
00010000
10000000
00010000
,
10000000
00000000
00100000
00000000
01000000
00000000
00001000
00000000
00010000
00000100
00000000
00010000
00000100
00000000
00000010
00000000
,
00000001
00000000
00000100
00000000
00001000
00000000
00010000
00000000
00000000
00010000
00000000
00000000
00010000
00000000
00000000
00000000
,
01000000
00000000
10000000
00000000
01000000
00000000
00010000
00000000
00001000
00000100
00000000
00001000
00000100
00000000
00000001
00000000
,
00000010
00000000
00000100
00000000
00010000
00000000
00001000
00000000
00000000
00001000
00000000
00000000
00001000
00000000
00000000
00000000
,
00000010
00000000
00001000
00000000
00010000
00000000
01000000
00000000
10000000
00100000
00000000
10000000
00100000
00000000
00010000
00000000
,
00001000
00000000
00000100
00000000
00000001
00000000
00001000
00000000
00000000
00001000
00000000
00000000
00001000
00000000
00000000
00000000
,
00000001
00000000
00000010
00000000
00001000
00000000
00000010
00000000
00000100
00010000
00000000
00000100
00010000
00000000
00001000
00000000
,
00022000
00000000
00000000
00000000
00000000
00000000
00000000
00000000
00000000
00000000
00000000
00000000
00000000
00000000
00000000
00000000
00000000
00000000
00000000
00000000
00000000
00000000
00000000
00000000
00000000
00000000
00000000
00033000
00000000
00000000
00010000
00000000
00001000
00000000
00010000
00000000
00001000
00000000
00000000
00000000
00000000
00000000
00000000
00000000
00000000
00000000
00000000
00000000
,
00010000
01000000
10000000
00100000
00010000
00001000
00000100
00001000
,
00010000
01000000
00010000
00001000
00000010
00000001
00001000
00000001
,
00000010
00001000
00010000
01000000
10000000
00100000
01000000
00001000
,
00010000
01000000
00010000
00001000
00000010
00000100
00010000
01000000
,
00010000
00001000
00010000
00100000
10000000
01000000
00010000
00000100
,
00001000
00000010
00000001
00000010
00001000
00000100
00010000
01000000
,
10000000
00100000
00010000
00001000
00000010
00000001
00000100
00001000
,
00011000
00011000
00011000
00000000
,
10000000
01000000
00010000
00000010
00001000
00000000
00000000
00000101
,
00000000
00001100
00000000
00000001
00000100
00001000
00100000
00010000
,
10000000
01000000
00010000
00000010
00001000
00000000
00011000
01010000
,
00000000
00110000
00000000
01000000
00001000
00000010
00000001
00000100
,
00010100
00011000
01001000
00011000
,
00011000
00000000
00000000
00000000
,
00001000
00000000
00010000
00000000
01000000
00000000
10000000
00000000
00010000
00100000
00000000
00001000
01000000
00000000
00010000
00000000
,
00100000
00000000
00001000
00000000
00000010
00000000
00000001
00000000
00000000
00000200
00000000
00000000
00000010
00000000
00000300
00000000
,
00000100
00000000
00000001
00000000
00000100
00000000
00001000
00000000
00010000
00001000
00000000
00010000
01000000
00000000
10000000
00000000
,
00100000
00000000
00010000
00000000
00001000
00000000
00000010
00000000
00000000
00000002
00000000
00000000
00000100
00000000
00000003
00000000
,
00000001
00000000
00000010
00000000
00001000
00000000
00010000
00000000
00100000
10000000
00000000
00100000
00010000
00000000
00001000
00000000
,
00010000
00000000
01000000
00000000
10000000
00000000
00100000
00000000
00000000
02000000
00000000
00000000
00010000
00000000
03000000
00000000
,
11000000
00000000
01000000
00000000
01100000
00000000
01000000
00000000
10000000
01000000
00100000
00010000
01000000
00001000
00100000
00010000
,
01000000
00000000
00000000
00000000
00000000
00000000
00001000
00000000
00000000
00000000
00000000
00000000
00000010
00000000
00000000
00000000
00000000
00000000
00000001
00000000
00000000
00000000
00000000
00000000
00000000
00000000
00000000
00001001
00000000
00000000
00000000
00000000
00000000
00000000
00000000
00000000
00000001
00000000
00000100
00000000
00000001
00000000
00000100
00000000
00000001
00000000
00000100
00000000
,
00000001
00000000
00000000
00000000
,
00000000
00000000
00000000
00000000
,
00000000
00000000
00000000
00000000
,
00000000
00000000
00000000
00000000
,
00100010
00000000
00000000
00000000
;
