#TITLE:Grace & Glory;
#SUBTITLE:;
#ARTIST:Hideki Naganuma;
#TITLETRANSLIT:;
#SUBTITLETRANSLIT:;
#ARTISTTRANSLIT:;
#GENRE:Hard house;
#CREDIT:tikal.;
#MUSIC:[The Sampling Paradise] - Grace & Glory.ogg;
#BANNER:[The Sampling Paradise] - Grace & Glory.png;
#BACKGROUND:[The Sampling Paradise] - Grace & Glory-bg.png;
#CDTITLE:cdtitle.png;
#SAMPLESTART:56.990;
#SAMPLELENGTH:14.227;
#SELECTABLE:YES;
#OFFSET:-0.080;
#BPMS:0.000=134.950;
#STOPS:;
#BGCHANGES:;
#FGCHANGES:;

//--------------- dance-single - tikal. ----------------
#NOTES:
     dance-single:
     tikal.:
     Hard:
     8:
     0,0,0,0,0:
0000
0000
0000
0000
,
0000
0000
0000
0000
,
0000
0000
0000
0000
,
0000
0000
0000
0000
,
1000
0000
0100
0000
0010
0100
0000
1000
0000
1000
0000
0000
1001
0000
0000
0000
,
0001
0000
0010
0000
0100
1100
1000
0000
,
0001
0000
0100
0000
0010
0100
0000
0001
0000
0001
0000
0000
1001
0000
0000
0000
,
1000
1000
0100
0100
0010
0010
0001
1001
,
1000
0000
0000
0000
,
0001
0000
0000
0000
,
0100
0000
0000
0000
0000
0000
0000
0110
,
0000
0000
1000
0000
1000
0001
0000
0000
1001
0000
0000
1001
0000
0000
1001
0000
,
1000
0000
0001
0000
0010
0100
0000
1000
0000
1000
0000
0100
1000
0000
0000
0000
,
0001
0000
1000
0000
0010
0100
0000
0001
0000
0001
0000
0100
0001
0000
1000
0000
,
0100
0000
0010
0000
0001
1000
0000
0010
0000
0010
0000
1000
0010
0000
0110
0000
,
0000
0000
0100
0000
0100
0001
0000
0000
0100
0000
0100
0001
0000
0100
0001
1000
,
0100
0000
0010
0000
0001
1000
0000
0010
0000
M010
0000
0001
1000
0000
0001
0000
,
0100
0000
0010
0000
1000
0001
0000
0010
0000
001M
0000
1000
0001
0000
1000
0000
,
0010
0000
0100
0000
0001
1000
0000
0100
0000
M100
0000
0001
1000
0000
0001
0000
,
0000
0000
1000
0000
1000
0001
0000
0000
0110
0000
0000
0110
0000
0000
0110
0000
,
1000
0000
0000
0000
0000
0000
0000
1100
0000
1100
0000
0100
1000
0000
0000
0000
,
0001
0000
0000
0000
0000
0000
0000
0101
0000
0101
0000
0100
0001
0000
0000
0000
,
1000
0000
0000
0000
0000
0000
0000
1010
0000
1010
0000
0010
1000
0000
0001
0000
,
0010
0000
0000
0000
0000
0000
1001
0000
0000
0000
0000
0001
1000
0000
0001
0000
,
1000
0100
0010
0100
0001
0100
1000
0001
,
0100
0010
0100
1000
0100
0001
1000
0100
,
1000
1000
0010
0010
0100
0100
0001
1001
,
0000
0000
1000
0000
1000
0001
0000
0000
1000
0000
1000
0001
0000
1000
0001
1000
,
0001
0100
0010
0100
1000
0100
0001
1000
,
0100
0010
0100
0001
0100
1000
0001
0100
,
0001
0001
0010
0010
0100
0100
1000
1001
,
0000
0001
0100
1000
0100
0001
2000
3000
,
0001
0000
0010
0000
0011
0000
0001
0010
0000
101M
0000
M010
0001
0000
0000
0000
,
1000
0000
0010
0000
1010
0000
1000
0010
0000
M011
0000
001M
1000
0000
0000
0000
,
0001
0000
0100
0000
0101
0000
0001
0100
0000
110M
0000
M100
0001
0000
0000
0000
,
1000
0000
0100
0000
1100
0000
1000
010M
0000
M101
0000
0100
1000
0000
0001
0000
,
1000
0000
0000
0000
1010
0000
0010
0100
1000
0100
0000
0010
0100
0001
1000
0000
,
0001
0000
0000
0000
0011
0000
0010
0100
0001
0100
0000
0010
0100
1000
0001
0000
,
1000
0000
0000
0000
0000
0000
0000
1001
0000
1001
0000
1000
0001
0000
0000
0000
,
0000
1000
0100
0001
0100
1000
0002
0003
,
1000
0000
2200
0000
0000
0000
0000
3300
,
0001
0000
0202
0000
0000
0000
0000
0303
,
1000
0000
2020
0000
0000
0000
0000
3030
,
0001
0000
0022
0000
0000
0000
0000
0033
,
2000
0000
0000
0000
,
3020
0000
0000
0000
,
0230
0000
0000
0000
,
0301
0001
0010
0010
0100
0100
1000
1001
,
0002
0000
0000
0000
,
0003
0000
0000
0000
;

//--------------- dance-single - tikal. ----------------
#NOTES:
     dance-single:
     tikal.:
     Challenge:
     10:
     0,0,0,0,0:
0000
0000
0000
0000
,
0000
0000
0000
0000
,
0000
0000
0000
0000
,
0000
0000
0000
0000
,
1000
0000
0000
0000
1100
0000
0000
0100
1000
0100
1000
0000
1100
0000
0000
0000
,
0001
0000
0000
0000
0101
0000
0000
0100
0001
0100
0001
0000
1000
0000
0100
0000
,
0010
0000
0000
0000
0011
0000
0000
0001
0010
0001
0010
0000
0011
0000
0000
0000
,
0001
0001
0100
0100
0010
1010
1000
1001
,
0001
0000
1000
0000
0010
0100
0010
0001
0000
0001
0010
0100
0001
0000
1000
0001
,
1000
0000
0001
0000
0010
0100
0010
1000
0000
1000
0010
0100
1000
0000
0001
1000
,
0001
0000
0100
0010
1000
0001
0010
0100
0000
0001
0100
1000
0001
0000
1001
0000
,
1000
0000
0010
0000
0000
0010
1000
0001
0010
0000
0000
0010
0000
0000
0010
0001
,
1000
0000
0010
0100
0001
1000
0010
0100
0001
0100
0010
1000
0100
0010
0001
0010
,
0001
0000
0010
0100
1000
0001
0010
0100
1000
0100
0010
0001
0100
0010
1000
0010
,
1000
0000
0100
0010
0001
1000
0100
0010
0001
0010
0100
1000
0010
0100
0002
0000
,
1003
0000
0100
0000
0000
0100
1000
0001
0100
0000
0000
0110
0000
0010
0100
0001
,
1000
0000
0100
0000
0010
0100
0000
0001
0000
0001
0100
1000
0001
1000
0100
1000
,
0001
0000
0100
0000
0010
0100
0000
1000
0000
1000
0100
0001
1000
0001
0100
0001
,
1000
0000
0001
0000
0010
0100
0000
0001
0000
0001
0100
1000
0100
0010
0001
1000
,
0001
0000
1000
0000
1000
0010
0000
0000
0110
0000
0000
0100
0001
1000
0100
1000
,
0001
0000
0010
0000
0100
1000
0000
1100
0000
1100
0000
0100
1000
0100
0010
0100
,
1000
0000
0010
0000
0100
0001
0000
0101
0000
0101
0000
0100
0001
0100
0010
0100
,
0001
0000
1000
0000
0100
0010
0000
0110
0000
0110
0000
0100
1000
0001
0100
0001
,
1000
0000
0000
0000
0000
0000
1001
0000
0000
0000
0000
0001
0100
0010
0100
0001
,
1000
0000
0100
0000
1100
0000
1000
0001
0010
0001
0100
0001
1000
0100
1000
0001
,
1000
0000
0010
0000
1010
0000
1000
0001
0100
0001
0010
0001
1000
0010
1000
0001
,
1000
1000
0100
0100
0010
0011
0001
1001
,
1000
0000
0001
0000
0001
0100
0000
0000
0001
0000
0001
0100
0010
0100
0001
1000
,
0001
0000
0100
0000
0101
0000
0001
1000
0010
1000
0100
1000
0001
0100
0001
1000
,
0001
0000
0010
0000
0011
0000
0001
1000
0100
1000
0010
1000
0001
0010
0001
1000
,
0001
0001
0100
0100
0010
1010
1000
1001
,
0001
0000
0100
0000
0101
0000
0001
1000
0100
0010
0100
1000
0002
0000
0003
0000
,
1000
0000
0100
0000
1100
0000
M100
0001
0000
0011
0000
001M
1000
0001
1000
0100
,
1000
0000
0010
0000
1010
0000
M010
0001
0000
0101
0000
010M
1000
0001
1000
0010
,
0100
0000
0001
0000
0011
0000
001M
1000
0000
1100
0000
M100
0001
1000
0001
0010
,
0100
0000
1000
0000
1010
0000
M010
0001
0000
0101
0000
010M
1000
0001
1000
0010
,
1000
0000
0100
0000
0011
0000
0010
0100
0010
0100
0001
0100
0010
0001
1000
0010
,
1000
0000
0010
0000
0101
0000
0100
0010
0100
0010
0001
0010
0100
0001
1000
0100
,
1000
0000
0000
0000
1001
0000
0000
0001
1000
0001
0100
0010
1000
0010
0100
0001
,
1000
0100
1000
0100
0010
0100
0010
0100
0010
0001
0010
0001
2000
0000
3000
0000
,
0001
0000
0202
0000
0000
0000
0000
0303
,
1000
0000
2200
0000
0300
0001
0000
3000
,
0001
0000
0022
0000
0000
0000
0000
0033
,
1000
0000
2020
0000
0030
0001
0000
3000
,
0002
0000
0000
0000
,
0023
0000
0000
0000
,
0230
0000
0000
0000
,
1300
1000
0010
0010
0100
0101
0001
1001
,
2000
0000
0000
0000
,
3000
0000
0000
0000
;
