#TITLE:Fang Banger;
#SUBTITLE:;
#ARTIST:Bro Safari & Space Laces;
#TITLETRANSLIT:;
#SUBTITLETRANSLIT:;
#ARTISTTRANSLIT:;
#GENRE:Hybrid Trap;
#CREDIT:;
#BANNER:[The Sampling Paradise] - Fang Banger.png;
#BACKGROUND:[The Sampling Paradise] - Fang Banger-bg.png;
#LYRICSPATH:;
#CDTITLE:cdtitle.png;
#MUSIC:[The Sampling Paradise] - Fang Banger.ogg;
#OFFSET:-0.102690;
#SAMPLESTART:27.533262;
#SAMPLELENGTH:13.694288;
#SELECTABLE:YES;
#BPMS:0.000000=140.000000
;
#STOPS:
;
#BGCHANGES:;
#KEYSOUNDS:;
#ATTACKS:;

//---------------dance-single - ----------------
#NOTES:
     dance-single:
     10-15:
     Challenge:
     10:
     0.823810,0.938022,0.476876,0.256100,0.909597,653.000000,599.000000,54.000000,29.000000,10.000000,0.000000,0.823810,0.938022,0.476876,0.256100,0.909597,653.000000,599.000000,54.000000,29.000000,10.000000,0.000000:
// measure 0
0000
0000
0000
0000
,  // measure 1
0000
0000
0000
0000
,  // measure 2
0000
0000
0000
0000
,  // measure 3
0000
0000
0000
0000
,  // measure 4
1001
0000
0000
0001
0100
0000
0110
0000
0000
0000
0110
0000
0010
0000
1000
0000
,  // measure 5
1001
0000
0000
1000
0100
0000
0110
0000
0000
0000
0110
0000
0010
0000
0001
0000
,  // measure 6
1001
0000
0000
1000
0010
0000
0110
0000
0000
0000
0110
0000
0100
0000
0001
0000
,  // measure 7
1001
0000
0000
0001
0010
0000
0110
0000
0000
0000
1100
0000
0011
0000
0000
0000
,  // measure 8
1001
0000
0000
1000
0001
0000
1000
0000
0001
0000
1000
0000
0001
0000
1000
0000
,  // measure 9
0001
0000
0000
1000
0001
0000
1000
0000
0001
0000
1000
0000
0001
0000
1000
0000
,  // measure 10
0001
0000
0000
1000
0001
0000
1000
0000
0001
0000
1000
0000
0001
0000
1000
0000
,  // measure 11
0001
0000
0000
1000
0010
0000
1000
0000
0001
0000
1000
0000
0100
0000
0010
0001
,  // measure 12
1000
1000
0010
0010
0100
0100
0001
0001
,  // measure 13
0010
0010
0100
0100
1000
1000
0001
0001
,  // measure 14
1000
0010
0100
0001
0010
0100
1000
0001
0100
0010
1000
0100
0010
0001
1000
0001
,  // measure 15
0100
0000
1010
0000
1001
0000
0022
0000
0000
0033
0000
0000
,  // measure 16
1001
0000
0000
0001
0100
0000
0100
0000
0001
0100
0010
1000
0100
0000
0010
0000
,  // measure 17
0001
0000
0000
0001
0000
0001
0100
0000
0001
0000
0010
0000
0010
0000
0010
0000
,  // measure 18
1001
0000
0000
1000
0100
0000
0100
0000
1000
0100
0010
0001
0100
0000
0010
0000
,  // measure 19
1000
0000
0000
1000
0000
1000
0100
0000
0010
0001
0100
0010
4000
0000
3000
0000
,  // measure 20
1001
0000
0000
1000
0010
0000
0010
0000
0100
0001
0010
0100
1000
0000
0001
0000
,  // measure 21
0010
0000
0000
0001
0000
0001
0010
0000
0100
1000
0010
0100
0002
0000
0003
0000
,  // measure 22
1000
0010
0100
1000
0100
0010
1000
0010
1000
0100
0010
0001
1000
0000
1000
0000
,  // measure 23
0001
0010
0100
0001
0100
0010
0001
0010
0001
1000
0010
0000
1010
0000
0000
0000
,  // measure 24
1001
0000
0000
1000
0100
0000
0100
0000
0001
0100
0010
0100
1000
0000
0010
0000
,  // measure 25
0001
0000
0000
0010
0000
0010
1000
0000
0100
0000
0010
0000
0010
0000
0010
0000
,  // measure 26
1001
0000
0000
0001
0100
0000
0100
0000
1000
0100
0010
0100
0001
0000
0010
0000
,  // measure 27
1000
0000
0000
0010
0000
0010
0001
0000
1000
0010
0100
0001
4000
0000
3000
0000
,  // measure 28
1001
0000
0000
0001
0010
0000
0010
0000
1000
0010
0100
0010
0001
0000
0100
0000
,  // measure 29
1000
0000
0100
0010
0000
0010
0100
0000
0001
1000
0100
0010
0001
0000
0000
0000
,  // measure 30
0001
0010
0100
0001
0100
0010
0001
0010
0001
0100
0010
1000
0001
0000
0001
0000
,  // measure 31
1000
0010
0100
1000
0100
0010
1000
0010
1000
0001
0010
0000
0011
0000
0000
0000
,  // measure 32
1002
0000
0013
0000
1001
0010
0000
2001
,  // measure 33
0000
0000
3010
1000
0100
00M0
0100
0001
0010
0M00
0010
1000
0100
00M0
0100
0001
,  // measure 34
0020
0000
0130
0000
1001
0100
0000
2001
,  // measure 35
0000
0000
3100
1000
0010
0M00
0010
0001
1000
0001
0100
0000
0110
0000
0000
0000
,  // measure 36
2001
0000
3010
0000
1001
0010
0000
1002
,  // measure 37
0000
0000
0103
0001
0010
0M00
0010
1000
0100
00M0
0100
0001
0010
0M00
0010
1000
,  // measure 38
0200
0000
0310
0000
1001
0010
0000
1002
,  // measure 39
0000
0000
0103
0001
0010
0M00
0010
1000
0010
1000
0100
0000
0010
0000
0001
0000
,  // measure 40
1000
0010
0100
0010
1000
0010
0100
0010
1000
0010
0100
0010
1000
0010
0100
0010
,  // measure 41
1000
0010
0100
0010
1000
0010
0100
0010
1000
0010
0100
0001
1000
0001
0010
0000
,  // measure 42
0001
0010
0100
0010
0001
0010
0100
0010
0001
0010
0100
0010
0001
0010
0100
0010
,  // measure 43
0001
0010
0100
0010
0001
0010
0100
0010
0001
0010
0100
1000
0001
0000
0001
0000
,  // measure 44
1000
0010
0100
0001
0010
0001
0100
0010
1000
0010
0100
0001
0010
0001
0100
0010
,  // measure 45
1000
0010
0100
0001
0010
0001
0100
0010
1000
0010
0100
0001
0010
0001
0100
0010
,  // measure 46
1000
1000
0100
0100
0010
0010
0001
0001
,  // measure 47
4000
0400
0000
3000
0340
0004
0000
0030
4003
3040
0430
0304
1003
0000
0000
0000
,  // measure 48
2002
3003
0000
0000
1000
0000
0010
1000
0001
1000
0100
0000
0010
0001
1000
0001
,  // measure 49
0100
0000
0010
1000
0100
1000
0010
0000
0100
0001
0010
0001
0100
0000
0101
0000
,  // measure 50
2020
3030
0000
0000
0001
0000
0100
0001
1000
0001
0010
0000
0100
1000
0001
1000
,  // measure 51
0010
0000
0000
0000
1000
0000
0100
0000
0010
0000
0001
0000
1000
0000
0000
0000
4010
0000
0000
0000
0000
0000
0000
0000
0001
0000
0000
0000
0000
0000
0000
3000
,  // measure 52
2200
3300
0000
0000
0001
0000
0010
0001
0100
0001
0010
0000
0100
1000
0010
1000
,  // measure 53
0100
0000
0010
0100
1000
0001
0100
0000
0010
0100
0001
1000
0100
0000
1100
0000
,  // measure 54
0022
0033
0000
0000
1000
0000
0001
0100
0010
0100
0001
0000
1000
0100
0010
0100
,  // measure 55
1000
0000
0000
0000
0001
0000
0100
0000
0000
0000
0001
0000
0100
0000
0000
0000
2002
0000
0000
0000
0000
0000
0000
3003
M00M
0000
0000
0000
0000
0000
0000
0000
,  // measure 56
2002
3003
0000
0000
0001
0000
0010
0001
1000
0001
0100
0000
1000
0100
0010
0100
,  // measure 57
0001
0000
0100
0001
1000
0001
0010
0000
1000
0010
0100
0010
0001
0000
0011
0000
,  // measure 58
2200
3300
0000
0000
0001
0000
0100
0001
0010
0001
0100
0000
1000
0100
0010
0100
,  // measure 59
0001
0000
0000
0000
0010
0000
0001
0000
0100
0000
0001
0000
0010
0000
0000
0000
0014
0000
0000
0000
0000
0000
0000
0000
1000
0000
0000
0000
0000
0000
0000
0003
,  // measure 60
0101
0000
0000
0000
1000
0000
0010
1000
0100
0010
0100
0000
0001
0100
0010
0100
,  // measure 61
1000
0000
0010
1000
0010
0100
0010
0000
0001
0010
0100
0010
1000
0000
1010
0000
,  // measure 62
0202
0303
0000
0000
1000
0000
0100
0010
0001
1000
0010
0000
0100
0010
1000
0001
,  // measure 63
0010
0000
0100
1000
0000
1000
0010
0000
0101
0000
0010
0000
4400
0000
3300
0000
,  // measure 64
2002
0000
0000
3003
0000
0000
0000
0000
;

//---------------dance-single - ----------------
#NOTES:
     dance-single:
     08-12:
     Hard:
     8:
     0.575279,0.568498,0.309086,0.194283,0.207529,456.000000,421.000000,35.000000,22.000000,30.000000,0.000000,0.575279,0.568498,0.309086,0.194283,0.207529,456.000000,421.000000,35.000000,22.000000,30.000000,0.000000:
// measure 0
0000
0000
0000
0000
,  // measure 1
0000
0000
0000
0000
,  // measure 2
0000
0000
0000
0000
,  // measure 3
0000
0000
0000
0000
,  // measure 4
1001
0000
0000
1000
0001
0000
0010
0000
MM0M
0000
0010
0000
1000
0000
0000
0000
,  // measure 5
1001
0000
0000
0001
1000
0000
0100
0000
M0MM
0000
0100
0000
0001
0000
0000
0000
,  // measure 6
1001
0000
0000
0001
1000
0000
0010
0000
MM0M
0000
0010
0000
0001
0000
0000
0000
,  // measure 7
1001
0000
0000
1000
0001
0000
0100
0000
M0MM
0000
0100
0000
1000
0000
0000
0000
,  // measure 8
1002
0100
0100
0100
,  // measure 9
0100
0100
0100
0100
,  // measure 10
0100
0100
0100
0100
,  // measure 11
0103
0020
2030
3002
,  // measure 12
1003
0100
1000
0010
1000
0100
1000
0010
,  // measure 13
0100
0001
0010
0001
0100
0001
0010
0001
,  // measure 14
1000
0010
0001
0010
1000
0100
0001
0100
,  // measure 15
1000
0000
0001
0000
1000
0000
2002
0000
0000
3003
0000
0000
,  // measure 16
1001
0000
0000
0001
0100
0000
0001
0000
0010
0000
0100
0000
0010
0000
0001
0000
,  // measure 17
0100
0000
0000
0100
0001
0000
0010
0000
0001
0000
0100
0000
0100
0000
0100
0000
,  // measure 18
1001
0000
0000
1000
0100
0000
1000
0000
0010
0000
0100
0000
0010
0000
1000
0000
,  // measure 19
0100
0000
0000
0100
1000
0000
0010
0000
0100
0000
0001
0000
0110
0000
0000
0000
,  // measure 20
1001
0000
0000
0001
0010
0000
0100
0000
0010
0000
0001
0000
0100
0000
0010
0000
,  // measure 21
1000
0000
0000
1000
0100
0000
0010
0000
0100
0000
1000
0000
0020
0000
0030
0000
,  // measure 22
1000
0000
0001
0010
MM0M
0010
1000
0000
0001
0000
0100
0000
1000
0000
0100
0000
,  // measure 23
0001
0000
1000
0010
MM0M
0010
0001
0000
1000
0000
0100
0000
0100
0000
0000
0000
,  // measure 24
1001
0000
0000
1000
0010
0000
0100
0000
1000
0000
0100
0000
0010
0000
1000
0000
,  // measure 25
0001
0000
0000
0001
0010
0000
1000
0000
0010
0000
0100
0000
0100
0000
0100
0000
,  // measure 26
1001
0000
0000
0001
0010
0000
0100
0000
0001
0000
0100
0000
0010
0000
0001
0000
,  // measure 27
1000
0000
0000
1000
0010
0000
0100
0000
1000
0000
0100
0000
0101
0000
0000
0000
,  // measure 28
1001
0000
0000
1000
0100
0000
0010
0000
1000
0000
0010
0000
0100
0000
1000
0000
,  // measure 29
0001
0000
0100
0010
0000
0100
0010
0000
0001
0000
0010
0000
1000
0000
0000
0000
,  // measure 30
0001
0000
1000
0010
MM0M
0010
0001
0000
1000
0000
0100
0000
0001
0000
0100
0000
,  // measure 31
1000
0000
0001
0100
M0MM
0100
1000
0000
0001
0000
0010
0000
0010
0000
0000
0000
,  // measure 32
2001
0000
3010
0000
1000
0010
0000
0102
,  // measure 33
0000
0000
1003
0010
0000
0000
0010
1000
0000
0000
1000
0100
0000
0000
0100
1000
,  // measure 34
0002
0000
0013
0000
0001
0100
0000
1002
,  // measure 35
0000
0000
1003
0100
0000
0000
1000
0010
1000
0010
1000
0000
0100
0000
0000
0000
,  // measure 36
1002
0000
0013
0000
0001
0010
0000
2100
,  // measure 37
0000
0000
3001
0010
0000
0000
0010
0001
0000
0000
0001
0100
0000
0000
0100
0001
,  // measure 38
2000
0000
3010
0000
1000
0100
0000
2001
,  // measure 39
0000
0000
3001
0100
0000
0000
0001
0010
0001
0010
0100
0000
2000
0000
3000
0000
,  // measure 40
0001
0010
1000
0010
0001
0010
1000
0010
,  // measure 41
0001
0000
0010
0000
1000
0000
0010
0000
0001
0000
0010
0000
0100
0010
0100
0000
,  // measure 42
1000
0010
0001
0010
1000
0010
0001
0010
,  // measure 43
1000
0010
0001
0010
1000
0010
1000
1000
,  // measure 44
0001
0010
1000
0010
0001
0100
1000
0100
,  // measure 45
0001
0010
1000
0010
0001
0100
1000
0100
,  // measure 46
0001
0001
1000
1000
0001
0001
1000
1000
,  // measure 47
0004
4000
0000
0000
0000
0000
0000
0000
0000
0000
0000
0000
3003
0000
0000
0000
,  // measure 48
1001
0000
1000
0010
0010
1000
0001
0001
,  // measure 49
1000
0100
0100
0010
0100
0100
1000
1100
,  // measure 50
1001
0000
1000
0010
0010
0100
0001
0001
,  // measure 51
0010
0100
0100
1000
1200
0000
0001
0000
,  // measure 52
1300
0000
0001
0010
0010
0001
1000
1000
,  // measure 53
0001
0100
0100
0010
0100
0100
0001
0101
,  // measure 54
1001
0000
0001
0010
0010
0100
1000
1000
,  // measure 55
0001
0000
1000
0010
MM0M
0010
0001
0000
0202
0000
0000
0000
0303
0000
0000
0000
,  // measure 56
1001
0000
0001
0100
0100
0010
0001
0001
,  // measure 57
0010
0100
0100
0001
1000
1000
0100
0110
,  // measure 58
0011
0000
1000
0100
0100
0001
0100
0100
,  // measure 59
1000
0010
0010
0100
0201
0000
1000
0000
,  // measure 60
0301
0000
1000
0100
0100
0010
1000
1000
,  // measure 61
0010
0100
0100
1000
0001
0001
0100
0110
,  // measure 62
1010
0000
0001
0010
0010
1000
0010
0010
,  // measure 63
0001
0000
1000
0010
MM0M
0010
0001
0000
0100
0000
0010
0000
0110
0000
0000
0000
,  // measure 64
2002
0000
0000
3003
0000
0000
0000
0000
;

//---------------dance-single - ----------------
#NOTES:
     dance-single:
     06-08:
     Medium:
     6:
     0.415059,0.483223,0.326748,0.176621,0.026493,329.000000,292.000000,37.000000,20.000000,0.000000,0.000000,0.415059,0.483223,0.326748,0.176621,0.026493,329.000000,292.000000,37.000000,20.000000,0.000000,0.000000:
0000
0000
0000
0000
,
0000
0000
0000
0000
,
0000
0000
0000
0000
,
0000
0000
0000
0000
,
2001
0000
3010
1000
0000
1010
0000
0000
,
1002
0000
0013
0001
0000
0011
0000
0000
,
1002
0000
0103
0001
0000
0101
0000
0000
,
2001
0000
3100
1000
0000
1100
0000
0000
,
1001
1000
0001
0001
,
1000
1000
0001
0001
,
1000
1000
0001
0001
,
1000
0200
0320
0032
,
1003
0010
0100
0001
,
1000
0010
0100
0001
,
1000
0100
1000
0100
0010
0001
0010
0001
,
0200
0000
0000
0300
,
0001
0000
0001
0000
0010
0001
0100
0000
,
0001
0000
0001
0000
0010
0001
0100
0010
,
1000
0000
1000
0000
0010
1000
0100
0000
,
1000
0000
1000
0000
0100
1000
0010
0000
,
0100
0000
0100
0000
0001
1000
0100
0000
,
1000
0000
1000
0000
0100
1000
0001
0000
,
1000
0000
0000
0010
0000
0000
1000
0000
0010
0000
0000
0000
1001
0000
0000
0000
,
0001
0000
0000
0010
0000
0000
0001
0000
0010
0000
0000
0000
1001
0000
0000
0000
,
1000
0000
1000
0000
0010
1000
0100
0000
,
0010
0000
0010
0000
0100
1000
0010
0100
,
0001
0000
0001
0000
0010
0001
0100
0000
,
0010
0000
0010
0000
0100
0001
0010
0000
,
0001
0000
0001
0000
0100
0010
1000
0000
,
0001
0000
0001
0000
1000
0100
0010
0000
,
0001
0000
0000
0100
0000
0000
0001
0000
0100
0000
0000
0000
0110
0000
0000
0000
,
1000
0000
0000
0100
0000
0000
1000
0000
0100
0000
0000
0000
0110
0000
0000
0000
,
2001
0000
3010
0000
0000
1010
0000
1200
,
0000
0001
0000
1000
0000
0001
0000
1300
,
0200
0000
0310
0000
0000
0011
0000
2001
,
0000
3010
0000
1000
0010
1000
0100
0000
,
1002
0000
0013
0000
0000
0011
0000
0201
,
0000
1000
0000
0001
0000
1000
0000
0301
,
0200
0000
0310
0000
0000
1010
0000
1002
,
0000
0013
0000
0001
0100
0010
1000
0000
,
0001
0000
0010
0000
1000
0000
0100
0001
,
0010
0000
1000
0000
0100
0001
0010
0100
,
1000
0000
0010
0000
0001
0000
0100
1000
,
0010
0000
0001
0000
0100
1000
0010
0100
,
0001
0011
1001
1010
,
1001
0101
1001
1100
,
0001
0100
0001
0100
0010
1000
0010
1000
,
0200
0001
0010
1300
,
1001
0000
0001
0000
1000
0010
0000
1000
,
0001
0000
1000
0100
0000
1000
0001
0001
,
0100
0000
0010
0000
0100
0001
0000
1000
,
0100
0000
0010
0001
1000
0000
0101
0000
,
1010
0000
1000
0000
0001
0010
0000
0001
,
1000
0000
0001
0100
0000
0010
1000
1000
,
0001
0000
1000
0000
0100
0010
0000
0100
,
1000
0000
0000
1000
0000
0000
1000
0000
0002
0000
0000
0000
0003
0000
0000
0000
,
1001
0000
1000
0000
0001
0100
0000
0100
,
1000
0000
1000
0100
0000
0010
0100
0100
,
0001
0000
0010
0000
0100
1000
0000
0001
,
0100
0000
0010
1000
0001
0000
1100
0000
,
0011
0000
0001
0000
1000
0100
0000
0100
,
0001
0000
0001
0100
0000
0010
0100
0100
,
1000
0000
0001
0000
0100
0010
0000
1000
,
0001
0000
0000
0001
0000
0000
0001
0000
0010
0000
0100
0000
1000
0000
0000
0000
,
2002
0000
0000
3003
0000
0000
0000
0000
;

//---------------dance-single - ----------------
#NOTES:
     dance-single:
     04-05:
     Easy:
     4:
     0.272501,0.341099,0.300255,0.203114,0.000000,216.000000,182.000000,34.000000,23.000000,0.000000,0.000000,0.272501,0.341099,0.300255,0.203114,0.000000,216.000000,182.000000,34.000000,23.000000,0.000000,0.000000:
0000
0000
0000
0000
,
0000
0000
0000
0000
,
0000
0000
0000
0000
,
0000
0000
0000
0000
,
1000
1010
0000
1010
,
0001
0011
0000
0011
,
1000
1100
0000
1100
,
0001
0101
0000
0010
,
0220
0000
0000
0000
,
0000
0000
0000
0000
,
0000
0000
0000
0000
,
0330
2000
3002
2003
,
3001
0001
0100
0100
,
0010
0010
1000
1000
,
0001
0010
0100
1000
,
0002
0000
0000
0003
,
1000
0010
0001
0000
,
0001
0010
1000
1000
,
0001
0010
1000
0000
,
1000
0010
0001
1001
,
0001
0100
1000
0000
,
1000
0100
0001
0010
,
0002
0000
0003
0011
,
2000
0000
3000
1010
,
0001
0100
1000
0000
,
1000
0100
0001
0001
,
1000
0100
0001
0000
,
0001
0100
1000
1001
,
1000
0010
0001
0000
,
0001
0001
0010
1000
,
2000
0000
3000
1100
,
0002
0000
0003
0101
,
2001
0000
3100
0000
1000
0000
0000
2000
,
0000
3000
0100
0000
0100
0000
0100
0000
,
1002
0000
0103
0000
0001
0000
0000
0002
,
0000
0003
0100
0000
0010
0000
1000
0000
,
1002
0000
0013
0000
0001
0000
0000
0002
,
0000
0003
0010
0000
0010
0000
0010
0000
,
2001
0000
3010
0000
1000
0000
0000
2000
,
0000
3000
0010
0000
0010
0000
1000
0000
,
0001
0010
1000
0010
,
0001
0010
1000
0010
,
0001
0100
1000
0100
,
0001
0100
1000
0100
,
0001
0001
0010
0010
,
1000
1000
0100
0100
,
0001
0010
1000
0100
,
0002
0000
0000
0003
,
0001
1000
0000
1000
,
0000
1000
0000
1100
,
0110
0001
0000
0001
,
0000
0001
0101
0110
,
1010
0001
0000
0001
,
0000
0001
0000
0011
,
0110
1000
0000
1000
,
0010
0010
2002
3003
,
1000
0001
0000
0010
,
0000
0001
0000
0101
,
0110
1000
0000
0010
,
0000
1000
1100
0110
,
0011
1000
0000
0100
,
0000
1000
0000
1010
,
0110
0001
0000
0010
,
0100
0100
0010
0001
,
2002
0000
0000
3003
0000
0000
0000
0000
;

//---------------dance-single - ----------------
#NOTES:
     dance-single:
     02-03:
     Beginner:
     2:
     0.176621,0.227399,0.008831,0.070648,0.000000,140.000000,139.000000,1.000000,8.000000,0.000000,0.000000,0.176621,0.227399,0.008831,0.070648,0.000000,140.000000,139.000000,1.000000,8.000000,0.000000,0.000000:
0000
0000
0000
0000
,
0000
0000
0000
0000
,
0000
0000
0000
0000
,
0000
0000
0000
0000
,
0100
0000
0100
0000
,
0010
0000
0010
0000
,
0100
0000
0100
0000
,
0010
0000
0010
0000
,
2002
0000
0000
0000
,
0000
0000
0000
0000
,
0000
0000
0000
0000
,
3003
0000
0000
0000
,
1000
0000
0001
0000
,
1000
0000
0001
0000
,
1000
0001
1000
0001
,
1000
0000
0000
0000
,
1000
1000
1000
0000
,
0100
0100
0100
0000
,
0010
0010
0010
0000
,
0001
0001
0001
0000
,
0100
0100
0100
0000
,
0010
0010
0010
0000
,
2000
0000
3000
0000
,
2000
0000
3000
0000
,
0001
0001
0001
0000
,
0100
0100
0100
0000
,
0010
0010
0010
0000
,
1000
1000
1000
0000
,
0100
0100
0100
0000
,
0010
0010
0010
0000
,
0002
0000
0003
0000
,
0002
0000
0003
0000
,
0100
0000
0010
0000
,
0100
0000
0010
0000
,
1000
0000
0001
0000
,
1000
0000
0001
0000
,
0010
0000
0100
0000
,
0010
0000
0100
0000
,
1000
0000
0001
0000
,
1000
0000
0001
0000
,
0100
0100
0100
0100
,
0100
0100
0100
0000
,
0010
0010
0010
0010
,
0010
0010
0010
0000
,
1000
0000
0001
0000
,
1000
0000
0001
0000
,
1000
0001
1000
0001
,
2000
0000
3000
0000
,
0001
0000
0010
0000
,
0001
0000
1000
1000
,
1000
0000
0001
0000
,
0001
0000
0100
0100
,
0100
0000
0001
0000
,
1000
0000
0001
0001
,
0001
0000
0010
0000
,
0001
1000
0001
0000
,
1000
0000
0010
0000
,
1000
0000
0001
0001
,
0001
0000
1000
0000
,
1000
0000
0100
0100
,
0100
0000
1000
0000
,
0001
0000
1000
1000
,
1000
0000
0010
0000
,
1000
0001
1000
0001
,
2000
0000
0000
3000
0000
0000
0000
0000
;
