#TITLE:Catch Our Fire! (STARDOM Remix);
#SUBTITLE:;
#ARTIST:kors k;
#TITLETRANSLIT:;
#SUBTITLETRANSLIT:;
#ARTISTTRANSLIT:;
#GENRE:DANCERUSH;
#CREDIT:;
#BANNER:[The Sampling Paradise] - Catch Our Fire! (STARDOM Remix)-bn.png;
#BACKGROUND:[The Sampling Paradise] - Catch Our Fire! (STARDOM Remix)-bg.png;
#LYRICSPATH:;
#CDTITLE:;
#MUSIC:[The Sampling Paradise] - Catch Our Fire! (STARDOM Remix).ogg;
#OFFSET:1.670000;
#SAMPLESTART:27.472858;
#SAMPLELENGTH:15.428574;
#LASTBEATHINT:1.563333;
#SELECTABLE:YES;
#DISPLAYBPM:140.000000;
#BPMS:0.000000=140.000000
,196.000000=70.000000
,200.000000=140.000000
;
#STOPS:
;
#BGCHANGES:0.000=[The Sampling Paradise] - Catch Our Fire! (STARDOM Remix).avi=1.000=0=0=0=StretchNoLoop====,
256.000=[The Sampling Paradise] - Catch Our Fire! (STARDOM Remix)-bg.png=1.000=0=0=1=====,
99999=-nosongbg-=1.000=0=0=0 // don't automatically add -songbackground-
;
#KEYSOUNDS:;
#ATTACKS:;

//---------------dance-single - ----------------
#NOTES:
     dance-single:
     :
     Hard:
     9:
     0.717568,0.929687,0.768734,0.209655,0.650803,575.000000,487.000000,88.000000,24.000000,0.000000,0.000000,0.717568,0.929687,0.768734,0.209655,0.650803,575.000000,487.000000,88.000000,24.000000,0.000000,0.000000:
// measure 0
0000
0000
0000
0000
,  // measure 1
0000
0000
0000
0000
0000
0000
0000
1000
,  // measure 2
0000
0100
0010
0001
0000
0001
0010
0001
,  // measure 3
0101
0000
0000
1010
0000
0000
0011
0000
0000
0000
1000
0000
0100
0000
0010
0000
,  // measure 4
0011
0000
0000
1100
0000
0000
0011
0000
0000
0000
0001
0000
1000
0000
0010
0000
,  // measure 5
0001
0100
0001
0100
0010
1000
0010
1000
0001
1000
0001
1000
0100
1000
0100
1000
,  // measure 6
0001
0000
0100
0010
0000
1000
0001
0000
0100
0010
0000
1000
0001
0100
0001
0010
,  // measure 7
0001
0010
0100
0010
0001
0000
0010
0000
0100
0010
0001
0010
0100
0000
1000
0000
,  // measure 8
0001
0010
0100
1000
0100
0010
0100
1000
0100
0010
0001
0010
0100
0000
0000
0000
,  // measure 9
1001
0000
0000
1000
0000
0000
0010
0000
0000
0000
1000
0010
0100
0000
0101
0000
,  // measure 10
0000
0100
0010
0001
0000
0001
0010
0001
,  // measure 11
0101
0000
0000
1010
0000
0000
0011
0000
0000
0000
1000
0000
0100
0000
0010
0000
,  // measure 12
0011
0000
0000
1100
0000
0000
0011
0000
0000
0000
0001
0000
1000
0000
0010
0000
,  // measure 13
0001
0100
0001
0100
0010
1000
0010
1000
0001
1000
0001
1000
0100
1000
0100
1000
,  // measure 14
0001
0000
0100
0010
0000
1000
0001
0000
0100
0010
0000
1000
0001
0100
0001
0010
,  // measure 15
0001
0010
0100
0010
0001
0000
0010
0000
0100
0010
0001
0010
0100
0000
1000
1000
,  // measure 16
0001
0001
0100
0010
1001
0000
0110
0000
,  // measure 17
0101
0000
0001
0100
0000
0000
0200
0000
0000
0000
0301
0100
0010
0000
1000
0000
,  // measure 18
1001
0000
1000
0010
0000
0000
0020
0000
0000
0000
0030
0000
0020
0000
0000
0000
,  // measure 19
1030
0000
0001
0010
0000
0000
0020
0000
0000
0000
0130
0010
0001
0000
1000
0000
,  // measure 20
1010
0000
0001
0100
0000
0000
0200
0000
0000
0000
0300
0000
2002
0000
3003
0000
,  // measure 21
0001
0000
0000
0001
0000
0000
0010
0000
0001
0100
0010
0100
0010
0000
0000
0000
,  // measure 22
1000
0000
0000
1000
0000
0000
0100
0000
1000
0010
0100
0010
0100
0000
0100
0000
,  // measure 23
0001
0000
0000
0001
0000
0000
0010
0000
0001
0100
0010
0100
0010
0000
0000
0000
,  // measure 24
1000
0000
0000
0100
0000
0000
0010
0000
0000
0000
0001
0010
0100
0000
0000
0000
,  // measure 25
1100
0000
1000
0100
0000
0000
0200
0000
0000
0000
1300
0100
0010
0000
0001
0000
,  // measure 26
1001
0000
0001
0010
0000
0000
0020
0000
0000
0000
0030
0000
0020
0000
0000
0000
,  // measure 27
0031
0000
1000
0010
0000
0000
0020
0000
0000
0000
0130
0010
1000
0000
0001
0000
,  // measure 28
0011
0000
1000
0100
0000
0000
0200
0000
0000
0000
0300
0000
2002
0000
3003
0000
,  // measure 29
1000
0000
0000
1000
0000
0000
0010
0000
1000
0100
0010
0100
0010
0000
0000
0000
,  // measure 30
0001
0000
0000
0001
0000
0000
0100
0000
0001
0010
0100
0010
0100
0000
0100
0000
,  // measure 31
1000
0000
0000
1000
0000
0000
0010
0000
1000
0100
0010
0100
0010
0000
0000
0000
,  // measure 32
0001
0000
0000
0100
0000
0000
0010
0000
1010
0000
0000
0000
0101
0000
0000
0000
,  // measure 33
1001
0000
0000
1010
1010
0000
0000
0011
,  // measure 34
0011
0000
0000
0000
0000
0000
1100
0000
1001
0000
0000
0110
0000
0000
0101
0000
,  // measure 35
0110
0000
0000
0101
0101
0000
0000
0011
,  // measure 36
0011
0000
0000
0000
0000
0000
1100
0000
0110
0000
0000
1001
0000
0000
1010
0000
,  // measure 37
1001
0000
0000
1010
1010
0000
0000
0011
,  // measure 38
0011
0000
0000
0000
0000
0000
1100
0000
1001
0000
0000
0110
0000
0000
0101
0000
,  // measure 39
0110
0000
0000
0101
0101
0000
0000
0011
,  // measure 40
0011
0110
0110
1001
,  // measure 41
0001
0000
0000
0000
0000
0000
1100
0000
1100
0000
0000
0010
0001
0000
1000
0000
,  // measure 42
1000
0000
0000
0000
0000
0000
0011
0000
0011
0000
0000
0100
1000
0000
0001
0000
,  // measure 43
0001
0000
0000
0000
0000
0000
1100
0000
1100
0000
0000
0010
0001
0000
1000
0000
,  // measure 44
1000
0000
0000
0000
0000
0000
0011
0000
0011
0000
0000
0100
1000
0000
0001
0000
,  // measure 45
1000
0000
0001
0000
1000
0100
0000
0010
0001
0000
0010
0100
0000
1000
0001
0000
,  // measure 46
0000
0000
0001
0000
1000
0010
1000
0010
1000
0000
0001
0100
0000
0010
1000
0000
,  // measure 47
0101
1000
0010
0001
1010
0001
0010
1000
,  // measure 48
0110
0000
0000
0000
1100
0000
0000
0000
0011
0000
0000
0000
0110
0000
0010
0001
,  // measure 49
1000
1000
0100
0001
0000
0100
0000
1000
0000
0001
0100
0010
0000
0100
0100
0001
,  // measure 50
1000
0000
0001
0010
0000
0000
0020
0000
0000
0000
0130
0010
0001
0000
1000
0000
,  // measure 51
1010
0000
0001
0100
0000
0000
0200
0000
0000
0000
0300
0000
2002
0000
3003
0000
,  // measure 52
0001
0000
0000
0001
0000
0000
0010
0000
0001
0100
0010
0100
0010
0000
0000
0000
,  // measure 53
1000
0000
0000
1000
0000
0000
0100
0000
1000
0010
0100
0010
0100
0000
0100
0000
,  // measure 54
0001
0000
0000
0001
0000
0000
0010
0000
0001
0100
0010
0100
0010
0000
0000
0000
,  // measure 55
1000
0000
0000
0100
0000
0000
0010
0000
0000
0000
0001
0010
0100
0000
0001
0010
,  // measure 56
1000
0010
0101
0001
0000
0010
0000
1001
,  // measure 57
0000
0110
0001
0110
0000
1100
1001
0010
,  // measure 58
1000
0000
0001
0010
0000
0000
0020
0000
0000
0000
0130
0010
0001
0000
1000
0000
,  // measure 59
1010
0000
0001
0100
0000
0000
0200
0000
0000
0000
0300
0000
2002
0000
3003
0000
,  // measure 60
0001
0100
0001
0100
0010
1000
0010
1000
0001
1000
0001
1000
0100
1000
0100
1000
,  // measure 61
0010
1000
0010
1000
0010
0100
0010
0100
0001
0100
0001
0100
0001
1000
0001
1000
,  // measure 62
0001
0100
0001
0100
0010
1000
0010
1000
0001
1000
0001
1000
0100
1000
0100
1000
,  // measure 63
0001
0000
0000
0001
0000
0000
0010
0000
1001
0000
0000
0000
0110
0000
0000
0000
,  // measure 64
2002
0000
3003
0000
;

//---------------dance-single - ----------------
#NOTES:
     dance-single:
     :
     Medium:
     7:
     0.535368,0.619791,0.506665,0.209655,0.240229,429.000000,371.000000,58.000000,24.000000,0.000000,0.000000,0.535368,0.619791,0.506665,0.209655,0.240229,429.000000,371.000000,58.000000,24.000000,0.000000,0.000000:
0000
0000
0000
0000
,
0000
0000
0000
0000
0000
0000
0000
1000
,
0000
0100
0010
0001
0000
0000
0000
0000
,
0101
0000
0000
1010
0000
0000
1100
0000
0000
0000
1000
0000
0100
0000
0010
0000
,
0011
0000
0000
1100
0000
0000
1010
0000
0000
0000
1000
0000
0001
0000
0010
0000
,
0001
0100
0010
1000
0100
1000
0010
1000
,
0001
0000
0100
0010
0000
0000
1000
0000
0100
0010
0000
0000
0001
0000
1000
0000
,
0001
0100
0010
1000
0100
1000
0010
1000
,
0001
0100
1000
0100
0001
0010
0100
0000
,
1010
0000
0000
0001
0000
0000
0100
0000
0000
0000
0010
0000
1000
0000
0100
0000
,
0000
0100
0010
0001
0000
0010
0100
0000
,
1100
0000
0000
0011
0000
0000
0101
0000
0000
0000
0001
0000
0100
0000
0010
0000
,
1010
0000
0000
0101
0000
0000
0011
0000
0000
0000
0001
0000
1000
0000
0010
0000
,
1000
0100
0010
0001
0100
0001
0010
0001
,
1000
0000
0100
0010
0000
0000
0001
0000
0100
0010
0000
0000
1000
0000
0001
0000
,
1000
0100
0010
0001
0100
0001
0010
0001
,
1000
0100
0001
0100
0110
0000
0110
0000
,
1100
0000
0100
1000
0000
0000
2000
0000
0000
0000
3000
0001
0100
0000
0010
0000
,
0011
0000
0010
0001
0000
0000
0002
0000
0000
0000
0003
0000
2000
0000
0000
0000
,
3010
0000
0010
1000
0000
0000
2000
0000
0000
0000
3000
0001
0010
0000
0100
0000
,
1100
0000
0100
1000
0000
0000
0020
0000
0000
0000
0030
0000
2002
0000
3003
0000
,
0010
0000
0000
0001
0000
0000
0010
0000
0001
0000
1000
0000
0010
0000
0000
0000
,
0100
0000
0000
0001
0000
0000
0100
0000
0001
0000
1000
0000
0100
0000
1000
0000
,
0100
0000
0000
1000
0000
0000
0100
0000
1000
0000
0001
0000
0100
0000
0000
0000
,
0010
0000
0000
1000
0000
0000
0010
0000
1000
0000
0001
1000
0010
0000
0000
0000
,
1010
0000
0010
1000
0000
0000
2000
0000
0000
0000
3000
0001
0010
0000
0100
0000
,
1100
0000
0100
1000
0000
0000
2000
0000
0000
0000
3000
0000
0002
0000
0000
0000
,
0103
0000
0100
0001
0000
0000
0002
0000
0000
0000
0003
1000
0100
0000
0010
0000
,
0011
0000
0010
0001
0000
0000
0200
0000
0000
0000
0300
0000
2002
0000
3003
0000
,
0100
0000
0000
1000
0000
0000
0100
0000
1000
0000
0001
0000
0100
0000
0000
0000
,
0010
0000
0000
1000
0000
0000
0010
0000
1000
0000
0001
0000
0010
0000
0001
0000
,
0010
0000
0000
0001
0000
0000
0010
0000
0001
0000
1000
0000
0010
0000
0000
0000
,
1000
0000
0000
0100
0000
0000
0010
0000
0110
0000
0000
0000
1001
0000
0000
0000
,
0110
0000
0011
0000
,
1100
0000
1001
0110
,
1001
0000
1010
0000
,
0101
0000
0110
1001
,
0110
0000
1100
0000
,
0011
0000
1001
0110
,
1001
0000
0101
0000
,
1010
1001
0110
1001
,
0001
0000
0010
0010
1000
0000
0010
0001
,
0010
0000
0100
0100
1000
0000
1000
0010
,
0001
0000
0010
0010
1000
0000
0001
1000
,
0001
0000
0000
0000
0010
0000
0010
0000
0001
0000
0000
0100
0000
0000
0010
0000
,
0000
0000
1000
0000
0000
0100
0000
0000
0010
0000
0000
0100
0000
0000
0001
0000
,
0000
0000
0001
0000
0000
0100
0000
0000
0010
0000
0000
0100
0000
0000
1000
0000
,
0101
0000
0010
0001
1000
0000
0010
1000
,
1001
0000
1100
0000
0011
0000
0110
0010
,
0001
1000
0100
0001
0000
0100
0000
1000
0000
0001
0100
0010
0000
1000
0001
0100
,
0010
0000
0010
1000
0000
0000
2000
0000
0000
0000
3000
0001
0010
0000
0100
0000
,
1100
0000
0100
1000
0000
0000
0020
0000
0000
0000
0030
0000
2002
0000
3003
0000
,
0010
0000
0000
0001
0000
0000
0010
0000
0001
0000
1000
0000
0010
0000
0000
0000
,
0100
0000
0000
0001
0000
0000
0100
0000
0001
0000
1000
0000
0100
0000
1000
0000
,
0100
0000
0000
1000
0000
0000
0100
0000
1000
0000
0001
0000
0100
0000
0000
0000
,
0010
0000
0000
1000
0000
0000
0010
0000
1000
0000
0001
1000
0010
0000
0001
0010
,
0001
1000
0100
0001
0000
0100
0000
1000
,
0000
0001
0100
0010
0000
1000
0001
0100
,
0010
0000
0010
1000
0000
0000
2000
0000
0000
0000
3000
0001
0010
0000
0100
0000
,
1100
0000
0100
1000
0000
0000
0020
0000
0000
0000
0030
0000
2002
0000
3003
0000
,
1000
0100
0010
0001
0100
0001
0010
0001
,
0010
0100
0010
0100
1000
0100
1000
0010
,
1000
0100
0010
0001
0100
0001
0010
0001
,
1000
0100
0001
0100
0110
0000
0110
0000
,
2002
0000
3003
0000
;

//---------------dance-single - ----------------
#NOTES:
     dance-single:
     :
     Easy:
     5:
     0.379375,0.422585,0.358160,0.122299,0.000000,304.000000,263.000000,41.000000,14.000000,0.000000,0.000000,0.379375,0.422585,0.358160,0.122299,0.000000,304.000000,263.000000,41.000000,14.000000,0.000000,0.000000:
0000
0000
0000
0000
,
0000
0000
0000
0000
,
1000
0100
1000
0000
,
1100
0000
0011
0000
,
0001
0010
0001
0000
,
0001
0001
0100
0000
0001
0001
0010
0000
,
0001
0001
0010
0000
0001
0001
0100
0000
,
0001
0001
0100
0000
0001
0001
0010
0000
,
0001
0001
0010
0000
0001
0001
0100
0000
,
0101
0000
1010
0000
,
1000
0100
1000
0000
,
1100
0000
0011
0000
,
0001
0010
0001
0000
,
1000
1000
0010
0000
1000
1000
0100
0000
,
1000
1000
0100
0000
1000
1000
0010
0000
,
1000
1000
0010
0000
1000
1000
0100
0000
,
1000
0010
1001
0110
,
0001
0000
0001
0100
0000
0010
1000
0000
,
0001
0000
0001
0100
0000
0010
0020
0000
,
1030
0000
1000
0010
0000
0100
0001
0000
,
0001
0000
1000
0000
0100
0000
2002
3003
,
0001
0000
0000
0010
0001
0000
0010
0000
,
1000
0000
0000
0010
0001
0000
0010
0001
,
1000
0000
0000
0100
1000
0000
0100
0000
,
0001
0000
0000
0110
,
1000
0000
1000
0100
0000
0010
0001
0000
,
1000
0000
1000
0100
0000
0010
0020
0000
,
0031
0000
0001
0010
0000
0100
1000
0000
,
1000
0000
0001
0000
0100
0000
2002
3003
,
1000
0000
0000
0010
1000
0000
0010
0000
,
0001
0000
0000
0010
1000
0000
0010
1000
,
0001
0000
0000
0100
0001
0000
0100
0000
,
0001
0000
0110
1001
,
0110
0000
1010
0000
,
0011
0000
1001
0110
,
1001
0000
1100
0000
,
1010
0000
0110
1001
,
0110
0000
0101
0000
,
1100
0000
1001
0110
,
1001
0000
0011
0000
,
0101
0000
0110
1001
,
0001
0000
0010
0000
1000
0000
0010
0001
,
0010
0000
0100
0000
0100
0000
1000
0001
,
1000
0000
0100
0000
0001
0000
0100
1000
,
0100
0000
0010
0000
0010
0000
0001
1000
,
0001
0000
0100
0000
1000
0000
0100
0001
,
0100
0000
0010
0000
0010
0000
1000
0001
,
1000
0000
0010
0000
0001
0000
0010
1000
,
0001
0010
1001
0110
,
1000
0100
0001
0100
1000
0010
0020
0000
,
1030
0000
1000
0010
0000
0100
0001
0000
,
0001
0000
1000
0000
0100
0000
2002
3003
,
0001
0000
0000
0010
0001
0000
0010
0000
,
1000
0000
0000
0010
0001
0000
0010
0001
,
1000
0000
0000
0100
1000
0000
0100
0000
,
0001
0000
0000
0110
,
1000
0100
0001
0100
,
1000
0010
0020
0000
,
1030
0000
1000
0010
0000
0100
0001
0000
,
0001
0000
1000
0000
0100
0000
2002
3003
,
0001
0001
0100
0000
0001
0001
0010
0000
,
0001
0001
0010
0000
0001
0001
0100
0010
,
1000
1000
0010
0000
1000
1000
0100
0000
,
1000
0010
1001
0110
,
2002
0000
3003
0000
;

//---------------dance-single - ----------------
#NOTES:
     dance-single:
     :
     Beginner:
     3:
     0.237109,0.281723,0.253333,0.122299,0.000000,190.000000,161.000000,29.000000,14.000000,0.000000,0.000000,0.237109,0.281723,0.253333,0.122299,0.000000,190.000000,161.000000,29.000000,14.000000,0.000000,0.000000:
0000
0000
0000
0000
,
0000
0000
0000
0000
,
0001
0000
0001
0000
,
0110
0000
0110
0000
,
0010
0010
0010
0000
,
0100
0000
0001
0000
,
0100
0000
0001
0000
,
0100
0000
0010
0000
,
0100
0000
0010
0000
,
0001
0001
0001
0000
,
1000
0000
1000
0000
,
0110
0000
0110
0000
,
0100
0100
0100
0000
,
0010
0000
1000
0000
,
0010
0000
1000
0000
,
0010
0000
0100
0000
,
0010
0000
1001
0000
,
0001
0001
0100
0000
,
0010
0010
1000
0000
,
0001
0001
1000
0000
,
1000
0000
0001
0000
2002
0000
0000
3003
,
0010
0010
0010
0010
,
0100
0100
0100
0100
,
0001
0001
0001
0001
,
1000
1000
1000
1000
,
0001
0001
0100
0000
,
0010
0010
1000
0000
,
0001
0001
1000
0000
,
1000
0000
0001
0000
2002
0000
0000
3003
,
0010
0010
0010
0010
,
0100
0100
0100
0100
,
0001
0001
0001
0001
,
1000
1000
1000
1000
,
0110
0000
0000
0000
,
1001
0000
0000
0000
,
1001
0000
0000
0000
,
0110
0000
1001
1001
,
1001
0000
0000
0000
,
0110
0000
0000
0000
,
0110
0000
0000
0000
,
0000
0100
0010
0100
,
0110
0000
0000
0000
,
1001
0000
0000
0000
,
1001
0000
0000
0000
,
0110
0000
1001
1001
,
1001
0000
0000
0000
,
0110
0000
0000
0000
,
0110
0000
0000
0000
,
0000
0100
0010
0000
,
0100
0100
0200
0300
0010
0010
0020
0030
,
0001
0001
1000
0000
,
1000
0000
0001
0000
2002
0000
0000
3003
,
0010
0010
0010
0010
,
0100
0100
0100
0100
,
0001
0001
0001
0001
,
1000
1000
1000
1000
,
0100
0100
0200
0300
,
0010
0010
0020
0030
,
0001
0001
1000
0000
,
1000
0000
0001
0000
2002
0000
0000
3003
,
0010
0000
1000
0000
,
0010
0000
1000
0000
,
0010
0000
0100
0000
,
0010
0000
1001
0000
,
2002
0000
3003
0000
;
