#TITLE:Barbra Streisand;
#SUBTITLE:;
#ARTIST:Duck Sauce;
#TITLETRANSLIT:;
#SUBTITLETRANSLIT:;
#ARTISTTRANSLIT:;
#CREDIT:SupremeX;
#BANNER:Barbra Streisand-bn.png;
#BACKGROUND:Barbra Streisand-bg.png;
#LYRICSPATH:;
#CDTITLE:cdtitle.png;
#MUSIC:Barbra Streisand.ogg;
#OFFSET:-0.520;
#SAMPLESTART:29.580;
#SAMPLELENGTH:12.000;
#SELECTABLE:YES;
#BPMS:0.000=128.000;
#STOPS:;
#BGCHANGES:;

//---------------dance-single - ----------------
#NOTES:
     dance-single:
     :
     Hard:
     7:
     0.459,0.449,0.177,0.177,0.000: // measure 1
0000
0000
0000
0000
,  // measure 2
0000
0000
0000
0000
,  // measure 3
0000
0000
0000
0000
,  // measure 4
0000
0000
0000
0000
,  // measure 5
1000
0000
1100
0000
0010
0001
0010
0000
,  // measure 6
0100
0000
1100
0000
0010
0001
1000
0000
,  // measure 7
0010
0000
1010
0000
0100
0001
0010
0000
,  // measure 8
1100
0000
0110
0000
0001
0010
0100
0010
,  // measure 9
0001
1000
1000
1000
,  // measure 10
0020
0130
0200
0301
,  // measure 11
0002
0100
0100
0103
,  // measure 12
0020
1030
2000
3100
,  // measure 13
0010
0001
0010
0100
0010
0001
0010
0000
,  // measure 14
1100
0100
0110
0001
,  // measure 15
0011
0000
0100
1000
0100
0010
0100
0000
,  // measure 16
1100
0000
0010
0000
0001
0001
0100
0100
,  // measure 17
0010
1000
0010
1000
0010
0000
0100
0001
,  // measure 18
0010
0100
1000
0010
1000
0000
0110
0000
,  // measure 19
0001
0000
1000
0010
1000
0000
0001
0100
,  // measure 20
0010
1000
0001
0100
0010
0000
1001
0000
,  // measure 21
1000
0000
0010
1000
0010
0000
0100
0001
,  // measure 22
0100
0010
1000
0001
1000
0010
0100
0000
,  // measure 23
0100
0000
0001
0010
0100
0000
1000
0100
,  // measure 24
0010
0000
0001
1000
0010
0000
0110
0000
,  // measure 25
0001
0010
0100
1000
0100
1000
0001
1000
,  // measure 26
0100
1000
0001
1000
0100
0000
0110
0000
,  // measure 27
0001
0000
0100
0001
0100
0000
0001
0100
,  // measure 28
0001
1000
0001
0100
0001
1000
0001
0000
,  // measure 29
0110
0000
1000
0100
1000
0000
0100
1000
,  // measure 30
0100
0010
0001
0010
0100
0010
0001
0000
,  // measure 31
1000
0000
0010
1000
0010
0000
0100
0001
,  // measure 32
0100
0000
0001
1000
0010
0100
0001
0000
,  // measure 33
1000
0010
0100
0100
0000
0010
1000
1000
,  // measure 34
0000
0100
0001
0010
0010
0000
0011
0000
,  // measure 35
0100
1000
0100
0010
0200
0000
1300
0001
,  // measure 36
0020
0000
0130
1000
0200
0000
0310
0000
,  // measure 37
0100
0010
0100
0010
0000
1000
0001
1000
,  // measure 38
0000
0001
1000
0010
0100
0000
0101
0000
,  // measure 39
0010
1000
0001
1000
0002
0000
0103
0010
,  // measure 40
2000
0000
3100
1000
0100
0100
0010
0010
,  // measure 41
0001
1000
0020
0000
1000
0000
1030
0100
,  // measure 42
0000
0100
2000
0000
0010
0000
0001
3001
,  // measure 43
0000
0100
0002
0000
1000
0000
0100
0103
,  // measure 44
0001
0010
0100
1000
0100
0010
0001
0000
,  // measure 45
1000
0100
2000
0000
0100
0000
0001
3001
,  // measure 46
1000
0001
0200
0000
0010
0000
0310
1000
,  // measure 47
0000
0100
2000
0000
0001
0000
3001
1000
,  // measure 48
0001
0100
0010
1000
0001
0001
1000
1000
;

//---------------dance-single - ----------------
#NOTES:
     dance-single:
     :
     Medium:
     5:
     0.316,0.344,0.022,0.155,0.000:
0000
0000
0000
0000
,
0000
0000
0000
0000
,
0000
0000
0000
0000
,
0000
0000
0000
0000
,
1000
1000
1000
1000
,
0001
0001
0001
0001
,
0100
0100
0100
0100
,
0010
0010
0010
0010
,
2000
0000
0000
0000
,
3002
0000
0000
0003
2000
0000
0000
0000
,
3002
0000
0000
0003
,
0200
0000
0320
0000
,
0230
0000
0000
0300
,
0001
1000
0001
1000
,
0020
0100
0100
0130
,
0001
1000
0000
0000
,
1000
0001
1000
0010
,
0100
0001
0100
0000
0010
1000
0010
0000
,
0100
0001
1000
0010
,
0100
0001
1000
0000
0001
1000
0010
0000
,
0100
0001
1000
0010
,
0100
0001
0100
0000
0010
1000
0010
0000
,
1000
0001
1000
0001
,
0100
0000
0010
0000
1000
1000
1000
0000
,
0001
0000
0100
0000
0010
1000
0010
0000
,
0100
0001
0100
0000
0010
1000
0010
0000
,
0100
0001
0010
0100
,
1000
0100
1000
0000
0010
0100
0010
0000
,
0100
0001
1000
0001
,
1000
0010
0100
0000
0010
1000
0010
0000
,
0100
0001
1000
0100
,
0010
0001
1001
0000
,
0001
0100
0010
0100
0000
0001
1000
0001
,
0000
0100
0010
0100
0100
0000
0100
0000
,
0001
1000
0010
0100
,
0001
1000
0010
0000
0100
0001
1000
0000
,
0000
0010
0010
0010
0000
1000
1000
1000
,
0000
0001
0001
0001
1000
0000
0001
0000
,
1000
0010
0100
0010
0100
0000
0001
1000
,
0001
1000
1000
1000
,
0010
0100
0002
0000
1000
0000
1003
0000
,
0000
0020
0100
0130
,
0000
2000
0001
3001
,
0100
0010
1000
0001
,
0000
0200
0010
0310
,
0000
0002
1000
1003
,
0000
2000
0100
3100
,
1000
0000
0110
0000
0001
1000
0001
0100
;

//---------------dance-single - ----------------
#NOTES:
     dance-single:
     :
     Easy:
     3:
     0.208,0.236,0.000,0.110,0.000:
0000
0000
0000
0000
,
0000
0000
0000
0000
,
0000
0000
0000
0000
,
0000
0000
0000
0000
,
1000
0001
1000
1000
,
0010
0100
0010
0010
,
1000
0001
1000
1000
,
0010
0100
0010
0010
,
2000
0000
0000
3000
,
0001
0000
1000
0000
,
0002
0000
0000
0003
,
0100
0000
0010
0000
,
0200
0000
0000
0300
,
0010
0000
0100
0000
,
0020
0000
0000
0030
,
1000
0000
0001
0000
,
1000
1000
1000
0010
,
0100
0010
0100
0010
,
0000
0100
0100
0100
,
0001
0100
0001
0100
,
0000
0010
0010
1000
,
0001
1000
0001
1000
,
0000
0010
0010
0100
,
0001
0100
0001
0000
,
1000
1000
0001
0001
,
0100
0100
0010
0010
,
0000
1000
1000
0001
,
0001
0100
0100
0010
,
0000
1000
0001
1000
,
0010
0100
0010
0100
,
0000
0001
1000
0001
,
1000
0010
0100
0000
,
0001
0000
1000
0000
,
0010
0000
0100
0100
,
0000
0001
0001
0001
,
0001
0001
0001
0001
,
0000
1000
0000
0010
,
0000
0100
0001
0001
,
1000
0010
1000
0010
,
1000
0010
0100
0000
,
0001
0002
0000
0003
,
0000
0000
2000
0000
0000
0000
0000
3000
,
0000
0020
0000
0030
,
0100
0100
0100
0100
,
0000
0000
0002
0000
0000
0000
0000
0003
,
0000
0000
2000
0000
0000
0000
0000
3000
,
0000
0020
0000
0030
,
0100
0001
1000
0000
;

//---------------dance-single - Copied from----------------
#NOTES:
     dance-single:
     Copied from:
     Beginner:
     1:
     0.068,0.079,0.000,0.000,0.000:
0000
0000
0000
0000
,
0000
0000
0000
0000
,
0000
0000
0000
0000
,
0000
0000
0000
0000
,
0010
0000
0000
0000
,
0000
0000
0000
0000
,
0100
0000
0000
0000
,
0000
0000
0000
0000
,
0001
0000
0000
0000
,
1000
0000
0000
0000
,
0001
0000
0000
0000
,
1000
0000
0000
0000
,
0001
0000
0000
0000
,
1000
0000
0000
0000
,
0001
0000
0000
0000
,
1000
0000
0000
0000
,
0010
0000
0000
0000
,
0010
0000
0000
0000
,
0100
0000
0000
0000
,
0100
0000
0000
0000
,
0010
0000
0000
0000
,
0010
0000
0000
0000
,
0100
0000
0000
0000
,
0100
0000
0000
0000
,
0001
0000
0000
0000
,
0001
0000
0000
0000
,
1000
0000
0000
0000
,
1000
0000
0000
0000
,
0001
0000
0000
0000
,
0001
0000
0000
0000
,
1000
0000
0000
0000
,
1000
0000
0000
0000
,
0010
0000
0000
0000
,
0100
0000
0000
0000
,
0010
0000
0000
0000
,
0100
0000
0000
0000
,
0001
0000
0000
0000
,
1000
0000
0000
0000
,
0010
0000
0000
0000
,
0100
0000
0000
0000
,
0001
0000
0000
0000
,
0001
0000
0000
0000
,
1000
0000
0000
0000
,
1000
0000
0000
0000
,
0001
0000
0000
0000
,
0001
0000
0000
0000
,
0100
0000
0000
0000
,
0100
0000
0010
0000
;
