#TITLE:ANOTHER NIGHT;
#SUBTITLE:(DJ TORA VOCAL MIX);
#ARTIST:MORGANA;
#TITLETRANSLIT:;
#SUBTITLETRANSLIT:;
#ARTISTTRANSLIT:;
#GENRE:;
#CREDIT:;
#BANNER:;
#BACKGROUND:;
#LYRICSPATH:;
#CDTITLE:;
#MUSIC:anothernight.ogg;
#OFFSET:-0.629000;
#SAMPLESTART:63.340000;
#SAMPLELENGTH:13.542000;
#SELECTABLE:YES;
#BPMS:0.000000=143.990997
;
#STOPS:45.500000=0.833000,
52.000000=0.416000,
59.000000=0.416000,
66.000000=0.417000,
107.000000=1.250000,
173.500000=0.833000
;
#BGCHANGES:;
#KEYSOUNDS:;
#ATTACKS:;

//---------------dance-single - ----------------
#NOTES:
     dance-single:
     :
     Hard:
     8:
     0.573814,0.579789,0.382099,0.027958,0.232987,431.000000,390.000000,41.000000,3.000000,0.000000,0.000000,0.573814,0.579789,0.382099,0.027958,0.232987,431.000000,390.000000,41.000000,3.000000,0.000000,0.000000:
0000
0000
0000
0000
,
0000
0000
0000
0000
,
0000
0000
0000
0000
,
0000
0000
0000
0000
0000
0010
1000
0100
,
0010
0001
0100
1000
0100
0001
1000
0100
,
0000
0011
0000
0101
0000
0010
0001
0010
,
0100
1000
0010
0001
0010
1000
0100
0010
,
0000
0010
0001
1000
0000
0001
0010
0100
,
1000
0010
1000
0100
1000
0001
0100
0010
,
0000
1001
0000
0110
0000
1000
1000
0010
,
1000
0001
0100
0001
1000
0001
0010
0100
,
0000
0000
1001
0000
0000
0000
0110
0000
1001
0000
0000
0000
0110
0000
1000
0001
,
0000
1000
0010
0010
0000
1010
0000
0001
,
0011
0000
0000
0000
1001
0000
0000
0000
0101
0000
0001
1000
0000
0000
0001
0000
,
0100
0100
0000
0101
0000
1000
1100
0000
,
1000
0000
0010
0000
1000
0000
0001
1000
0000
0000
0001
0000
0100
0000
0100
0000
,
0000
0101
0000
0001
0010
0000
0001
1000
,
0001
0000
0010
0001
0000
0000
1000
0000
0001
0000
0100
0000
0101
0000
0000
0000
,
0101
0000
0000
0000
1000
0000
0000
0000
0001
0000
0000
0000
0010
0000
0001
0010
,
0000
0001
0010
0000
0000
0000
0001
0000
0100
0000
0010
0000
1000
0000
0100
1000
,
0000
0100
1000
0000
0000
0000
0100
0000
0010
0000
0001
0000
1000
0000
0001
0010
,
0000
0010
0001
0000
1000
0100
0000
1000
0100
0000
0010
0000
0100
0000
1000
0001
,
0000
0001
1000
0000
0010
0100
0000
0010
0100
0000
0001
0000
1000
0000
0100
0000
,
0001
0100
1000
0010
0001
0010
1000
0010
,
0100
0001
0100
0010
0100
1000
0100
0010
,
0100
0001
1000
0001
1000
0001
4004
0000
,
0000
0000
3003
0110
,
2002
0000
0000
0000
3003
1000
0100
0010
,
0001
1000
0001
0010
0001
1000
0010
0100
,
0000
0000
0001
0000
0010
0000
0001
0000
0000
0000
1000
0010
1000
0000
0001
0000
,
1000
0010
1000
0100
0010
0001
1000
0001
,
0000
1001
0000
0011
0000
0001
1000
0001
,
0100
1000
0100
0001
1000
0100
0010
0001
,
0000
0000
0100
0000
0001
0000
0100
0000
0000
0000
0010
0001
0010
0000
0001
0000
,
1000
0010
1000
0001
1000
0010
0001
0010
,
0000
1010
0000
0011
0000
1000
0010
1010
,
0000
0000
1000
0001
0000
0000
0011
0000
0000
0000
0001
1000
0000
0000
1100
0000
,
0000
0101
0000
1100
0000
1000
0100
0010
,
0000
0000
0001
0010
0000
0000
0001
1000
0000
0000
0001
0010
0000
0000
0001
0000
,
0000
1000
0001
1000
0000
0001
0001
0011
,
0000
0000
0010
0001
0000
0000
1001
0000
0000
0000
1000
0010
0000
0000
1001
0000
,
0000
0110
0000
1001
0000
0001
0010
0100
,
0000
0000
1000
0100
0000
0000
1000
0010
0000
0000
1000
0100
0000
0000
1000
0000
,
0000
0001
1000
1001
0001
0010
0001
1000
,
0001
0010
0100
1000
0000
0010
1000
0010
,
0000
0000
0100
0000
0001
0000
0010
0000
0011
0000
0000
0001
1000
0000
0001
0000
,
1001
0000
0000
1000
0010
0000
1000
0000
0001
0000
0010
0000
0100
0000
1000
0000
,
0000
0010
1000
0001
1000
0010
0100
0010
,
1000
0010
0100
0001
0000
0010
0001
0010
,
0000
0001
0001
2000
0000
0010
0000
0001
,
0000
3100
0000
1001
0000
1010
0000
1000
,
0001
0000
0010
0000
0100
0000
1000
0000
0010
0000
1000
0000
0001
1000
0000
0010
,
1000
0000
0001
0000
0100
0000
0001
0010
0001
0000
1000
0001
0000
0001
1000
0000
,
0010
0000
0100
0000
0001
0000
0100
0000
0001
0000
0010
0000
0001
1000
0000
0001
,
0010
0000
0100
0000
1000
0000
0010
1000
0010
0000
0100
0001
0000
0001
0100
0000
,
0010
0000
1000
0000
1001
0000
0000
0000
1000
0000
0010
0000
0100
0001
0000
0010
,
0001
0000
0100
0000
0001
0000
1000
0001
1000
0000
0010
1000
0000
1000
0010
0000
,
0100
0000
0001
0000
0010
0000
0001
0000
1000
0000
0010
0000
1000
0100
0000
1000
,
0010
0000
1000
0000
0100
0000
1000
0001
1000
0000
0010
0100
0000
0100
0010
0000
,
1000
0001
1001
0000
0000
0000
0000
0000
;

//---------------dance-single - ----------------
#NOTES:
     dance-single:
     :
     Challenge:
     9:
     0.631063,0.637686,0.354141,0.000000,0.363460,474.000000,436.000000,38.000000,0.000000,0.000000,0.000000,0.631063,0.637686,0.354141,0.000000,0.363460,474.000000,436.000000,38.000000,0.000000,0.000000,0.000000:
0000
0000
0000
0000
,
0000
0000
0000
0000
,
0000
0000
0000
0000
,
0000
0000
0000
0000
0000
1000
0100
0010
,
0001
1000
0001
0010
0001
1000
0010
0100
,
0000
0000
0001
1000
0000
0000
0110
0000
0000
0000
0001
0000
0100
0000
1000
0000
,
0100
0001
0100
0010
0100
0001
1000
0010
,
0000
0000
1000
0001
1000
0000
0110
0000
0000
0000
0001
0000
0010
0000
0100
0000
,
1000
0010
1000
0100
1000
0001
0100
0010
,
0000
0000
1000
0010
0000
0000
1010
0000
0000
0000
0100
0000
0001
0000
0010
0000
,
0001
1000
0001
0010
0100
1000
0010
1000
,
0001
0000
1000
0000
0010
0000
0100
0000
1001
0000
0000
0000
0110
0000
0001
1000
,
0000
1000
0001
0000
0101
0000
0101
0000
0000
0000
0001
0000
1000
0000
0001
0000
,
0100
0000
0000
0000
1010
0000
0000
0000
1001
0000
1000
0010
0000
0010
1000
0000
,
0011
0011
0000
1000
0001
0100
1000
0000
,
0101
0000
0000
0000
1001
0000
0001
0010
0000
0010
0001
0000
1001
0000
1001
0000
,
0000
0010
1000
0001
0100
0000
0011
0000
,
1001
0000
1000
0010
0000
0010
1000
0000
0011
0000
0011
0000
0000
0000
1000
0000
,
0001
0000
0010
0000
1000
0000
0010
0000
0001
0000
1000
0000
0010
0000
1000
0001
,
0000
1000
0001
0000
0100
0000
0001
0000
1001
0000
0000
0000
1000
0000
0010
1000
,
0000
0010
1000
0000
0001
0000
1000
0000
1100
0000
0000
0000
0001
0000
0010
0001
,
0000
0010
0001
0000
1000
0001
1000
0001
0000
1000
0010
0000
1000
0000
0001
0100
,
0000
0001
0100
0000
1000
0100
1000
0100
0000
0001
0100
0000
0001
0000
0100
0000
,
1000
0100
0001
0010
1000
0010
0001
0100
,
0010
0100
1000
0100
0010
0100
0001
0010
,
0100
0010
1000
0010
0100
0010
0004
0000
,
0000
0000
0000
1003
,
0110
0000
0000
0110
0000
0000
1001
0000
1001
0000
0000
0000
0001
0000
0010
0000
,
0100
1000
0100
0001
0100
1000
0010
1000
,
0000
0001
1000
0000
0000
0000
0001
0000
1000
0100
0000
0100
1000
0000
0001
0000
,
0100
0010
1000
0010
0100
0010
1000
0001
,
0000
0000
0010
0001
0010
0000
0100
0000
1000
0000
0001
0000
1000
0000
0010
0000
,
0001
0010
1000
0010
0001
0010
1000
0001
,
0000
0000
1000
0100
0000
0000
1000
0000
0001
0100
0000
0100
0001
0000
1000
0000
,
0010
0100
0001
0100
0010
0100
0001
1000
,
0000
0000
0001
0000
0010
0000
0011
0000
0000
0000
1000
0001
1000
0000
0010
0000
,
0100
0000
0001
1000
0001
0000
0100
0000
0010
0000
1000
0000
0010
0000
1000
0000
,
0000
1001
0001
0011
0000
0001
1000
0010
,
0000
0000
1000
0001
0000
0000
1010
0000
0000
0000
0001
1000
0000
0000
0011
0000
,
0000
0000
1000
0000
0100
0000
0010
0000
0001
0000
0100
0001
0100
0000
0010
0000
,
1000
0000
0100
1000
0100
0000
0010
0000
0001
0000
0100
0000
0010
0000
0100
0000
,
0000
0101
0100
1100
0000
0100
0001
0100
,
0000
0000
0001
0010
0000
0000
0011
0000
0000
0000
0001
0100
0000
0000
0101
0000
,
0000
0001
1000
1001
1000
0010
0100
0001
,
0100
0010
1000
0001
0000
1000
1000
0010
,
0000
0000
1000
0001
1000
0001
0010
0000
0001
0000
0010
0000
0001
0000
1000
0000
,
0001
0010
0100
1000
0000
0001
0001
1000
,
0000
0000
0010
1000
0001
1000
0010
0000
0100
0000
0001
0000
0100
0000
0010
0000
,
0100
0001
1000
0010
0000
1000
1000
0100
,
0000
0000
1000
0000
0001
0000
0100
0000
0000
0000
0001
0010
0000
0000
0011
0000
,
0000
0000
0001
1000
0000
0000
1010
0000
0000
0000
1000
0001
0000
0000
1000
0000
,
0100
0000
0010
0000
0001
0000
0010
0000
0100
0000
1000
0000
0010
1000
0000
0001
,
0000
1000
0010
0000
0100
0000
0001
0000
0010
0000
0001
1000
0000
1000
0001
0000
,
0100
0010
1000
0010
1000
0000
0001
0000
1000
0000
0010
0000
1000
0001
0000
0100
,
0000
0001
1000
0000
0100
0000
0010
0001
0010
0000
0001
0100
0000
0100
0001
0000
,
1000
0010
0100
0010
0100
0000
0001
0000
1000
0000
0001
0000
0010
0001
0000
1000
,
0000
0001
0010
0000
0100
0000
1000
0000
0010
0000
1000
0100
0000
1000
0100
0000
,
0010
0001
0100
0001
0100
0000
0010
0000
1000
0000
0001
0000
1000
0010
0000
0100
,
0000
0010
1000
0000
0001
0000
0010
0001
0010
0000
0001
1000
0000
1000
0001
0000
,
0100
0010
0100
0010
0100
0000
0000
0000
1001
0000
0000
0000
0000
0000
0000
0000
;

//---------------dance-single - ----------------
#NOTES:
     dance-single:
     :
     Medium:
     6:
     0.411389,0.496962,0.335502,0.037278,0.027958,309.000000,273.000000,36.000000,4.000000,0.000000,0.000000,0.411389,0.496962,0.335502,0.037278,0.027958,309.000000,273.000000,36.000000,4.000000,0.000000,0.000000:
0000
0000
0000
0000
,
0000
0000
0000
0000
,
0000
0000
0000
0000
,
0000
0000
0000
0000
,
0010
1000
0010
1000
0100
0000
0010
0001
,
0000
1000
0001
0100
0000
0000
0000
0000
,
0001
0010
0001
0010
0100
0000
1000
0001
,
0000
1000
0100
0001
0000
0000
0000
0000
,
0001
0100
0001
0100
0010
0000
1000
0010
,
0000
0100
0001
1000
0000
0001
0001
0010
,
0000
1001
0000
0101
0000
1000
1000
1000
,
0000
0000
0010
0000
0000
0000
1010
0000
1001
0000
0000
0000
0001
0000
0000
0011
,
0000
0000
0001
1000
0000
0010
0000
1000
,
1000
0000
0000
0000
1010
0000
0000
0000
0001
0000
0000
0101
0000
0000
0000
0000
,
0001
1000
0000
0001
0000
0010
0010
0000
,
0011
0000
0000
0000
1000
0000
0000
1100
0000
0000
0000
0000
1000
0000
0010
0000
,
0000
1000
0000
0001
0001
0000
1001
0000
,
0001
0000
0000
0011
0000
0000
0000
0000
0001
0000
0100
0000
0000
0000
0000
0000
,
0001
0000
0000
0000
0010
0000
0000
0000
0001
0000
0000
0000
1000
0000
0000
1000
,
0000
0000
1000
0000
0000
0000
0001
0000
0011
0000
0000
0000
0001
0000
0000
0001
,
0000
0001
0000
1000
1100
0000
1000
0000
,
0001
0000
1000
0100
0001
0100
1000
0000
,
0001
0000
0010
0001
0010
1000
0010
0000
,
0010
0010
0010
0011
,
1001
0000
1010
0000
0101
0000
0001
1000
,
0001
1000
0001
1000
0001
1000
2002
0000
,
0000
0000
0000
3003
,
0110
0000
0000
0000
,
0001
0000
1000
0000
0001
0010
0100
1000
,
0000
0010
1000
0010
0000
0000
0100
0000
,
0001
0000
1000
0000
0010
1000
0001
0100
,
0000
0011
0000
0101
0000
0000
0001
0000
,
1000
0000
0001
0000
1000
0100
0010
0001
,
0000
0100
0001
0100
0000
0000
0010
0000
,
1000
0000
0001
0000
0100
0010
1000
0001
,
0000
1001
0000
0110
0000
1000
1000
0001
,
0000
1000
1000
0010
0000
1000
0001
0100
,
0000
0001
0000
0001
0000
0010
0001
1000
,
0000
0001
0000
0010
0000
0100
0000
1000
,
0000
0010
0010
1010
0000
1000
0100
0001
,
0000
0001
0100
1000
0000
1000
0001
1000
,
0000
0010
0000
0010
0000
1000
0100
0010
,
0000
0001
0000
0100
0000
0001
0000
0010
,
0000
0001
0001
1001
1000
0000
1000
0000
,
0001
0010
0001
0010
0000
0001
0000
0001
,
1000
0001
1000
1000
,
0010
1000
0010
1000
0000
0001
0010
1000
,
0000
0010
0001
0001
,
1000
0100
1000
0100
0000
1000
0000
0001
,
0010
0000
0001
0001
0100
0000
0001
0000
,
1000
0001
1001
1001
,
0220
0000
0330
0000
1010
0000
1000
0001
,
1000
0000
0001
0011
0000
0010
0000
0001
,
0100
0001
0100
0000
0101
0000
0100
1000
,
0100
0000
0001
0101
0000
1000
0000
0001
,
0010
0100
1000
0000
1010
0000
1000
1000
,
0001
0000
0100
0101
0000
0001
0000
0010
,
0001
1000
0100
0000
1100
0000
1000
1000
,
0010
0000
1000
1001
0000
0001
0000
1000
,
0100
0010
0001
0000
0000
0000
0000
0000
;

//---------------dance-single - ----------------
#NOTES:
     dance-single:
     :
     Beginner:
     2:
     0.185058,0.247432,0.102514,0.009319,0.000000,139.000000,128.000000,11.000000,1.000000,0.000000,0.000000,0.185058,0.247432,0.102514,0.009319,0.000000,139.000000,128.000000,11.000000,1.000000,0.000000,0.000000:
0000
0000
0000
0000
,
0000
0000
0000
0000
,
0000
0000
0000
0000
,
0000
0000
0000
0000
,
1000
0000
0010
0000
,
1000
0000
0001
0001
,
0001
0000
0100
0000
,
0001
0000
0010
0010
,
0010
0000
0001
0000
,
1000
0000
0100
0100
,
0100
0000
1000
0000
,
0001
0000
1001
0000
,
0000
0010
0010
0000
,
0000
1001
0000
0000
,
0100
0100
0000
0000
,
0110
0000
0000
0001
,
0001
0000
0000
0110
,
0000
0000
1000
1000
,
0000
0010
0000
1000
,
1000
1000
0000
0001
,
0001
0001
0000
1000
,
0000
0001
0000
1000
,
0000
0010
0000
0100
,
0000
0010
0000
0100
,
0100
0100
0100
0100
,
0100
0100
0100
0200
,
0000
0000
0000
0300
,
0000
0000
0000
0000
,
0001
0000
0100
0000
,
1000
0000
0100
0000
,
0010
0000
0100
0000
,
0000
0001
0001
0000
,
1000
0000
0100
0000
,
0010
0000
0100
0000
,
0001
0000
0100
0000
,
0000
1000
1000
0000
,
1001
0000
1001
0000
,
0010
0010
0010
0000
,
1000
0000
0001
0000
,
0100
0100
0100
0000
,
0001
0000
0010
0000
,
1001
1001
1001
0000
,
0010
0000
1000
0000
,
0100
0000
0110
0000
,
0001
0000
1000
1000
,
1000
0000
0000
0010
,
0000
1000
0000
0100
,
0100
0000
1000
0000
,
0001
0000
0010
0010
,
0010
0000
0000
0001
,
0000
0100
0000
0001
,
0001
0000
1000
1000
,
1000
1000
1000
0000
,
0010
0000
0100
0100
,
0100
0100
0100
0000
,
0001
0000
0010
0010
,
0010
0010
0010
0000
,
0001
0000
1000
1000
,
1000
1000
1000
0000
,
0110
0000
0000
0000
;

//---------------dance-single - ----------------
#NOTES:
     dance-single:
     :
     Easy:
     3:
     0.278253,0.304980,0.214348,0.009319,0.018639,209.000000,186.000000,23.000000,1.000000,0.000000,0.000000,0.278253,0.304980,0.214348,0.009319,0.018639,209.000000,186.000000,23.000000,1.000000,0.000000,0.000000:
// measure 0
0000
0000
0000
0000
,  // measure 1
0000
0000
0000
0000
,  // measure 2
0000
0000
0000
0000
,  // measure 3
0000
0000
0000
0000
,  // measure 4
0001
0010
0001
0100
,  // measure 5
0001
1000
0010
0000
,  // measure 6
0100
0001
1000
0001
,  // measure 7
0010
1001
1001
0000
,  // measure 8
1000
0010
1000
0100
,  // measure 9
1000
0001
0010
0000
,  // measure 10
0011
0000
1001
0000
,  // measure 11
0110
0000
0000
0000
0000
0000
0000
0000
1001
0000
0000
0000
0000
0000
0000
0001
,  // measure 12
0000
0000
1000
1000
,  // measure 13
1000
0000
0000
0000
1010
0000
0000
0000
0000
0000
0000
0001
0000
0000
0000
0000
,  // measure 14
0000
0100
0100
0100
,  // measure 15
0101
0000
0000
0000
0000
0000
0000
0010
0000
0000
0000
0000
0000
0000
0000
0000
,  // measure 16
1000
1000
1000
1100
,  // measure 17
0000
0000
0000
0010
0000
0000
0000
0000
0000
0000
0000
0000
0001
0000
0000
0000
,  // measure 18
1000
0001
1000
0010
,  // measure 19
0010
0010
1001
0100
,  // measure 20
0100
0100
1001
0001
,  // measure 21
1000
0001
1000
0010
,  // measure 22
0100
0010
0100
0001
,  // measure 23
0000
1000
0000
0010
,  // measure 24
0010
0010
0010
1000
,  // measure 25
0001
1000
0001
0200
,  // measure 26
0000
0000
0000
0300
,  // measure 27
1001
0000
0000
0000
,  // measure 28
0001
0010
0100
1000
,  // measure 29
0010
1000
0100
0000
,  // measure 30
0010
0001
1000
0001
,  // measure 31
0100
0000
0010
0010
0010
0000
0000
0000
,  // measure 32
0100
0001
0010
0001
,  // measure 33
1000
0100
0001
0000
,  // measure 34
0100
1000
0010
1000
,  // measure 35
0001
0000
0100
0100
0100
0000
0000
0000
,  // measure 36
0011
1000
0011
0000
,  // measure 37
1000
0001
1000
0000
,  // measure 38
0001
0010
0100
1000
,  // measure 39
0100
0001
0100
0000
,  // measure 40
1100
0010
1100
0000
,  // measure 41
0010
0001
0010
0000
,  // measure 42
0001
1000
0010
0100
,  // measure 43
1001
0000
0001
0100
,  // measure 44
1000
0100
0001
1000
,  // measure 45
0100
0000
0010
0001
,  // measure 46
0010
1000
0010
0011
,  // measure 47
0011
0000
0001
1000
,  // measure 48
0001
0100
0001
0010
,  // measure 49
0100
0000
1100
0000
,  // measure 50
1001
0000
1010
0000
,  // measure 51
0001
0001
0000
0010
,  // measure 52
0001
0010
0001
1000
,  // measure 53
0100
0100
0100
0000
0000
0000
1000
0000
,  // measure 54
0010
1000
0010
0001
,  // measure 55
0010
0010
0010
0000
0000
0000
1000
0000
,  // measure 56
0100
1000
0100
0010
,  // measure 57
0100
0100
0100
0000
0000
0000
1000
0000
,  // measure 58
0001
1000
0001
0100
,  // measure 59
0010
0010
0010
0000
1001
0000
0000
0000
;
