#TITLE:all the good girls go to hell;
#SUBTITLE:;
#ARTIST:Billie Eilish;
#TITLETRANSLIT:;
#SUBTITLETRANSLIT:;
#ARTISTTRANSLIT:;
#GENRE:;
#CREDIT:PWG;
#MUSIC:[Prime Time] - all the good girls go to hell.ogg;
#BANNER:[Prime Time] - all the good girls go to hell.png;
#BACKGROUND:[Prime Time] - all the good girls go to hell-bg.png;
#CDTITLE:cdtitle.png;
#SAMPLESTART:31.135;
#SAMPLELENGTH:20.757;
#SELECTABLE:YES;
#OFFSET:0.000;
#BPMS:0.000=92.500;
#STOPS:;
#BGCHANGES:;
#FGCHANGES:;

//--------------- dance-single - PWG ----------------
#NOTES:
     dance-single:
     PWG:
     Beginner:
     2:
     0,0,0,0,0:
0000
0000
0000
0000
,
0000
0000
0000
0000
,
1000
0000
0000
0000
0020
0000
0000
0030
,
0001
0000
0000
0000
0200
0000
0000
0300
,
1000
1000
0100
0000
,
0001
0001
0010
0000
,
2000
0000
0000
3000
0010
0000
0000
0000
,
0200
0000
0000
0300
0001
0000
0000
0000
,
0010
0100
0001
0000
,
1000
0010
0100
0000
,
0001
1000
0100
0000
,
0002
2003
3020
0000
,
1030
0000
0100
0000
,
0001
0000
0000
0000
,
0001
0000
0010
0000
,
1000
0000
0000
0000
,
0100
0000
0010
0000
,
0200
0000
0000
0000
0000
0000
0000
0300
,
0010
0000
0100
0000
,
0020
0030
0002
0003
2000
3000
0000
0000
,
1000
0000
0001
0000
,
1000
0000
1001
0000
,
0001
0000
1000
0000
,
0001
0000
1001
0000
,
0010
0000
0001
0000
,
0010
0000
1000
0000
,
0100
0000
0001
0000
,
0100
0000
1000
0000
,
0020
0000
0000
0130
,
0002
0000
0000
0013
,
1000
0000
0100
0000
,
0002
0000
0000
0000
,
0103
0000
0010
0000
,
1000
0000
0001
0000
,
0020
0000
0000
0030
0200
0000
0000
0300
,
0001
0001
1000
1000
,
0120
0000
0030
0000
,
1000
0000
0001
0000
,
0100
0000
0010
0000
,
0001
1000
0010
0000
,
0000
0000
0001
0000
,
1000
0000
0100
0000
,
0001
0000
0100
0000
,
0002
0003
0200
0300
0020
0030
2000
3000
,
0100
0000
1000
0000
,
0010
0000
0001
0000
,
0100
0000
0010
0000
,
0100
0000
0001
0000
,
1000
0000
0010
0000
,
1000
0000
0001
0000
,
0100
0000
0001
0000
,
1000
0000
0000
0000
0020
0000
0000
0030
,
0110
0000
0000
0000
;

//--------------- dance-single - PWG ----------------
#NOTES:
     dance-single:
     PWG:
     Easy:
     3:
     0,0,0,0,0:
0000
0000
0000
0000
,
0000
0000
0000
0000
,
0010
0000
0100
0001
2000
3000
1000
0000
,
0010
0000
0100
0001
0020
0030
0010
0000
,
0001
0000
1000
0000
0010
0000
0100
0001
,
0010
0001
1000
0010
,
0100
1000
0100
0000
0200
0000
0000
0300
,
0100
0001
0100
0000
0200
0000
0310
0000
,
1000
0000
0000
0000
0010
0100
0001
0000
,
0001
0000
0000
0000
0100
0010
1000
0000
,
2000
0010
3100
0001
,
0001
0001
0010
0000
0100
0100
1000
0000
,
1001
0000
0010
0000
0100
0000
0100
0001
,
0000
0000
0000
0100
0000
0100
0010
1000
,
0000
0000
0000
1000
0000
1000
0100
0000
,
0001
0010
0001
0010
,
0100
0000
0100
0000
0010
0000
1000
0100
,
0000
0000
0000
0010
0000
0001
0010
0100
,
0000
0000
0000
0010
0000
0100
1000
0000
,
0002
0023
0230
0000
,
1300
0000
0001
0000
0100
0000
0010
0100
,
0001
0000
0010
0000
1000
0000
0100
0010
,
1000
0010
0100
0000
,
0010
0001
1000
0000
,
0110
0000
0001
0000
0100
0100
0020
0030
,
1000
0000
0001
0000
0010
0010
0200
0300
,
0010
0000
0100
0000
2000
0000
0000
3000
,
0100
0000
0010
0000
0002
0000
0000
0003
,
0100
0000
0010
0010
,
0001
0000
1000
0000
0001
0001
1000
0000
,
0110
0010
1000
1000
,
0110
0010
0001
0001
,
0010
0100
0001
0000
,
0100
0010
1000
0000
,
0010
0100
0001
1000
,
0010
1000
0200
0300
0100
0001
0020
0030
,
0001
0000
0001
0000
0001
0000
1000
0100
,
0000
0000
0000
0010
0000
0100
0001
0010
,
0000
0000
0000
0100
0000
0010
1000
0000
,
1001
1000
0110
0100
,
0001
0000
0010
0001
0100
0000
0100
1000
,
0000
0010
0000
0001
0000
0100
0010
0001
,
0000
0010
0000
1000
0000
1000
0100
1000
,
0020
0032
0203
0320
,
1030
0000
0010
0000
0001
0000
0100
0100
,
0010
0100
1000
0010
,
0100
0001
0100
0010
,
1000
0010
0100
0001
,
1000
0010
0100
0001
,
0010
1000
0100
1000
,
0010
0001
1000
0100
,
0020
0000
0032
0000
2003
0000
3200
0300
,
1001
0000
0000
0000
;

//--------------- dance-single - PWG ----------------
#NOTES:
     dance-single:
     PWG:
     Medium:
     4:
     0,0,0,0,0:
0000
0000
0000
0000
,
0000
0000
0000
0000
,
0010
0100
0001
0000
2000
0000
3010
0000
,
0100
0001
1000
0000
0020
0000
0130
0000
,
0001
0000
1000
0010
0000
0010
1000
0001
,
0000
0001
0100
0010
1000
0000
0100
0000
,
0001
0100
0010
0000
0200
0000
0301
0000
,
0100
0010
1000
0000
0200
0000
0310
0000
,
1000
0000
1000
0000
1000
0010
0100
0000
,
0001
0000
0001
0000
0001
0100
0010
0000
,
1000
0100
0010
0000
0001
0010
0100
0000
,
2000
3020
0230
0302
,
1003
0000
1000
0010
0100
0000
0100
0001
,
0000
0010
0000
0100
0000
0100
0001
1000
,
0000
1000
0000
0010
0000
1000
0010
0100
,
0002
2003
3020
0230
,
0301
0000
0001
1000
0010
0000
1000
0100
,
0000
1000
0000
0010
0000
1000
0010
0100
,
0000
0001
0000
0100
0000
0001
1000
0010
,
0100
0010
0010
0001
,
1000
0100
1000
0100
0000
0010
0000
0010
,
0001
0000
0010
0000
0001
0000
0010
0000
0000
0000
2000
3000
0200
0300
0020
0030
,
0200
0300
0002
0003
2000
0000
0000
0000
3010
0000
0000
0000
0010
0000
0000
0000
,
0100
0000
0001
0000
1000
1000
0010
0000
,
1000
0001
0100
0010
,
0100
0010
1000
0000
0001
1000
0010
0000
,
0100
0001
0100
0010
2000
0000
3010
0000
,
1000
0010
0100
0001
0020
0000
0031
0000
,
0100
0000
0010
0000
0100
0001
1000
0000
,
0010
0000
1000
0000
0100
1000
0001
0000
,
1000
0100
0010
0001
0020
0000
0130
0000
,
0001
0010
0100
1000
0200
0000
0310
0000
,
1000
0000
1000
0010
0100
0000
0100
0000
,
0001
0000
0001
0100
0010
0000
0010
0000
,
1000
0100
0010
0000
1000
0100
0010
0000
,
0001
0010
0100
0100
0001
0010
0100
0000
,
1001
0000
1001
0000
0010
1000
0100
0000
,
0010
1000
0001
0000
0001
0010
0001
0000
,
0001
0100
0010
1000
0010
0100
0001
0100
,
0010
1000
0100
0000
0100
1000
0010
0000
,
0001
0000
0010
0000
0100
0000
0100
0001
,
0000
0010
0000
0100
0000
0100
1000
0100
,
0000
0010
0000
0100
0000
1000
0010
0100
,
0011
1100
0110
1001
,
0010
1000
0100
2000
0000
0000
3000
0100
,
0001
0000
0100
0000
0010
0000
0002
0000
0000
0000
0203
0300
0020
0030
2000
3000
,
0200
0300
0002
0003
0020
0000
0000
0000
1030
0000
0000
0000
0010
0000
1000
0000
,
0010
0000
0001
0000
0010
0000
0100
0001
,
0100
0000
0010
0000
1000
0000
0100
1000
,
0010
0000
0000
0000
1000
0000
0000
0000
0010
0000
2000
3000
0200
0300
0002
0003
,
0020
0030
0200
0300
0002
0000
0000
0000
0103
0000
0000
0000
0001
0000
0000
0000
,
1000
0100
0010
0000
0001
0100
0010
0000
,
0101
1010
0000
0000
;

//--------------- dance-single - PWG ----------------
#NOTES:
     dance-single:
     PWG:
     Hard:
     6:
     0,0,0,0,0:
0000
0000
0000
0000
,
0000
0000
0000
0000
,
0010
0100
0001
1000
0200
0000
1300
1000
,
0010
0100
0001
0010
0200
0000
0310
0000
,
0101
0000
1000
0000
0010
0000
1000
0100
1000
0000
0010
0000
0100
0000
0000
0000
,
1010
0000
0100
0000
0010
0000
0001
0010
0001
0000
0100
0000
0010
0000
0000
0000
,
1000
0100
0010
0001
0020
0000
1030
0000
,
0001
0010
0100
1000
0200
0000
0301
0000
,
0010
0000
1000
0000
0100
0000
0000
0000
0010
1000
0000
0100
0000
0000
0010
0000
,
0000
0000
0001
0000
0100
0000
0000
0000
0010
0000
0001
0100
0000
0000
1000
0000
,
0110
0000
1000
0000
0100
0000
0000
0100
0010
0100
0000
0001
0000
0000
1000
0000
,
1001
0100
1000
0100
1001
0010
0001
0010
,
1000
0000
0000
1000
0100
0000
0010
0000
0001
0000
0000
0000
0001
0000
0010
0000
,
0000
0000
0010
0000
0000
0000
0100
0000
0000
0001
0100
0010
1000
0000
0000
0100
,
0000
0001
0000
1000
0000
0010
0000
0100
,
0001
0000
1000
0010
1000
0000
0100
0000
2100
0000
0000
0000
3102
0000
0000
0000
,
0103
0000
0000
0100
0001
0000
0100
0000
0010
0000
0000
0000
0010
0000
1000
0000
,
0100
0000
1000
0000
0010
0000
0100
0000
0000
1000
0010
0001
0010
1000
0000
0010
,
0000
0010
0100
0001
0000
0100
0010
1000
,
0100
0100
0010
0010
0001
1000
0001
0000
,
0010
0001
0100
0010
0000
0100
0000
1000
,
0100
0000
0010
0000
0001
0000
0100
0000
0000
0000
2000
3000
0200
0300
0020
0030
,
0200
0300
0002
0003
2000
0000
0000
0000
3010
0000
0100
0000
0000
0000
0100
0000
,
0010
1000
0001
0100
0010
0100
0101
0000
,
2010
0000
3010
0000
0100
0001
0010
0000
,
0002
0100
0013
1000
0100
0010
0100
0000
,
0010
1000
0001
0100
0020
0000
1030
0000
,
0100
0001
1000
0010
0200
0000
0301
0000
,
0010
0000
0100
0001
1000
0000
0010
0000
,
1000
0000
0100
1000
0001
0000
0010
0000
,
0010
0001
0010
0001
0020
0000
0031
0000
,
0010
1000
0010
1000
0020
0000
1030
0000
,
0000
0000
0011
0000
0100
0000
0000
0000
0010
0100
0000
0100
0000
0000
0001
0000
,
0000
0000
1100
0000
0010
0000
0000
0000
0001
0100
0000
0010
0000
0000
0001
0000
,
0100
0000
0010
0000
1000
0000
0000
0000
1000
0010
0000
0100
0000
0000
0001
0000
,
0100
0010
0100
0010
1000
0001
1000
0001
,
1001
0000
0000
0010
0100
0000
0100
0000
0010
0000
0000
0000
0001
0000
0100
0000
,
1000
0100
0010
0000
0001
0001
1000
0000
,
0110
0010
0110
0000
1001
1000
1001
0000
,
1000
0100
1000
0010
0100
0001
0010
0010
,
0001
0000
0100
0010
1000
0000
0100
1000
,
0010
0000
0000
0000
0001
0000
0100
0000
0010
0000
0100
1000
0001
0000
0000
0000
,
0010
0000
1000
0000
0100
0000
0000
0000
1000
0000
0100
1000
0010
0000
0000
0000
,
0002
1000
0100
1003
2000
0001
0010
3001
,
0010
0010
0001
0100
0000
0100
0100
0001
,
1000
0000
0010
0000
0100
0000
0001
0000
0000
0000
0200
0300
0002
0003
2000
3000
,
0020
0030
2000
3000
0200
0000
0000
0000
0301
0000
0000
0000
1000
0000
0000
0000
,
0001
0010
0100
0001
1000
0100
0001
1000
,
0010
0000
0100
0001
1000
0010
1000
0000
,
0001
0000
0000
0000
0100
0000
1000
0000
0100
0000
0002
0003
0020
0030
2000
3000
,
0020
0030
0200
0300
0002
0000
0000
0000
0013
0000
0100
0001
0100
0000
0000
0000
,
0010
1000
0100
1000
0010
0100
0011
0000
,
1100
0000
0000
0000
;

//--------------- dance-double - PWG ----------------
#NOTES:
     dance-double:
     PWG:
     Easy:
     3:
     0,0,0,0,0:
00000000
00000000
00000000
00000000
,
00000000
00000000
00000000
00000000
,
00001000
00000100
00002000
01003000
,
00100000
00010000
00002000
00003100
,
00000000
00000010
00000000
00000100
,
00000000
00000000
00001000
00100000
00010000
00000000
01000000
00000000
,
00000100
00000100
00000010
00000100
,
00010000
00010000
00001000
00100000
,
00020000
01030000
10000000
01000000
,
00002000
00003010
00000001
00000010
,
00001000
00000000
00100000
00000000
,
00001000
00000000
00000100
00000000
00000010
00000010
00000100
00000000
,
00010000
00001000
00010000
00001000
,
00010000
00001000
00010000
00000000
,
10000000
01000000
10000000
00000000
,
00000001
00000100
00000001
00000000
,
00010000
00000000
00010000
00001000
00100000
00000000
00000000
00000000
,
01000000
00000000
00100000
10000000
01000000
00000000
00000000
00000000
,
00100000
00000000
00010000
00000010
00001000
00000000
00000000
00000000
,
00001001
00000100
00000010
00000100
00000001
00000000
00000010
00000000
,
00011000
00000100
00010000
00001000
,
01000000
00010000
00100000
00001000
,
00000100
00000010
00010000
00001000
,
00100000
00100000
10010000
00000000
,
00000010
00001000
00000100
00000000
,
00001000
00100000
00010000
00000000
,
01000000
00001000
00010000
00010000
,
00000001
00001000
00000010
00000010
,
00011000
00000000
00100000
00000000
,
01000000
00000000
00001000
00000000
,
00000100
00000010
00010000
00000000
,
00010000
00000100
00001000
00000000
,
00000001
00000000
00000100
00000010
,
00010000
00000000
00001000
00010000
,
00000100
00000000
00001000
00000100
,
00000010
00000000
00100000
00010000
,
10000000
00000000
10000000
01000000
00000100
00000000
00001000
00000000
,
00000010
00000000
00000100
00000000
00001000
00000000
00010000
00000100
,
00001000
00000000
00000010
00000000
00000001
00000000
00000010
00010000
,
00000100
00001000
00100000
01000000
,
00010000
00000000
00001000
00000000
01000000
00000000
10000000
00100000
,
01000000
00010000
00001000
00000100
,
00010000
00001000
00010000
00000000
00100000
00010000
00100000
00000000
,
00000100
00001000
00010000
00100000
,
01000000
01000000
00100000
00000000
10000000
00000000
00100000
00000000
,
00000100
00000100
00000010
00000000
00001000
00000000
00000001
00000000
,
00010000
00001000
00100000
00010000
,
01000000
00001000
00010000
00000000
00001000
00000010
00000100
00000000
,
00000001
00000000
00010000
00000000
00001000
00000000
00100000
00010000
,
01000000
00000000
00001000
00000000
00000100
00000010
00000100
00000000
,
00010000
00000000
00001000
00000000
00100000
00000000
00010000
01000000
,
00100000
00000000
00001000
00000000
00000100
00000010
00000100
00000000
,
00011000
00000000
00000000
00000000
00010000
00000000
00000000
00100000
00000100
00000000
00010000
00000000
00000000
00000000
00000000
00000000
;

//--------------- dance-double - PWG ----------------
#NOTES:
     dance-double:
     PWG:
     Medium:
     4:
     0,0,0,0,0:
00000000
00000000
00000000
00000000
,
00000000
00000000
00000000
00000000
,
00100000
01000000
00010000
10000000
00210000
00000000
01300000
01000000
,
00000001
00001000
00000100
00001000
00001020
00000000
00000130
00000000
,
00000000
00000000
00100000
00001000
00000000
10000000
00100000
00000100
,
00000000
00000010
00000100
00001000
00000100
00000000
00000010
00000000
,
00100000
00001000
00100000
10000000
00010000
00000000
00100000
00001000
,
00010000
00000100
00100000
00000010
00100000
00000000
01000000
00000000
,
00011000
00000000
00001000
00000000
00010000
10000000
00100000
00000000
,
01000100
00000000
00000001
00000000
00000010
00000001
00000010
00000000
,
00100010
00000000
00010000
00000000
10000000
01000000
00001000
00000000
,
00010000
01000000
00010000
01000000
00001000
00000010
00001000
00000010
,
10000000
00000000
00000000
10000000
00100000
00000000
01000000
00000000
00010000
00000000
00000000
00000000
00100000
00000000
02000000
00000000
,
00000000
00000000
00000000
00000000
00000000
00000000
00000000
00000000
00000000
03000001
00000100
00000000
00000010
00000000
00000000
00000100
,
00000000
00000000
00000000
00000000
00000000
00000000
00000000
00010000
,
00000020
20000030
30010000
00000000
,
00100000
00000000
00000000
00010000
01000000
00000000
00100000
00000000
00001000
00000000
00000000
00000000
00000010
00000000
00001000
00000000
,
00000000
00110000
00000000
00011000
00000000
00001000
00000100
00100000
,
00000000
00011000
00000000
00110000
00000000
01000000
10000000
00010000
,
00000200
00000320
00002030
00023000
,
00130000
01000000
00010000
10000000
00000000
10000000
00000000
10000000
,
00100000
00000000
00001000
00000000
00000010
00000000
00010000
00000000
00000000
00000000
00020000
00030000
00002000
00003000
02000000
03000000
,
00020000
00030000
00000020
00000030
02000000
00000000
00000000
00000000
03010000
00000000
00000000
00000000
00001000
00000000
00000000
00000000
,
00010000
10000000
00100000
00000000
01000000
00010000
00000010
00000000
,
00100000
00000000
01000000
00000000
00010000
00000100
00100000
00000000
,
01000000
00000000
00010000
00000000
00010000
00001000
00100000
00000000
,
00100000
00010000
00100000
00000100
00001000
00000000
00100000
00000000
,
00010000
00001000
00010000
00001000
00200000
00000000
10300000
00000000
,
00100100
00000000
00010000
01000000
00100000
00000000
00101000
00000000
,
00010100
00000000
00000010
00000100
00001000
00000000
00010000
00000000
,
00100000
00001000
00000010
00000001
00000100
00000000
00001000
00000000
,
00010000
00100000
00010000
00001000
00000100
00000000
00001000
00000000
,
00100000
00000000
00010000
00000000
00001000
00000010
00000100
00000000
,
00000001
00000000
00000010
00000000
00000100
00001000
00000010
00000000
,
01000000
00100000
10000000
00000000
00100000
00010000
00000100
00000000
,
00010000
01000000
00100000
00100000
00000100
00001000
00000100
00000000
,
00011000
00000000
00000000
00100000
01000000
00000000
00010000
00000000
00001000
00000000
00000000
00000000
00000100
00000000
00010000
00000000
,
00000000
00000000
01000000
00000000
00000000
00000000
00100000
00000000
00000000
01000000
00010000
00000000
01000000
00000000
00000000
00100000
,
00000000
00010000
00000000
00001000
00000000
00000100
00000000
00010000
,
00100000
10000000
00200000
00000000
00302000
00000000
00203000
00000000
,
00311000
00000000
00000000
01000000
00100000
00000000
00001000
00000000
00010000
00000000
00000000
00000000
01000000
00000000
00000100
00000000
,
00000000
00000000
00010000
00000000
00000000
00000000
00001000
00000000
00000000
00010000
01000000
00000000
00100000
00000000
00000000
01000000
,
00000000
00010000
00000000
00001000
00000000
00001000
00010000
00000100
,
01100000
00011000
00000110
00011000
,
10000000
01000000
00100000
00010000
00000000
00001000
00000000
00001000
,
00010000
00000000
00100000
00000000
00001000
00000000
00000010
00000000
00000000
00000000
00200000
00300000
00020000
00030000
00002000
00003000
,
00200000
00300000
00000200
00000300
02000000
00000000
00000000
00000000
03100000
00000000
00000000
00000000
00010000
00000000
00000000
00000000
,
00100000
00000000
00000000
01000000
00000000
00000000
00010000
00000000
01000000
00000000
00000000
00100000
00000000
00000000
10000000
00000000
,
01000000
00000000
00100000
00000000
00010000
00000000
00001000
00010000
,
00000100
00000000
00000000
00000000
00001000
00000000
00000000
00000000
00100000
00000000
00000020
00000030
00002000
00003000
00200000
00300000
,
00020000
00030000
00002000
00003000
00200000
00000000
00000000
00000000
01300000
00000000
00000000
00000000
01000000
00000000
00000000
00000000
,
00010000
00000000
00000010
00000000
00001000
01000000
00100000
00000000
,
00010000
00000000
00000000
00000000
10000000
00000000
00000000
01000000
00001000
00000000
00000010
00000000
00000000
00000000
00000000
00000000
;

//--------------- dance-double - PWG ----------------
#NOTES:
     dance-double:
     PWG:
     Hard:
     6:
     0,0,0,0,0:
00000000
00000000
00000000
00000000
,
00000000
00000000
00000000
00000000
,
00100000
10000000
00100000
01000000
00010000
00000000
00010000
00010000
,
00001000
00000100
00001000
00000010
00000100
00000000
00000001
00000000
,
00000001
00001000
00000010
00001000
00000100
00010000
00001000
00000000
,
00000100
00001000
00000010
00001000
00000001
00000100
00000010
00000000
,
00001000
00010000
00001000
00100000
00010000
00000000
01000000
00000000
,
10000000
00010000
00001000
00100000
00010000
00000000
01000000
00000000
,
00100000
00000000
00100000
01000000
00010000
00000000
00000000
00000000
00100000
00000000
10000000
00000000
01000000
00000000
00000000
00000000
,
00010000
00000000
00010000
00000100
00001000
00000000
00000000
00000000
00000100
00000000
01000000
00000000
00100000
00000000
00000000
00000000
,
00010000
01000000
00100000
00000000
00100000
10000000
01000000
00000000
,
10000000
01000000
00100000
00000000
00010000
00000000
01000000
00000000
00010000
00100000
01000000
00000000
00010000
00000000
00000000
00000000
,
00000110
00000000
00000010
00000000
00000100
00000000
00010000
00001000
,
00000000
01100000
00000000
01100000
00000000
00010000
10000000
01000000
,
00000000
10010000
00000000
10010000
00000000
00100000
01000000
00010000
,
00110000
00000000
00000000
00000000
00011000
00000000
00000000
00000000
00010000
00000000
00000100
00001000
00000010
00000000
00000000
00000000
,
00000001
00000000
00000001
00001000
00000010
00000000
00000100
00000001
,
00000000
00001000
00000000
00000010
00000000
00000010
00000100
00001000
,
00000000
00000000
00000010
00000000
00000000
00000000
00000100
00000000
00000000
00000000
00001000
00000000
00010000
00001000
00010000
00000000
,
00100000
00010000
01000000
00000000
00100000
00000000
10000000
01000000
,
10000000
10000000
00101000
01000000
00000000
00010000
00010100
00000000
,
01000000
00000000
00010000
00000000
00110000
00000000
00001000
00000000
00000000
00000000
00000020
00000030
00201000
00300000
00002000
00003000
,
00020000
00030000
00002000
00003000
00200000
00000000
00000000
00000000
00310000
00000000
01000000
00000000
00001000
00000000
00000000
00000000
,
00010000
00000000
00100000
00000000
00001000
00000000
00100000
00010000
00100000
00000000
00001000
00000000
00010000
00000000
00000000
00000000
,
00000100
00000000
00001000
00000000
00000010
00000000
00000000
00000000
00000010
00000000
00001000
00001000
00000100
00000000
00000000
00000000
,
00001000
00000000
00010000
00000000
00000100
00000000
00000000
00000000
00100000
00000000
00100000
00100000
00010000
00000000
00000000
00000000
,
00001000
01000000
00010000
01000000
00100000
00000000
00100000
00010000
,
00001000
00000010
00000100
00000010
01000000
00000000
10000000
00000000
,
01000000
00000000
00100000
00010000
00001000
00100000
00010000
00000000
,
00100000
00000000
00001000
00010000
00000100
00000010
00000100
00000000
,
00001000
00000000
00001000
00000000
00000100
00000000
00010000
00000000
00001000
00010000
00000100
00000000
00100000
00000000
00000000
00000000
,
00001000
00000000
00100000
00000000
00010000
00000000
01000000
00000000
00100000
01000000
00010000
00000000
01000000
00000000
00001000
00000000
,
00001000
00000000
00010000
00000000
00000100
00000000
00000000
00000100
00010000
00000010
00000000
00001000
00000000
00000000
00000100
00000000
,
00000000
00000000
00000010
00000000
00001000
00000000
00000000
00000000
00010000
00001000
00000000
00010000
00000000
00000000
00010000
00000000
,
00100000
00000000
00001000
00000000
01000000
00000000
00000000
01000000
00010000
01000000
00000000
00100000
00000000
00000000
10000000
00000000
,
00010000
00001000
00000100
00000010
00000100
00001000
00010000
00100000
,
10000000
00000000
00000000
10000000
01000000
00000000
00100000
00000000
00010000
00000000
00000000
00000000
00100000
00000000
00010000
00000000
,
00000000
00000000
00001000
00000000
00000000
00000000
00000100
00000000
00000000
00000010
00000100
00001000
00000010
00000000
00000100
00001000
,
00000000
00000010
00000000
00000001
00000000
00000010
00000000
00000010
,
00001000
00000100
00001000
00000000
00010000
00001000
00010000
00000000
00100000
00010000
00100000
00000000
00001000
00010000
00001000
00000000
,
00000100
00000000
00000000
00100000
00010000
00000000
01000000
00000000
00100000
00000000
00000000
00000000
00100000
00000000
00001000
00000000
,
00000000
00000000
00001000
00000000
00000000
00000000
00001000
00000000
00000000
00000100
00001000
00000010
00001000
00000100
00000000
00001000
,
00000000
00000010
00000000
00000001
00000000
00000100
00000000
00010000
,
00100000
00010000
01000000
00000000
00100000
10000000
01000000
00000000
10000000
00100000
01000000
00000000
00110000
00000000
00001100
00000000
,
00100000
00010000
00100000
00002000
00000000
00000100
00000000
00003100
,
00010000
00000000
00001000
00000000
00020000
00000000
00100000
00000000
00000000
00000000
00230000
00300000
00020000
00030000
00200000
00300000
,
00002000
00003000
00000200
00000300
00002000
00000000
00000000
00000000
00003010
00000000
00000000
00000000
00000000
00000000
00000010
00000000
,
00001000
00000000
00001000
00010000
00000100
00000000
00010000
00000000
00001000
00010000
00000100
00000000
00010000
00000000
00001000
00000000
,
00100000
00000000
00010000
00100000
00001000
00000000
00100000
00000000
00000000
00000000
01000000
00000000
00010000
00000000
10000000
00000000
,
00100000
00000000
10000000
01000000
10000000
00000000
00100000
00000000
00000000
00000000
00020000
00030000
02000000
03000000
00002000
00003000
,
00200000
00300000
00020000
00030000
00200000
00000000
00000000
00000000
00301000
00000000
00000000
00000000
00000100
00000000
00010000
00000000
,
00000010
00000000
00001000
00000000
00000100
00000000
00001000
00000010
00001000
00000000
00000100
00010000
00001000
00100000
00000100
00000000
,
01000010
00100100
00011000
00000000
;
