#TITLE:Vieille Ville;
#SUBTITLE:;
#ARTIST:もりもりあつし+Ujico*;
#TITLETRANSLIT:;
#SUBTITLETRANSLIT:;
#ARTISTTRANSLIT:;
#GENRE:;
#CREDIT:;
#MUSIC:Vieille Ville.ogg;
#BANNER:Vieille Ville.png;
#BACKGROUND:Vieille Ville-bg.png;
#CDTITLE:;
#SAMPLESTART:68.054;
#SAMPLELENGTH:14.769;
#SELECTABLE:YES;
#OFFSET:0.870;
#BPMS:0.000=97.500;
#STOPS:26.500=0.154
,26.750=0.154
,108.500=0.154
,108.750=0.154
,109.000=0.154
,109.250=0.154
,205.000=0.154
,205.250=0.154
;
#BGCHANGES:;
#FGCHANGES:;

//--------------- dance-single - Talkion (X-Scale 14) ----------------
#NOTES:
     dance-single:
     Talkion (X-Scale 14):
     Hard:
     9:
     0,0,0,0,0:
0000
0000
0000
0000
,
0000
0000
0000
0000
,
0000
0000
0000
0000
,
0000
0000
0000
0000
0000
0000
0000
0000
0000
0000
0000
0000
0001
0010
0100
1000
,
1020
0000
0130
1002
0000
0013
1200
0000
,
0310
0000
0000
0001
0000
0000
1000
0000
0000
0000
0000
0000
0010
0000
0100
0000
0001
0000
1000
0000
0100
0000
0010
0000
0002
0000
0000
0000
0000
0000
0000
0000
0000
0000
0000
0000
1003
0000
0000
0010
0000
0000
0100
0000
0000
0000
0000
0000
,
0010
0000
1000
0000
0001
0000
0010
0000
0100
0000
0010
0000
0002
0000
0000
0000
0000
0000
0023
0000
0000
0000
0000
0000
2030
0000
0000
0000
0000
0000
3100
0000
0000
0101
0000
0000
1100
0000
0000
0000
0000
0000
2001
0000
0000
0000
0000
0000
,
0000
0000
3010
0000
0100
0000
0001
0000
1000
0000
0200
0000
0000
0000
0310
0001
,
1000
0010
0001
0120
0000
0000
1000
0000
,
0000
0000
0001
0000
0000
0000
0000
0000
0130
0000
0010
1000
0100
0010
0011
0000
,
0001
1000
0000
1000
0010
0000
0100
0001
1000
0100
0010
0000
1000
0010
0001
0100
,
0010
0000
0000
0000
0100
0000
0001
0000
1000
0000
0100
0000
0010
0000
0000
0010
0001
0000
0000
0001
1000
0000
0000
1000
0010
0000
0000
0000
0001
0000
0010
0000
,
1000
0000
0000
0000
0100
0000
0000
0100
1000
0000
0000
1000
0001
0000
0000
0001
0100
0000
0000
0000
0010
0000
1000
0000
0100
0000
0010
0000
0110
0000
0000
0000
,
0100
1000
0000
1000
0001
0000
0100
1000
0100
0001
1000
0000
0100
0010
0001
0100
,
0010
0000
0000
0000
0100
0000
0001
0000
1000
0000
0000
1000
0200
0000
0000
0000
0301
0000
0100
0000
1000
0000
0000
1000
0020
0000
0000
0000
0130
0000
0001
0000
,
1000
0000
0000
0000
0000
0000
0000
0000
0000
1000
0000
0000
0002
0000
0000
0000
0000
0000
0000
0000
0000
0000
0000
0000
0010
0000
0000
0000
0000
0000
0000
0000
0000
0000
0000
0000
0100
0000
0000
0000
0000
0000
0000
0000
0000
0000
0000
0000
0013
0000
0000
0000
0000
0000
0100
0000
0000
0000
0000
0000
1000
0000
0000
0000
0000
0000
0010
0000
0000
0000
0000
0000
0100
0000
0000
0000
0001
0000
0000
0000
0100
0000
0000
0000
0002
0000
0000
0000
0000
0000
0000
0000
0000
0000
0000
0000
,
1003
0100
1000
0010
0000
0010
0200
0000
0000
0301
1000
0100
1000
0000
1000
0020
0000
0000
0130
0001
1000
0100
0000
0100
,
0001
0000
0100
0000
0000
1000
0001
0000
0000
2000
0000
0000
3010
0100
0001
0100
0000
0100
0020
0000
0000
1030
0100
0010
,
0001
0000
0001
0200
0000
0000
0310
1000
0001
0010
0000
0010
1000
0000
0010
0000
0000
0001
1000
0000
0000
0020
0000
0000
,
0130
0001
1000
0100
0000
0100
0020
0000
0000
0031
0100
0010
0100
0000
0100
2000
0000
0000
3100
0010
0100
0001
0000
0001
,
1000
0000
0100
0000
0000
0010
0001
0000
0000
2000
0000
0000
3010
0100
0001
1000
0000
1000
0200
0000
0000
0310
0001
1000
,
0001
0100
0020
0000
0000
0000
0000
0000
0031
0010
1000
0100
0010
0001
2000
0000
,
0010
0000
3002
0010
0000
0203
1000
0010
,
0302
0010
0000
2003
0100
0000
3200
0010
,
0000
0320
0001
0001
0032
0100
0000
0203
,
1000
0000
0302
0010
0000
2003
0010
0001
,
3200
0000
0001
0000
0000
0000
0310
0001
1000
0000
0010
0000
1000
0001
0010
0000
,
0100
0000
0000
0000
0000
0000
0000
0000
0000
0000
0000
0000
1100
0000
0000
0000
0000
0000
0101
0000
0000
0000
0000
0000
0011
0000
0000
0000
0000
0000
1010
0000
0000
0000
0000
0000
1000
0000
0000
0000
0100
0000
0000
0000
0010
0000
0000
0000
0001
0000
0000
0000
0100
0000
0000
0000
0010
0000
0000
0000
1000
0000
0000
0000
0000
0000
0001
0000
0000
0100
0000
0000
0001
0000
0000
0100
0000
0000
0002
0000
0000
0000
0000
0000
0000
0000
0000
0000
0000
0000
1003
0000
0000
0100
0000
0000
,
0010
0000
0100
1000
0001
0100
0010
0100
1000
0100
0010
1000
0001
0000
0010
0100
,
1000
0000
0100
0010
0002
0000
0000
0000
0100
0000
0203
0000
0000
0000
0010
0000
0320
0000
0000
0000
0130
0000
0001
0000
1000
0000
0100
0000
0010
0000
0000
0000
,
0100
0000
1000
0000
0010
0000
0001
0000
0010
0000
0100
0000
0001
0000
0010
0000
0100
0000
0010
0000
0001
0000
1000
0010
1000
0010
2000
0000
0000
0000
3001
0010
,
0100
0000
0010
0001
1000
0010
0100
0010
0001
0010
0100
0001
1000
0000
0100
0010
,
0001
0000
1000
0010
2000
0000
0000
0000
3100
0000
0010
0000
0001
0000
0100
0010
0200
0000
0000
0000
1300
0000
0100
0000
0001
0000
1000
0100
0020
0000
0000
0000
,
0130
0000
1000
0000
0001
0000
1000
0000
0010
0100
0001
0000
0010
0000
0020
0000
0000
0000
0130
0000
0010
0000
0001
1000
0010
1000
0020
0000
0000
0000
0130
0001
,
1000
0000
0100
0001
0100
0010
1000
0010
0100
1000
0001
0100
0010
0000
1000
0010
,
0001
0000
0010
0100
0020
0000
0000
0000
1000
0000
2030
0000
0000
0000
3001
0000
0002
0000
0000
0000
0013
0000
0100
0000
1000
0000
0001
0000
0100
0000
0000
0000
,
1000
0000
0100
0000
0010
0000
1000
0000
0001
0000
0010
0000
0001
0000
1000
0000
0100
0000
0010
0000
0100
0000
1000
0001
0100
0001
0200
0000
0000
0000
0310
1000
,
0001
0000
0010
1000
0010
0100
0001
0100
0010
0001
1000
0010
0100
0000
0010
1000
,
0100
0000
0010
0001
0020
0000
0000
0000
0130
0000
1000
0000
0001
0000
0100
1000
0200
0000
0000
0000
0310
0000
1000
0000
0100
0000
0001
0100
0020
0000
0000
0000
,
0130
1000
0010
0100
0010
1000
0002
0010
0000
0013
0100
0000
1000
0001
0000
0001
,
0200
0000
0000
0000
1300
0100
0010
0000
1000
0000
0001
0000
0021
0000
0000
0000
,
0130
0000
1000
0000
0001
0000
0000
0001
0100
0000
0000
0100
0010
0000
0000
0010
2000
0000
0000
0000
0000
0000
0000
0000
3100
0000
0000
0000
0010
0000
0000
0010
,
0001
0000
0000
0001
1000
0000
0000
1000
0010
0000
0000
0000
0001
0000
0010
0000
1000
0000
0001
0000
0010
0000
0000
0000
0001
0000
1000
0000
0000
0000
1000
0000
,
0010
0000
0100
0001
1000
0100
0001
0000
0100
1000
0001
0100
1000
0000
0001
0010
,
1000
0000
0000
1000
0002
0000
0000
0000
0013
0000
0100
0000
1000
0000
0000
1000
0020
0000
0000
0000
0031
0000
0010
0000
1000
0000
0000
1000
0001
0000
0000
0000
,
0010
0011
0000
0100
1100
0000
0001
0010
0100
1000
0002
0000
0000
0000
0103
0000
,
0020
0000
0000
2030
0000
3100
0020
0000
,
0000
0032
0000
0103
2000
0000
0000
3200
,
0000
0000
0310
1000
0001
0000
1000
0100
0010
0001
0201
0000
0000
0000
0310
0000
,
2001
0000
0000
0000
0000
0000
0000
0000
0000
0000
0000
0000
3100
0000
0000
0000
0000
0000
0021
0000
0000
0000
0000
0000
0000
0000
0000
0000
0000
0000
0130
0000
0000
1000
0000
0000
0001
0000
0000
0000
0000
0000
0100
0000
0010
0000
1000
0000
,
0001
0000
0010
0000
0100
0000
2000
0000
0000
0000
0000
0000
0000
0000
0000
0000
0000
0000
3001
0000
0000
0100
0000
0000
0010
0000
0000
0000
0000
0000
0100
0000
0001
0000
1000
0000
0100
0000
0010
0000
0100
0000
2000
0000
0000
0000
0000
0000
,
3200
0000
0302
0000
0013
1010
0011
0000
1002
0000
0000
0000
0103
0000
1000
0000
,
0001
0000
0010
0000
0200
0000
0000
0000
0301
1000
0100
0000
0010
0000
1000
0000
,
0120
0000
0000
0001
0000
0000
1000
0000
,
0000
0001
0000
0000
0130
0000
0000
0000
;
