#VERSION:0.83;
#TITLE:Time again;
#SUBTITLE:;
#ARTIST:猫叉Master;
#TITLETRANSLIT:;
#SUBTITLETRANSLIT:;
#ARTISTTRANSLIT:Nekomata Master;
#GENRE:;
#ORIGIN:;
#CREDIT:;
#BANNER:[Prime Time] - Time again.png;
#BACKGROUND:[Prime Time] - Time again-bg.png;
#PREVIEWVID:;
#JACKET:;
#CDIMAGE:;
#DISCIMAGE:;
#LYRICSPATH:;
#CDTITLE:;
#MUSIC:[Prime Time] - Time again.ogg;
#OFFSET:-0.001000;
#SAMPLESTART:89.052170;
#SAMPLELENGTH:19.793816;
#SELECTABLE:YES;
#BPMS:0.000=97.000;
#STOPS:;
#DELAYS:;
#WARPS:;
#TIMESIGNATURES:0.000=4=4;
#TICKCOUNTS:0.000=4;
#COMBOS:0.000=1;
#SPEEDS:0.000=1.000=0.000=0;
#SCROLLS:0.000=1.000;
#FAKES:;
#LABELS:0.000=Song Start;
#BGCHANGES:;
#KEYSOUNDS:;
#ATTACKS:
;

//---------------dance-single - ----------------
#NOTEDATA:;
#CHARTNAME:;
#STEPSTYPE:dance-single;
#DESCRIPTION:;
#CHARTSTYLE:;
#DIFFICULTY:Hard;
#METER:6;
#RADARVALUES:0.300455,0.394348,0.049293,0.082156,0.160204,256.000000,250.000000,6.000000,10.000000,0.000000,0.000000,0.000000,0.000000,0.000000,0.300455,0.394348,0.049293,0.082156,0.160204,256.000000,250.000000,6.000000,10.000000,0.000000,0.000000,0.000000,0.000000,0.000000;
#CREDIT:;
#NOTES:
0000
0000
0000
0000
,
0000
0000
0000
0000
,
0000
0000
0000
0000
,
0000
0000
0000
0000
,
0001
0010
0001
1000
,
0010
0000
1000
0000
0001
0010
0100
1000
,
0001
0100
0010
1000
,
0100
2000
3002
0203
,
0310
1000
0001
0010
,
0001
1000
0200
0320
,
0230
0310
0001
0100
,
0010
0100
0001
1000
0100
0000
0010
0000
,
1001
0000
0000
0000
0001
1000
0100
0000
0000
0010
0000
0000
,
0000
0000
0000
0100
0000
0000
0000
0000
0010
0000
0001
0000
1000
0000
0000
0000
0000
0000
0001
0000
0000
0100
0000
0000
,
0001
0010
0001
1000
0100
0001
0100
1000
,
0001
0000
0000
0000
1000
0010
0100
0000
0000
0001
0000
0000
,
1001
0000
0000
1000
0000
0000
0000
0000
0001
0000
0010
0000
0100
0000
0000
0000
0000
0000
0010
0000
0000
0000
0000
0000
,
0000
0000
0000
0100
0000
0000
0000
0000
0010
0000
0001
0000
1000
0000
0000
0000
0000
0000
0001
0000
0000
0100
0000
0000
,
0010
0000
0000
1000
0000
0000
0001
0000
0000
0010
0000
0000
1000
0000
0000
0000
0000
0000
0000
0000
0010
0000
0100
0000
,
1000
0000
0000
0000
0100
0010
0001
0000
0000
0010
0000
0000
,
0001
0000
0100
0000
0010
0000
1000
0000
0000
0001
0000
0000
0010
0000
0000
0001
0000
0000
1000
0000
0000
0100
0000
0000
,
0010
0000
0100
0000
1000
0000
0001
0000
0000
0100
0000
0000
0010
0000
0000
1000
0000
0000
0100
0000
0000
1000
0000
0000
,
0001
0000
0100
0000
0010
0000
0100
0000
0000
0001
0000
0000
0010
0000
0000
0100
0000
0000
0010
0000
0000
0001
0000
0000
,
1000
0000
0001
0000
0010
0000
0100
0000
0000
0000
0000
0000
0000
0000
0000
0000
0000
0000
0010
0000
0010
0001
0000
0000
,
0100
0000
0010
0000
1000
0000
0100
0000
0000
0010
0000
0000
0100
0000
0000
1000
0000
0000
0001
0000
0000
0100
0000
0000
,
0010
0000
0100
0000
0001
0000
0010
0000
0000
0100
0000
0000
0010
0000
0000
0001
0000
0000
1000
0000
0000
0010
0000
0000
,
0100
0000
0001
0000
1000
0000
0100
0000
0000
0010
0000
0000
0100
0000
0000
1000
0000
0000
0010
0000
0000
1000
0000
0000
,
0001
0000
1000
0000
0010
0000
0100
0000
0000
0000
0000
0000
0000
0000
0000
0010
0000
0000
0100
0000
0000
0001
0000
0000
,
1000
1000
0001
0001
,
0100
0100
0010
0010
,
1000
0010
1000
0010
,
0100
0001
1000
0001
,
0110
0001
1000
0001
,
0010
0001
1000
0100
,
0010
0100
1000
0010
,
0100
0001
1000
0002
,
0013
0000
0000
0000
0000
0100
0010
0000
0000
0000
0000
0100
0010
0000
0000
0000
0000
0100
1000
0000
0000
0000
0000
1000
,
0001
0000
0000
0100
0001
0010
1000
0010
,
0001
0000
0000
1000
0001
0100
1000
0100
,
0001
0000
0020
0230
,
1300
0000
0000
0000
0000
0001
1000
0000
0000
0000
0000
0001
1000
0000
0000
0000
0000
0001
0100
0000
0000
0000
0000
0100
,
0010
0000
0000
0100
1000
0100
0001
0010
,
0100
0000
0000
0010
0001
0010
1000
0010
,
0100
0000
0000
0010
0001
0100
0010
1000
,
0200
1000
1300
0100
,
0010
0010
0001
1000
,
0001
0001
0100
0010
,
1000
1000
1010
0101
,
1001
0000
0000
0000
;

//---------------dance-single - ----------------
#NOTEDATA:;
#CHARTNAME:;
#STEPSTYPE:dance-single;
#DESCRIPTION:;
#CHARTSTYLE:;
#DIFFICULTY:Medium;
#METER:5;
#RADARVALUES:0.230036,0.256326,0.008216,0.131449,0.123234,196.000000,195.000000,1.000000,16.000000,0.000000,0.000000,0.000000,0.000000,0.000000,0.230036,0.256326,0.008216,0.131449,0.123234,196.000000,195.000000,1.000000,16.000000,0.000000,0.000000,0.000000,0.000000,0.000000;
#CREDIT:;
#NOTES:
0000
0000
0000
0000
,
0000
0000
0000
0000
,
0000
0000
0000
0000
,
0000
0000
0000
0000
,
1000
0001
0100
0001
,
1000
0001
0010
0100
,
1000
0001
0010
0001
,
1000
0002
0103
0020
,
1030
0100
1000
0001
,
0100
0001
0010
0100
,
2000
3100
1000
0010
,
0100
0010
1000
0001
0010
0000
0001
0000
,
1001
0000
0000
0000
1000
0001
0010
0000
0000
0001
0000
0000
,
0000
0000
0000
1000
0000
0000
0000
0000
0001
0000
0010
0000
0100
0000
0000
0000
0000
0000
1000
0000
0000
0010
0000
0000
,
0100
0001
0100
0010
,
1000
0000
0000
0000
0001
1000
0010
0000
0000
0100
0000
0000
,
0001
0000
0000
1000
0000
0000
0000
0000
0001
0000
1000
0000
0100
0000
0000
0000
0000
0000
0010
0000
0000
0000
0000
0000
,
0000
0000
0000
0100
0000
0000
0000
0000
0010
0000
0001
0000
1000
0000
0000
0000
0000
0000
1000
0000
0000
0001
0000
0000
,
0010
0000
0000
0001
0000
0000
1000
0000
0000
0000
0001
1000
,
0010
0000
0000
0000
0010
0100
0001
0000
0000
0000
0000
0000
,
1000
0010
0100
0002
0000
0000
0003
0000
0000
0000
0000
0000
,
0010
0100
0010
2000
0000
0000
3000
0000
0000
0000
0000
0000
,
0100
0010
0001
0200
0000
0000
0300
0000
0000
0010
0000
0000
,
1000
0000
0100
0000
0010
0000
0002
0000
0000
0000
0000
0000
0000
0000
0000
0003
0000
0000
0001
0000
0000
1000
0000
0000
,
0010
0100
0001
2000
0000
0000
3000
0000
0000
0000
0000
0000
,
0010
0100
0001
2000
0000
0000
3000
0000
0000
0000
0000
0000
,
0100
1000
0001
0020
0000
0000
0030
0000
0000
0000
0000
0000
,
0001
0000
0100
0000
1000
0000
0100
0000
0000
0000
0000
0000
0000
0000
0000
0010
0000
0000
1000
0000
0000
0001
0000
0000
,
0100
0100
0010
0010
,
1000
1000
0001
0001
,
1000
0001
1000
0001
,
0100
0010
0100
0010
,
1000
0010
0100
0001
,
0020
0031
0100
0010
,
2000
3001
0010
0100
,
0010
0001
0100
0020
,
1030
0001
1000
0001
,
0010
0000
0000
0000
0001
0000
0010
0100
,
1000
0000
0000
0000
0100
0000
0010
0001
,
0100
0000
0020
2030
,
3001
0010
0001
1000
,
0100
0000
0000
0000
1000
0000
0010
0100
,
0001
0000
0000
0000
1000
0000
0001
0010
,
0100
0000
0000
0010
0100
1000
0010
0100
,
0002
0103
0010
1000
,
0100
1000
0001
0010
,
0001
1000
0010
1000
,
0100
1000
0001
1000
,
0100
0000
0000
0000
;

//---------------dance-single - ----------------
#NOTEDATA:;
#CHARTNAME:;
#STEPSTYPE:dance-single;
#DESCRIPTION:;
#CHARTSTYLE:;
#DIFFICULTY:Easy;
#METER:2;
#RADARVALUES:0.131449,0.157739,0.032862,0.057509,0.000000,112.000000,108.000000,4.000000,7.000000,0.000000,0.000000,0.000000,0.000000,0.000000,0.131449,0.157739,0.032862,0.057509,0.000000,112.000000,108.000000,4.000000,7.000000,0.000000,0.000000,0.000000,0.000000,0.000000;
#CREDIT:;
#NOTES:
0000
0000
0000
0000
,
0000
0000
0000
0000
,
0000
0000
0000
0000
,
0000
0000
0000
0000
,
1000
0000
1000
0000
,
0001
0000
0001
1000
,
0001
0000
0001
0000
,
0100
0010
1000
0001
,
0100
0000
0010
0000
,
1000
0000
0001
1000
,
0001
0000
0010
0000
,
0001
0010
0100
1000
,
1001
0000
1000
0000
,
0001
0000
0100
0000
,
0010
0100
0001
1000
,
0100
0000
1000
0000
,
1001
0000
0001
0000
,
0100
0000
0010
0000
,
0100
0001
0010
0000
,
0001
0000
1000
0000
,
0020
0030
1000
0001
,
0200
0300
0001
1000
,
0020
0030
1000
0001
,
0200
0300
0000
0001
,
0100
0020
0030
0000
,
1000
0200
0300
0000
,
0010
0002
0003
0000
,
1001
0110
0000
0000
,
0010
0000
0000
0000
,
1000
0000
0000
0000
,
0001
0000
0000
0000
,
0100
0000
0000
0000
,
0001
0000
1000
0000
,
0010
0000
1000
0000
,
0100
0000
1000
0000
,
0001
0000
0100
0000
,
0010
0010
0100
0100
,
0001
0000
1000
0100
,
1000
0000
0001
0100
,
0001
0000
0010
0001
,
1000
0001
0100
0001
,
0010
0000
0100
0010
,
0001
0000
1000
0100
,
0010
0000
0100
1000
,
0001
0000
1000
0000
,
0010
0000
0100
0000
,
0001
0000
1000
0000
,
0010
0000
0100
0010
,
0100
0000
0000
0000
;

//---------------dance-single - ----------------
#NOTEDATA:;
#CHARTNAME:;
#STEPSTYPE:dance-single;
#DESCRIPTION:;
#CHARTSTYLE:;
#DIFFICULTY:Beginner;
#METER:1;
#RADARVALUES:0.064551,0.098587,0.032862,0.000000,0.000000,55.000000,51.000000,4.000000,0.000000,0.000000,0.000000,0.000000,0.000000,0.000000,0.064551,0.098587,0.032862,0.000000,0.000000,55.000000,51.000000,4.000000,0.000000,0.000000,0.000000,0.000000,0.000000,0.000000;
#CREDIT:;
#NOTES:
// measure 0
0000
0000
0000
0000
,  // measure 1
0000
0000
0000
0000
,  // measure 2
0000
0000
0000
0000
,  // measure 3
0000
0000
0000
0000
,  // measure 4
0010
0000
0000
0000
,  // measure 5
0100
0000
0000
0000
,  // measure 6
0001
0000
0000
0000
,  // measure 7
1000
0000
0001
0000
,  // measure 8
0100
0000
0000
0000
,  // measure 9
0010
0000
0000
0000
,  // measure 10
1000
0000
0000
0000
,  // measure 11
0001
0000
0000
0000
,  // measure 12
1001
0000
0000
0000
,  // measure 13
1000
0000
0000
0000
,  // measure 14
0010
0000
0000
0000
,  // measure 15
0100
0000
0000
0000
,  // measure 16
1001
0000
0000
0000
,  // measure 17
0001
0000
0000
0000
,  // measure 18
0010
0000
0000
0000
,  // measure 19
0001
0000
0001
0000
,  // measure 20
1000
0000
0000
0000
,  // measure 21
0010
0000
0000
0000
,  // measure 22
0100
0000
0000
0000
,  // measure 23
0001
0000
0000
1000
,  // measure 24
0001
0000
0000
0000
,  // measure 25
0100
0000
0000
0000
,  // measure 26
0010
0000
0000
0000
,  // measure 27
1001
0000
0000
0000
,  // measure 28
1000
0000
0000
0000
,  // measure 29
0001
0000
0000
0000
,  // measure 30
0100
0000
0000
0000
,  // measure 31
0100
0000
0000
0000
,  // measure 32
0010
0000
0000
0000
,  // measure 33
1000
0000
0000
0000
,  // measure 34
0100
0000
0000
0000
,  // measure 35
1000
0000
0000
0000
,  // measure 36
0001
0000
0001
0000
,  // measure 37
0001
0000
0000
0000
,  // measure 38
0100
0000
0000
0000
,  // measure 39
0100
0000
0000
0000
,  // measure 40
1000
0000
1000
0000
,  // measure 41
1000
0000
0000
0000
,  // measure 42
0010
0000
0000
0000
,  // measure 43
0010
0000
0000
0000
,  // measure 44
0100
0000
0000
0000
,  // measure 45
0001
0000
0000
0000
,  // measure 46
1000
0000
0000
0000
,  // measure 47
0010
0000
0100
0000
,  // measure 48
1001
0000
0000
0000
;
