#TITLE:NOT YOUR ORDINARY;
#SUBTITLE:;
#ARTIST:STELLA MWANGI;
#TITLETRANSLIT:;
#SUBTITLETRANSLIT:;
#ARTISTTRANSLIT:;
#CREDIT:SupremeX;
#BANNER:Not Your Ordinary-bn.png;
#BACKGROUND:Not Your Ordinary-bg.png;
#LYRICSPATH:;
#CDTITLE:cdtitle.png;
#MUSIC:NOT YOUR ORDINARY.ogg;
#OFFSET:-0.160;
#SAMPLESTART:45.020;
#SAMPLELENGTH:12.000;
#SELECTABLE:YES;
#BPMS:0.000=107.000;
#STOPS:;
#BGCHANGES:;

//---------------dance-single - ----------------
#NOTES:
     dance-single:
     :
     Hard:
     8:
     0.331,0.318,0.128,0.032,0.205:
0000
0000
0000
0000
,
0000
0000
0000
0000
,
1000
0000
0010
1000
0001
0000
0100
0000
0010
0000
0010
0000
0100
0000
0100
0000
,
0001
0000
0100
0010
1000
0000
1000
0000
0100
0000
0100
0000
1000
0000
1000
0000
,
0001
0000
0100
0001
0100
0000
0001
0000
1000
0000
0100
1000
0100
1000
0000
0000
,
0001
0000
0100
0000
0001
0000
1000
0000
0010
0000
0100
0010
0100
0000
0000
0000
,
0001
0000
0010
0000
0100
0000
1000
0000
0100
0000
1000
0100
1000
0000
0000
0000
,
0001
0000
0100
0000
0010
0000
1000
0000
0010
0000
0100
0010
0100
0000
0000
0000
,
0001
0000
0100
0000
0010
0000
1000
0000
0100
1000
0100
1000
0100
0000
0000
0000
,
0010
0001
0010
0002
0003
1000
1000
0000
,
0010
0000
0100
0000
0001
0000
1000
0000
0010
0000
0100
0000
0100
0000
0000
0010
,
0100
0010
0100
0000
0001
0000
1000
0000
0000
0000
0010
0000
0010
0000
0000
0000
,
0100
0000
0001
0100
0001
0000
0100
0000
0010
0000
1000
0000
1001
0000
0000
0000
,
0001
0010
0100
2000
0000
3100
0100
0000
,
1000
0100
0010
0001
0000
0011
0011
1000
,
1000
0000
0100
1000
0100
0010
0001
0010
0000
0000
0110
0000
0110
0000
0000
0000
,
2000
0000
0100
0000
3100
0000
1000
1000
,
0000
0000
0000
0001
0100
0000
0001
0000
0000
0100
0000
0100
0000
0000
0000
0000
,
0020
0000
1000
0000
1030
0000
0010
0010
,
0000
0000
0000
1000
0100
0000
1000
0000
0000
0001
0000
0001
0000
0000
0000
0000
,
1000
0000
0000
0010
0100
0000
0010
0000
0010
0000
0000
1000
0100
0000
1000
0000
,
1000
0000
0000
0001
0010
0000
0001
0000
0100
0000
0100
0000
0001
0000
1000
0000
,
1000
0000
0000
0001
0100
0000
0001
0000
0001
0000
0000
1000
0010
0000
0100
0000
,
0100
0000
0000
0010
1000
0000
0100
0000
0010
0000
0010
0000
0001
0000
1000
0000
,
1000
0000
0000
0010
1000
0000
0010
0000
1010
0000
0000
0100
0001
0000
0100
0000
,
0101
0000
0000
1000
0100
0000
1000
0000
0100
0010
0100
0000
0001
0000
0100
0000
,
0101
0000
0000
0010
1000
0000
0010
0000
1010
0000
0000
0100
0001
0000
0100
0000
,
0101
0000
0000
0010
1000
0000
0010
0000
0100
0010
0100
0000
0010
0000
0100
0000
,
0110
0000
0001
0100
0010
0000
0010
0000
1000
0000
1000
0000
0001
0000
0001
0000
,
1000
0000
0100
1000
0100
0000
0100
0000
0010
0000
0010
0001
0010
0000
0100
0000
,
1000
0000
0000
0100
1000
0000
0100
0000
0010
0000
0000
0001
0010
0000
0001
0000
,
0010
0000
0000
0100
1000
0000
0100
0000
0010
0000
0100
0010
0100
0000
0001
0000
,
1001
0000
0000
0010
0100
0000
0010
0000
0010
0000
0000
1000
0100
0000
1000
0000
,
1000
0000
0000
0001
0100
0000
0001
0000
0001
0000
1000
0010
1000
0000
0010
0000
,
0110
0000
0000
0100
0001
0000
0100
0000
0101
0000
0000
0010
1000
0000
0010
0000
,
1010
0000
0000
0100
0001
0000
1000
0000
0010
0000
0100
0001
1000
0000
0001
0000
,
0110
0000
0000
0000
;

//---------------dance-single - ----------------
#NOTES:
     dance-single:
     :
     Medium:
     6:
     0.206,0.188,0.016,0.016,0.000:
0000
0000
0000
0000
,
0000
0000
0000
0000
,
1000
0000
0010
0000
0100
0100
0001
0001
,
1000
0000
0010
0000
0100
0100
0010
0010
,
1000
0000
0001
0000
1000
0010
1000
0000
,
0001
0000
0100
0000
0010
1000
0010
0000
,
0100
0000
0001
0000
1000
0010
0100
0000
,
0001
1000
0010
0110
,
0001
0000
0001
0000
1000
0010
0100
0000
,
0001
1000
0010
0100
,
0001
1000
0010
0000
0100
0000
0001
0000
,
1000
0010
0100
0000
0001
0000
1000
0000
,
0010
0000
0100
0000
0001
1000
0001
0000
,
1000
0000
0010
0000
0100
0001
0100
0000
,
0010
0000
1000
0000
0010
0100
0100
0000
,
0001
1000
0010
0100
0000
0001
0001
0000
,
2000
0000
0000
0000
3000
0000
0010
0010
,
0000
0100
0001
0100
,
0020
0000
0000
0000
0030
0000
0100
0100
,
0000
0001
0000
1000
,
0010
0000
0100
0001
0100
0000
0010
1000
,
0010
0000
0100
0001
1000
0000
0010
0000
,
0110
0000
0001
0100
0001
0000
1000
0010
,
1000
0000
0001
0000
0100
0000
0010
1000
,
0010
0000
0100
0100
0100
0000
0001
0001
,
0001
0000
1000
0000
0010
1000
0010
1000
,
0010
0000
0100
0100
0100
0000
0010
0010
,
0010
0000
0100
0000
0001
0100
0001
0100
,
0001
0000
1000
0000
0010
0010
0010
0010
,
0000
0000
1000
0000
0001
0100
0100
0100
,
0010
0000
1000
0000
0001
0001
0001
0001
,
0100
0000
0010
0000
1000
0010
1000
0001
,
0100
0000
0010
1000
0010
0000
0100
0001
,
0100
0000
0010
0000
1000
1000
0001
0100
,
0010
0000
1000
1000
0001
0000
0100
0100
,
0010
0000
1000
0000
0001
1000
0010
0100
,
0001
0000
0000
0000
;

//---------------dance-single - ----------------
#NOTES:
     dance-single:
     :
     Easy:
     3:
     0.159,0.188,0.088,0.016,0.000:
0000
0000
0000
0000
,
0000
0000
0000
0000
,
1000
1000
0010
0100
,
0001
0001
0100
0010
,
1000
1000
1000
1000
,
0010
0010
0010
0010
,
0100
0100
0100
0100
,
0001
0001
0001
0001
,
1000
0010
1000
0010
,
0100
0001
0100
0001
,
1000
0010
1000
0010
,
0100
0001
0100
0001
,
1000
1000
1000
1000
,
0010
0010
0010
0010
,
0100
0100
0100
0100
,
0001
0001
0001
0001
,
0200
0000
0000
0300
,
0000
0000
0000
0110
,
0020
0000
0000
0030
,
0000
1000
0000
1000
,
1001
0010
0010
0100
,
0100
0001
1000
0001
,
1000
0010
0010
0100
,
0100
0001
1000
0001
,
1000
0010
0010
0100
,
0100
0010
1000
0001
,
1000
0010
0010
0100
,
0100
0010
1000
0001
,
1000
0001
0100
0100
,
0010
1000
0001
1000
,
0010
0100
0101
0010
,
1010
0001
1000
0010
,
0100
0001
0101
1000
,
1010
0001
0101
0010
,
1010
0100
0100
0001
,
0001
0100
1010
0101
,
1001
0000
0000
0000
;

//---------------dance-single - Copied from ----------------
#NOTES:
     dance-single:
     Copied from:
     Beginner:
     2:
     0.058,0.072,0.000,0.000,0.000: // measure 1
0000
0000
0000
0000
,  // measure 2
0000
0000
0000
0000
,  // measure 3
0010
0000
0000
0000
,  // measure 4
0000
0000
0000
0000
,  // measure 5
0100
0000
0000
0000
,  // measure 6
0001
0000
0000
0000
,  // measure 7
0100
0000
0000
0000
,  // measure 8
0001
0000
0000
0000
,  // measure 9
1000
0000
0000
0000
,  // measure 10
0010
0000
0000
0000
,  // measure 11
1000
0000
0000
0000
,  // measure 12
0010
0000
0000
0000
,  // measure 13
0100
0000
0000
0000
,  // measure 14
0001
0000
0000
0000
,  // measure 15
0100
0000
0000
0000
,  // measure 16
0001
0000
0000
0000
,  // measure 17
1000
0000
0000
0010
,  // measure 18
0000
0000
0000
0000
,  // measure 19
0100
0000
0000
0000
0000
0000
0000
0001
,  // measure 20
0000
0000
0000
0100
,  // measure 21
0010
0000
0010
0000
,  // measure 22
0010
0000
0010
0000
,  // measure 23
1000
0000
1000
0000
,  // measure 24
1000
0000
0001
0000
,  // measure 25
0001
0000
0100
0000
,  // measure 26
0100
0000
0100
0000
,  // measure 27
0100
0000
0010
0000
,  // measure 28
0010
0000
0010
0000
,  // measure 29
1000
0000
0001
0000
,  // measure 30
1000
0000
0001
0000
,  // measure 31
1000
0000
0001
0000
,  // measure 32
1000
0000
0001
0000
,  // measure 33
0100
0000
0010
0000
,  // measure 34
0100
0000
0010
0000
,  // measure 35
0100
0000
0010
0000
,  // measure 36
0100
0000
0001
0000
,  // measure 37
0001
0000
0000
0000
;
