#TITLE:Medicine of love;
#SUBTITLE:;
#ARTIST:イロハ&リリナ;
#TITLETRANSLIT:;
#SUBTITLETRANSLIT:;
#ARTISTTRANSLIT:;
#GENRE:MAGICAL POP;
#CREDIT:Graphics made by TonyAkita;
#MUSIC:[Prime Time] - Medicine of love.ogg;
#BANNER:[Prime Time] - Medicine of love.png;
#BACKGROUND:[Prime Time] - Medicine of love-bg.png;
#CDTITLE:;
#SAMPLESTART:47.156;
#SAMPLELENGTH:15.000;
#SELECTABLE:YES;
#OFFSET:-0.379;
#BPMS:0.000=173.000;
#STOPS:200.000=0.694;
#DISPLAYBPM:173.000;
#JACKET:[Prime Time] - Medicine of love-jacket.png;
#BGCHANGES:;
#FGCHANGES:;

//--------------- dance-single - forcednature ----------------
#NOTES:
     dance-single:
     forcednature:
     Beginner:
     1:
     0,0,0,0,0:
0000
0000
0000
0000
,
0000
0000
0000
0000
,
0000
0000
0000
0000
,
0000
0000
0000
0000
,
0000
0000
0000
0000
,
0000
0000
0000
0000
,
1000
0000
0000
0000
,
0001
0000
0000
0000
,
0100
0000
0000
0000
,
1001
0000
0000
0000
,
0010
0000
0010
0000
,
0010
0000
0000
0000
,
0100
0000
0100
0000
,
0100
0000
0000
0000
,
0001
0000
1000
0000
,
0100
0000
0000
0000
,
1000
0000
0001
0000
,
0100
0000
0000
0000
,
0001
0000
0100
0000
,
0001
0000
0000
0000
,
1000
0000
0100
0000
,
1000
0000
0000
0000
,
0001
0000
0010
0000
,
1000
0000
0000
0000
,
0100
0000
0010
0000
,
0010
0000
0000
0000
,
1000
0000
0000
0000
,
0001
0000
0000
0000
,
0100
0000
0000
0000
,
0010
0000
0000
0000
,
0100
0000
0100
0000
,
0001
0000
0001
0000
,
0100
0000
0100
0000
,
0010
0010
0010
0000
,
1000
0000
0001
0000
,
0100
0000
0000
0000
,
0001
0000
1000
0000
,
0100
0000
0000
0000
,
0010
0000
0001
0000
,
0010
0000
1000
0000
,
0010
0000
0001
0000
,
0010
0000
0000
0000
,
0001
0000
0100
0000
,
1000
0000
0000
0000
,
1000
0000
0100
0000
,
0001
0000
0000
0000
,
1000
0000
0100
0000
,
1000
0000
0001
0000
,
0100
0000
0010
0000
,
0100
0000
0000
0000
,
0020
0030
0100
0000
,
0001
0000
1000
0000
,
0000
0000
0100
0000
,
1000
0000
0010
0000
,
0000
0000
0100
0000
,
0001
0000
0010
0000
,
0000
0000
0100
0000
,
1000
0000
0001
0000
,
1000
0000
0010
0000
,
0100
0000
0001
0000
,
0000
0000
1000
0000
,
0001
0000
0010
0000
,
0000
0000
0100
0000
,
0000
0000
1000
0000
,
0100
0000
1000
0000
,
0000
0000
0100
0100
,
0100
0000
2002
0000
,
0000
0000
0000
0000
,
0000
0000
0000
0000
,
0000
3003
0000
0000
;

//--------------- dance-single - forcednature ----------------
#NOTES:
     dance-single:
     forcednature:
     Easy:
     2:
     0,0,0,0,0:
0000
0000
0000
0000
,
0000
0000
0000
0000
,
0000
0000
0000
0000
,
0000
0000
0000
0000
,
0000
0000
0000
0000
,
0000
0000
0000
0000
,
1000
0100
1000
0010
,
1000
0100
1000
0000
,
0001
0100
0001
0010
,
0001
0100
0001
0000
,
1001
0000
1000
0000
,
0010
0000
0100
0000
,
1001
0000
0001
0000
,
0010
0000
0100
0000
,
0110
0000
1000
0000
,
0001
0000
0100
0000
,
0110
0000
0001
0000
,
1000
0000
0100
0000
,
0001
0100
0001
0000
,
1000
0000
0100
0000
,
1000
0010
1000
0000
,
0001
0000
0010
0000
,
0001
0010
0100
0000
,
1000
0000
0010
0000
,
0100
0001
1000
0000
,
0110
0000
1001
0000
,
2000
0000
0010
0000
,
3100
0000
0000
0000
,
0002
0000
0010
0000
,
0103
0000
0000
0000
,
1000
0100
0001
0100
,
1000
0100
0001
0000
,
0010
0010
0010
0000
,
1001
1001
1001
0000
,
0001
0100
0010
1000
,
0001
0100
0010
0000
,
1000
0100
0010
0001
,
1000
0100
0010
0000
,
0001
0010
1000
0010
,
0001
0010
1000
0000
,
0001
1000
0001
1000
,
0010
0100
0010
0000
,
1000
0100
0001
0100
,
1000
0100
0001
0000
,
1000
0010
0001
0010
,
1000
0010
0001
0000
,
1000
0010
1000
0100
,
1000
0010
1000
0000
,
0001
0010
0001
0100
,
0001
0010
0001
0000
,
0200
0000
0310
0100
,
0001
0000
1000
0000
,
0001
0000
1000
0100
,
0010
0000
0001
0000
,
1000
0000
0010
0100
,
0001
0000
0100
0000
,
0001
0000
1000
0100
,
0010
0000
0001
1000
,
0100
0000
1000
0001
,
0100
0000
0010
0000
,
1000
0000
0001
1000
,
0010
0000
0100
0000
,
0001
0000
1000
0100
,
0010
0000
0001
0000
,
1000
0000
0001
0100
,
0010
0000
0010
0010
,
0010
0000
2002
0000
,
0000
0000
0000
0000
,
0000
0000
0000
0000
,
0000
3003
0000
0000
;

//--------------- dance-single - forcednature ----------------
#NOTES:
     dance-single:
     forcednature:
     Medium:
     4:
     0,0,0,0,0:
0000
0000
0000
0000
,
0000
0000
0000
0000
,
0000
0000
0000
0000
,
0000
0000
0000
0000
,
0000
0000
0000
0000
,
0000
0000
0000
0000
,
1000
0001
0100
0001
,
1000
0100
1000
0000
,
0001
1000
0010
0100
,
0001
1000
0000
0110
0000
1001
0000
0000
,
1000
0000
0010
0000
1000
0100
0000
0010
,
0000
0001
0000
0100
0000
0001
1000
0000
,
0000
0010
1000
0000
0001
0010
0000
0100
,
0000
1000
0000
0001
0000
0100
0001
0000
,
0000
1000
0100
1000
,
0001
0000
0100
0010
0000
0000
0000
1000
,
0100
0000
0010
0000
0001
0100
0001
0000
,
1001
0010
0110
0000
,
1000
0000
0001
0000
0100
0001
0000
1000
,
0000
0100
0000
0010
0000
0001
1000
0000
,
0000
0010
1000
0000
0001
0010
0000
0100
,
0000
1000
0000
0001
0000
1000
0100
0000
,
0000
0000
0010
0000
0001
0100
0001
0000
,
0000
0000
1000
0000
0010
1000
0010
0000
,
0200
0000
0300
0000
0020
0000
0030
1001
,
0000
0000
1000
0001
,
1000
0000
0000
1000
0001
0000
0000
0000
,
0001
0000
0000
0001
0100
0000
0000
0000
,
1000
0000
0000
0001
0010
0000
0000
0000
,
0001
0000
0010
0000
0100
1000
0100
0000
,
1001
0001
0100
0000
,
1001
1000
0100
0000
,
1000
0001
1000
0001
,
0100
0010
0100
0010
0100
0000
0000
0000
,
0001
0000
1000
0000
0010
1000
0010
0000
,
1000
0100
0010
0000
,
0001
0000
1000
0000
0100
1000
0100
0000
,
0010
0001
0100
0000
,
0001
1000
0010
1000
,
0100
0010
0001
0000
,
0001
0100
0001
1000
,
0110
0010
0010
0000
,
1000
0000
0001
0000
0100
0001
0100
0000
,
0010
1000
0100
0000
,
0010
0000
0001
0000
1000
0100
1000
0000
,
0001
0100
0010
0000
,
1000
0001
0100
0001
,
1000
0100
1000
0000
,
0001
0010
0001
1000
,
0010
0010
0010
0100
,
2002
3003
2000
0000
,
3002
0000
0103
0001
,
1000
0010
0200
0000
,
0302
0000
1003
0100
,
0010
0001
2000
0000
,
3020
0000
1030
0100
,
0010
0100
2000
0000
,
3002
0000
0013
0001
,
1000
0001
0200
0000
,
0302
0000
1003
0010
,
0100
0001
2000
0000
,
3200
0000
1300
0001
,
0010
0100
2000
0000
,
0000
3001
0100
0001
,
0100
0000
0020
0000
,
0000
0000
1030
0000
0100
0010
0000
1001
,
0000
0110
0000
0000
2002
0000
0000
0000
,
0000
0000
0000
0000
,
0000
0000
0000
0000
,
0000
3003
0000
0000
;

//--------------- dance-single - forcednature ----------------
#NOTES:
     dance-single:
     forcednature:
     Hard:
     7:
     0,0,0,0,0:
0000
0000
0000
0000
,
0000
0000
0000
0000
,
0000
0000
0000
0000
,
0000
0000
0000
0000
,
0000
0000
0000
0000
,
0000
0000
0000
0000
,
1001
0001
0010
1000
,
0010
0000
0100
1000
0100
0000
0010
0000
,
0002
0000
0000
0000
0100
0000
0000
0000
1000
0000
0000
0000
0013
0000
0001
0100
,
0001
1000
0000
0110
0000
1000
0001
0000
,
0110
0000
1000
0000
0001
0100
0000
1000
,
0000
0100
0000
0001
0000
0010
0100
0000
,
1000
0100
0010
1000
0010
0001
0000
1000
,
0000
0000
0001
0000
0000
0000
0100
0000
0000
0000
0010
0000
1000
0001
1000
0001
,
0010
0100
1000
0001
,
1001
0000
0001
0100
0000
1000
0100
0000
,
0110
0000
1000
0000
0110
0001
0001
0000
,
0011
1010
0101
1100
,
1001
0000
0001
0000
1000
0100
0000
0010
,
0000
1000
0000
0010
0000
0001
1000
0000
,
0001
0100
1000
0100
0010
1000
0000
0100
,
0000
0000
0010
0000
0000
0000
0001
0000
0000
0000
0100
0000
0010
1000
0010
1000
,
0001
0000
0010
0000
0001
0100
1000
0000
,
0110
0000
1000
0000
0100
0001
0100
0000
,
1001
0000
0010
0000
1001
0000
0100
0010
,
0100
0000
0001
0000
0100
0000
1000
0000
0100
0010
0100
0000
0010
0000
0000
0000
,
1001
0000
0000
1000
0100
0000
0000
0100
,
0001
0000
0000
0001
0100
0000
1000
0000
,
0001
0000
0000
0001
0100
0000
1000
0100
,
0000
0001
0000
1000
0100
0010
0011
0000
,
1100
1000
0001
0100
0001
0010
0000
0110
,
0000
0100
1000
0000
0001
0000
0100
0000
,
0010
1000
0000
1001
0000
0001
0000
0020
,
0100
0100
0100
0100
0130
0000
1001
0000
,
1100
0000
0101
0000
1000
0010
0001
0000
,
0010
0000
1000
0100
0001
0000
0100
0010
,
0001
0000
1000
0000
0001
0100
1000
0000
,
0100
0000
0010
1000
0100
0000
0001
0100
,
0010
0001
1000
0010
,
1001
0000
1000
0100
0001
0000
0100
1000
,
0001
0000
0100
0000
0010
1000
0100
0000
,
0110
0000
0000
0000
1000
0000
0001
0000
1000
0000
0000
0000
0010
0000
0100
0001
,
0100
0000
1000
0000
0100
0001
1000
0000
,
0100
0000
0010
0100
1000
0000
0001
0100
,
1000
0000
0100
0000
0001
1000
0100
0000
,
1001
0000
0001
0010
0100
0000
0001
0100
,
1000
0000
0110
0000
1000
0010
0001
0000
,
0110
0000
0001
0000
1000
0100
0001
0100
,
0010
0000
1001
0000
0110
0000
0001
0100
,
1000
0000
0100
0001
1000
0000
0100
0000
,
0020
0000
0000
0030
0001
0010
1000
0010
,
0001
0100
0010
1000
0200
0000
0320
0000
,
0032
0000
0203
0000
1300
0100
0001
1000
,
0010
0001
0010
0100
0002
0000
0023
0000
,
2030
0000
3020
0000
0031
0010
0100
1000
,
0010
0100
1000
0100
0002
0000
2003
0000
,
3200
0000
0000
0000
0302
0000
0000
0003
1001
0000
0000
0000
0010
0000
0000
0000
,
1001
0100
1010
0011
,
0101
0000
1100
0000
0001
0100
1000
0001
,
0010
0100
1000
0100
0002
0000
0023
0000
,
2030
0000
3020
0000
0031
0100
0010
1000
,
0001
0100
1000
0100
0020
0000
2030
0000
,
3200
0000
0302
0000
0103
0010
0001
0100
,
1000
0000
0100
0000
0001
0000
1000
0100
2000
0000
0000
0000
0100
0000
0000
0000
,
3002
0000
0100
0000
1003
0010
0100
0001
,
0010
0000
1000
0000
0010
0000
0001
1000
0001
0000
0100
0000
0000
0000
1001
0000
,
0000
0000
0110
0000
0000
0000
1000
0001
2000
0000
0000
0000
0000
0000
0000
0000
,
0000
0000
0000
0000
,
0000
0000
0000
0000
,
0000
3000
0000
0000
;

//--------------- dance-single - forcednature ----------------
#NOTES:
     dance-single:
     forcednature:
     Challenge:
     5:
     0,0,0,0,0:
0000
0000
0000
0000
,
0000
0000
0000
0000
,
0000
0000
0000
0000
,
0000
0000
0000
0000
,
0000
0000
0000
0000
,
0000
0000
0000
0000
,
1000
0010
1000
0001
,
0010
0001
0010
0000
0100
0000
MMMM
0000
,
0001
1000
0010
1000
,
0100
0000
0010
0000
0000
0000
1001
0000
0000
0000
0110
0000
0000
MMMM
0000
0000
,
1000
0000
0001
0000
0100
0001
0000
1000
,
0000
0100
0000
0010
0000
0001
0100
0000
,
MMMM
0000
0010
0000
1000
0001
0000
1000
,
0000
0100
0000
0010
0000
0001
1000
0000
,
MMMM
0001
1000
0100
,
0010
0000
0001
1000
0010
0000
0100
0000
,
MMMM
0000
0001
0000
1000
0100
1000
0000
,
0110
0110
0110
MMMM
,
0001
0000
1000
0000
0001
0010
0000
0100
,
0000
1000
0000
0001
0000
0100
0001
0000
,
MMMM
0000
1000
0000
0010
1000
0000
0001
,
0000
1000
0000
0100
0000
0010
0001
0000
,
MMMM
0000
1000
0000
0001
0100
0001
0000
,
MMMM
0000
0001
0000
1000
0100
1000
0000
,
0110
MMMM
1001
MMMM
,
0110
1001
MMMM
1000
,
0001
0000
0000
0001
1000
0000
MMMM
0000
,
0010
0000
0000
1000
0001
0000
MMMM
0000
,
0001
0000
0000
0001
1000
0000
MMMM
0000
,
0100
0000
0001
0000
1000
0010
1000
0000
,
MMMM
0000
0100
0000
0010
0001
0010
0000
,
MMMM
0000
0100
0000
1000
0010
1000
0000
,
1001
MMMM
0110
MMMM
,
0010
0010
0010
0010
0010
0000
MMMM
0000
,
1000
0000
0100
0000
0010
0001
0010
0000
,
0001
0100
0010
MMMM
,
1000
0000
0001
0000
1000
0010
1000
0000
,
0100
0010
0001
MMMM
,
1000
0000
0100
0000
0010
0001
0010
0000
,
0001
0100
0010
MMMM
,
1000
0000
0001
0000
1000
0010
1000
0000
,
0001
0100
0010
MMMM
,
1000
0000
0100
0000
1000
0001
1000
0000
,
0001
0100
0010
MMMM
,
1000
0000
0001
0000
0010
0100
0010
0000
,
0100
1000
0001
MMMM
,
1000
0000
0100
0000
1000
0001
1000
0000
,
0001
0010
0001
MMMM
,
0100
0000
0001
0000
1000
0010
1000
0000
,
0010
0000
0100
0001
0100
0000
0010
0000
,
2002
3003
0000
0000
1010
0000
MMMM
0000
,
0011
MMMM
0100
0001
,
1000
0010
1100
MMMM
,
0101
MMMM
0010
0001
,
1000
0010
0101
MMMM
,
1010
MMMM
1000
0001
,
0100
0001
1100
MMMM
,
0011
MMMM
1000
0100
,
0010
0001
1001
MMMM
,
0110
MMMM
0100
0001
,
1000
0010
0110
MMMM
,
1001
MMMM
1000
0100
,
0010
0001
0011
MMMM
,
MMMM
0100
1000
0100
,
1000
MMMM
0101
MMMM
,
MMMM
0000
1010
0000
0010
0100
0000
1001
,
0000
1001
0000
0100
0020
0000
0000
0000
,
0000
0000
0000
0000
,
0000
0000
0000
0000
,
0000
0030
0000
0000
;

//--------------- dance-double - forcednature ----------------
#NOTES:
     dance-double:
     forcednature:
     Easy:
     2:
     0,0,0,0,0:
00000000
00000000
00000000
00000000
,
00000000
00000000
00000000
00000000
,
00000000
00000000
00000000
00000000
,
00000000
00000000
00000000
00000000
,
00000000
00000000
00000000
00000000
,
00000000
00000000
00000000
00000000
,
00010000
00001000
00000100
00000010
,
00000001
00000000
00000100
00000000
,
00000010
00010000
00001000
00100000
,
01000000
01000000
01000000
00000000
,
10000000
00000000
00010000
00000000
,
01000000
00000000
00001000
00000000
,
00010000
00000000
00001000
00000000
,
00000100
00000000
00000001
00000000
,
00001000
00000000
00000001
00000000
,
00000100
00000000
00000010
00000000
,
00010000
00000000
00001000
00000000
,
00100000
00000000
00010000
00000000
,
10000000
00000000
01000000
00000000
,
10000000
00000000
00010000
00000000
,
01000000
00000000
00001000
00000000
,
00010000
00000000
00000100
00000000
,
00000010
00000000
00000001
00000000
,
00000100
00000000
00000010
00000000
,
00010000
00000000
00001000
00000000
,
01000000
00000000
00000000
00000000
,
00020000
00000000
00100000
00000000
,
10030000
00000000
00000000
00000000
,
00002000
00000000
00000010
00000000
,
00003001
00000000
00000000
00000000
,
00000001
00000000
00000100
00000000
,
00000010
00000000
00000010
00000000
,
00010000
00000000
00001000
00000000
,
00100000
00100000
00100000
00000000
,
10000000
01000000
00100000
00010000
,
00100000
01000000
10000000
00000000
,
00010000
01000000
00100000
10000000
,
00100000
01000000
00010000
00000000
,
00001000
00000010
00000100
00000001
,
00000100
00000010
00001000
00000000
,
00001000
00000100
00000010
00000001
,
00000010
00000100
00001000
00000000
,
00000001
00000100
00000010
00001000
,
00000001
00000100
00000010
00000000
,
10000000
01000000
00100000
00010000
,
10000000
01000000
00100000
00000000
,
00001000
00010000
00001000
01000000
,
00001000
01000000
00001000
00000000
,
00010000
00001000
00010000
00000100
,
00010000
00000100
00010000
00000000
,
00002000
00000000
00013000
00000000
,
00000100
00000000
00001000
00000001
,
00000100
00000010
00001000
00000000
,
00000100
00000000
00010000
00001000
,
01000000
00010000
10000000
00000000
,
00100000
00000000
10000000
01000000
,
00100000
00010000
01000000
00000000
,
00001000
00000000
00010000
00000100
,
00001000
00000001
00000100
00000000
,
00000010
00000000
00000100
00000001
,
00001000
00000100
00010000
00000000
,
00001000
00000000
00100000
00010000
,
10000000
00100000
01000000
00000000
,
00000000
00001000
00010000
00000100
,
00001000
00000000
00000010
00000000
,
00000000
00000100
00000001
00000010
,
00000100
00000000
00022000
00000000
,
00000000
00000000
00000000
00000000
,
00000000
00000000
00000000
00000000
,
00000000
00033000
00000000
00000000
;

//--------------- dance-double - forcednature ----------------
#NOTES:
     dance-double:
     forcednature:
     Medium:
     4:
     0,0,0,0,0:
00000000
00000000
00000000
00000000
,
00000000
00000000
00000000
00000000
,
00000000
00000000
00000000
00000000
,
00000000
00000000
00000000
00000000
,
00000000
00000000
00000000
00000000
,
00000000
00000000
00000000
00000000
,
00010000
00001000
01000000
00010000
,
10000000
01000000
10000000
00000000
00010000
00000000
00000000
00000000
,
00100000
00001000
00010000
00000010
,
00000100
00000001
00000000
00001010
00000000
00000101
00000000
00000000
,
00000001
00000000
00000010
00000000
00000100
00010000
00000000
00001000
,
00000000
01000000
00000000
00010000
00000000
10000000
00100000
00000000
,
10000000
00000000
01000000
00000000
00100000
00010000
00000000
01000000
,
00000000
00001000
00000000
00010000
00000000
00000010
00001000
00000000
,
00000001
00000010
00000100
00001000
,
00010000
00000000
00100000
01000000
10000000
00000000
00010000
00000000
,
10000000
00000000
00100000
00000000
01000000
00010000
01000000
00000000
,
00011000
00000100
00000010
00000000
,
00000001
00000000
00001000
00000000
00000001
00000010
00000000
00000100
,
00000000
00010000
00000000
00001000
00000000
01000000
00010000
00000000
,
10000000
00000000
00100000
00000000
10000000
01000000
00000000
00100000
,
00000000
00010000
00000000
01000000
00000000
00001000
00010000
00000000
,
00000100
00000000
00001000
00000000
00000001
00000100
00000001
00000000
,
00001000
00000000
00000100
00000000
00010000
00001000
00010000
00000000
,
00001000
00000000
01000000
00000000
00010000
00000000
10000000
01000000
,
10000000
10010000
00010000
10000000
,
00100000
00000000
00000000
00100000
01000000
00000000
00000000
00000000
,
00010000
00000000
00000000
00010000
00001000
00000000
00000000
00000000
,
00000001
00000000
00000000
00000001
00000100
00000000
00000000
00000000
,
00000010
00000000
00001000
00000000
00000001
00000010
00000001
00000000
,
00000100
00000000
00000001
00000000
00001000
00000100
00001000
00000000
,
00000100
00000000
00010000
00000000
00001000
01000000
00001000
00000000
,
00100000
00010000
10000000
00100000
,
00010000
00001000
00010000
00001000
00010000
00000000
00000000
00000000
,
00000100
00000000
00001000
00000000
00000001
00000100
00000001
00000000
,
00001000
00000010
00010000
00001000
,
01000000
00000000
00010000
00000000
10000000
01000000
10000000
00000000
,
00100000
01000000
00001000
00010000
,
00000100
00000000
00001000
00000000
00000001
00000010
00000001
00000000
,
00001000
00000010
00010000
00001000
,
00100000
00000000
00010000
00000000
10000000
00100000
10000000
00000000
,
00010000
01000000
00001000
00010000
,
00000100
00000000
00001000
00000000
00000001
00000010
00000001
00000000
,
00001000
00000010
00010000
00001000
,
01000000
00000000
00010000
00000000
10000000
00100000
10000000
00000000
,
01000000
00100000
00010000
00001000
,
00000100
00000000
00000010
00000000
00000001
00000100
00000001
00000000
,
00001000
00000100
00010000
00001000
,
01000000
00010000
10000000
00100000
,
01000000
00000000
01000000
00010000
01000000
00000000
00001000
00000000
,
00020000
00030000
00000200
00000000
,
00002300
00000000
00003001
00000010
,
00000100
00010000
00002000
00000000
,
02003000
00000000
03010000
10000000
,
00100000
01000000
00002000
00000000
,
00023000
00000000
00030010
00001000
,
00000001
00000010
00000200
00000000
,
00020300
00000000
00031000
00100000
,
00010000
00100000
02000000
00000000
,
23000000
00000000
30010000
01000000
,
00100000
01000000
00002000
00000000
,
00023000
00000000
00030100
00001000
,
00000001
00000100
00000020
00000000
,
00000000
00010030
00001000
00100000
,
00001000
00000000
02000000
00000000
,
00000000
00000000
03010000
00000000
10000000
00010000
00000000
01100000
,
00000000
10010000
00000000
00000000
00022000
00000000
00000000
00000000
,
00000000
00000000
00000000
00000000
,
00000000
00000000
00000000
00000000
,
00000000
00033000
00000000
00000000
;

//--------------- dance-double - forcednature ----------------
#NOTES:
     dance-double:
     forcednature:
     Hard:
     7:
     0,0,0,0,0:
00000000
00000000
00000000
00000000
,
00000000
00000000
00000000
00000000
,
00000000
00000000
00000000
00000000
,
00000000
00000000
00000000
00000000
,
00000000
00000000
00000000
00000000
,
00000000
00000000
00000000
00000000
,
00011000
00001000
00100000
01000000
,
10000000
00000000
00010000
01000000
00010000
00000000
00100000
00000000
,
00002000
00000000
00000000
00000000
00000010
00000000
00000000
00000000
00010000
00000000
00000000
00000000
01003000
00000000
00001000
00010000
,
00001000
00100000
00000000
01100000
00000000
10000000
00010000
00000000
,
01100000
00000000
10000000
00000000
01000000
00010000
00000000
00001000
,
00000000
00000010
00000000
00001000
00000000
00010000
00001000
00000000
,
00000100
00001000
00010000
00100000
00010000
00001000
00000000
00100000
,
00000000
00000000
01000000
00000000
00000000
00000000
10000000
00000000
00000000
00000000
00010000
00000000
01000000
00001000
01000000
00001000
,
00100000
00010000
00001000
00000100
,
00001001
00000000
00001000
00010000
00000000
01000000
00100000
00000000
,
10010000
00000000
10000000
00000000
01010000
01000000
00001000
00000000
,
00011000
00001100
00001010
00000011
,
00000101
00000000
00000001
00000000
00000010
00001000
00000000
00010000
,
00000000
01000000
00000000
10000000
00000000
00100000
00010000
00000000
,
00100000
01000000
00010000
00100000
00001000
00000010
00000000
00000001
,
00000000
00000000
00001000
00000000
00000000
00000000
00000010
00000000
00000000
00000000
00010000
00000000
00001000
00100000
00001000
00100000
,
00010000
00000000
01000000
00000000
10000000
01000000
00010000
00000000
,
00011000
00000000
00000001
00000000
00000010
00000100
00010000
00000000
,
00110000
01000000
00001010
00000100
,
00010000
00000000
00001000
00000000
01000000
00000000
00100000
00000000
10000000
01000000
10000000
00000000
00010000
00000000
00000000
00000000
,
01010000
00000000
00000000
01000000
00001000
00000000
00000000
00001000
,
00000010
00000000
00000001
00000100
,
00001001
00000000
00000000
00000100
00010000
00000000
00000000
00100000
,
00000000
10000000
00000000
01000000
00010000
00001000
00000100
00000000
,
00001001
00000000
00000001
00000010
00001000
00010000
00000000
00011000
,
00000000
00001000
00010000
01000000
10000000
00000000
10010000
00000000
,
00001000
00010000
01000000
00010000
00001000
00000100
00002000
00000000
,
00010000
00010000
00010000
00010000
00013000
00000000
00011000
00000000
,
01001000
00000000
00110000
00000000
10000000
01000000
00010000
00000000
,
01000000
00000000
00100000
00010000
00001000
00000000
00010000
00001000
,
00000100
00000000
00000101
00000000
00000100
00001000
00000010
00000000
,
00000100
00000000
00001000
00010000
00100000
00000000
00010000
00001000
,
00000100
00011000
00110000
01100000
,
10010000
00000000
10000000
01000000
00010000
00000000
01000000
10000000
,
00010000
01010000
01001000
00011000
,
00010000
00000000
00001000
00000000
00000100
00000000
00001000
00000000
00010000
00000000
00000000
00000000
00001000
00000000
00010000
00000010
,
00010000
00000000
00001100
00000000
00000001
00000100
00001000
00000000
,
00010000
00000000
00000010
00010000
00001000
00000000
00010000
00100000
,
10000000
00000000
01010000
00000000
00010000
00100000
00001000
00000000
,
00011000
00000000
00001000
00000100
00000001
00000000
00000010
00001000
,
00010000
00000000
00011000
00000000
00001000
00010000
01000000
00000000
,
10010000
00000000
00001000
00000000
00010000
00100000
10000000
01000000
,
00200000
00000000
10000000
00000000
00010000
00300000
00100000
00010000
,
00001000
00000000
00000100
00001000
00010000
00000000
00011000
00000000
,
00000200
00000300
00000000
00000000
00010000
01000000
10000000
01000000
,
00010000
00001000
00010000
00100000
20000000
00000000
30200000
00000000
,
00320000
00000000
00032000
00000000
00003100
00001000
00010000
01000000
,
00010000
00001000
00000010
00000001
00000200
00000000
00002300
00000000
,
00023000
00000000
00230000
00000000
10300000
01000000
00010000
00001000
,
00000100
00000001
00000100
00001000
00020000
00000000
02030000
00000000
,
03200000
00000000
00302000
00000000
00013000
00000010
00000100
00001000
,
00010000
01000000
00100000
00001000
00020000
00000000
00030020
00000000
,
00000230
00000000
00000302
00000000
00000013
00001000
00010000
00100000
,
00010000
00001000
00010000
01000000
20000000
00000000
30200000
00000000
,
00320000
00000000
00032000
00000000
00003100
00000001
00000010
00000100
,
00010000
01000000
10000000
00010000
02000000
00000000
03200000
00000000
,
00302000
00000000
00003020
00000000
00000130
00000001
00000010
00001000
,
00010000
00000000
01000000
00000000
10000000
00000000
00010000
01000000
00020000
00000000
00000000
00000000
00100000
00000000
00000000
00000000
,
00030020
00000000
00001000
00000030
00000010
00000001
00000100
00001000
,
00010000
00000000
00100000
00000000
10000000
00000000
00010000
00100000
00010000
00000000
01010000
00000000
00000000
00000000
00011000
00000000
,
00000000
00000000
00001100
00000000
00000000
00000000
00001000
00000010
00002000
00000000
00000000
00000000
00000000
00000000
00000000
00000000
,
00000000
00000000
00000000
00000000
,
00000000
00000000
00000000
00000000
,
00000000
00003000
00000000
00000000
;

//--------------- dance-double - forcednature ----------------
#NOTES:
     dance-double:
     forcednature:
     Challenge:
     5:
     0,0,0,0,0:
00000000
00000000
00000000
00000000
,
00000000
00000000
00000000
00000000
,
00000000
00000000
00000000
00000000
,
00000000
00000000
00000000
00000000
,
00000000
00000000
00000000
00000000
,
00000000
00000000
00000000
00000000
,
00010000
00000000
00001000
00000000
01000000
00010000
01000000
00000000
,
00100000
10000000
01000000
MMMMMMMM
,
00100000
00000000
00001000
00000000
00010000
00000010
00010000
00000000
,
00000100
00000000
00000010
00000000
00000000
00000000
00001001
00000000
00000000
00000000
00000110
00000000
00000000
MMMMMMMM
00000000
00000000
,
00000001
00000000
00000100
00000000
00000010
00010000
00000000
00001000
,
00000000
00100000
00000000
01000000
00000000
10000000
00010000
00000000
,
MMMMMMMM
00000000
10000000
00000000
01000000
00100000
00000000
00010000
,
00000000
00001000
00000000
00000100
00000000
00000010
00000001
00000000
,
MMMMMMMM
00000001
00000100
00000010
,
00001000
00000000
00010000
01000000
00100000
00000000
10000000
00000000
,
MMMMMMMM
01000000
00010000
00001000
,
00000010
00001000
00010000
01000000
,
MMMMMMMM
00000000
00001000
00000000
00000100
00010000
00000000
00001000
,
00000000
01000000
00000000
00010000
00000000
10000000
01000000
00000000
,
MMMMMMMM
00000000
00100000
00000000
00001000
00010000
00000000
00000010
,
00000000
00001000
00000000
00000001
00000000
00000100
00000010
00000000
,
MMMMMMMM
00000000
00010000
00000000
00001000
00100000
00010000
00000000
,
00100000
01000000
10000000
00100000
,
MMMMMMMM
00000000
01000000
00000000
00001000
00000000
00010000
00000010
,
00010000
00001010
00000110
00000101
,
00000001
00000000
00000000
00000001
00000010
00000000
MMMMMMMM
00000000
,
00000100
00000000
00000000
00000100
00001000
00000000
MMMMMMMM
00000000
,
00010000
00000000
00000000
00010000
00100000
00000000
MMMMMMMM
00000000
,
01000000
10000000
00010000
10000000
,
00100000
00000000
10000000
00010000
10000000
00000000
MMMMMMMM
00000000
,
00100000
00000000
01000000
00001000
01000000
00000000
MMMMMMMM
00000000
,
00010010
MMMMMMMM
01001000
MMMMMMMM
,
00010000
00001000
00010000
00001000
00010000
00000000
MMMMMMMM
00000000
,
00011000
01010000
00011000
01010000
,
00011000
01010000
00011000
MMMMMMMM
,
00011000
00001100
00011000
00001100
,
00011000
00001100
00011000
MMMMMMMM
,
00110000
10100000
00110000
10100000
,
00110000
10100000
00110000
MMMMMMMM
,
00001010
00000011
00001010
00000011
,
00001010
00000011
00001010
MMMMMMMM
,
00000101
00001100
00000101
00001100
,
00000101
00001100
00000101
MMMMMMMM
,
01010000
11000000
01010000
11000000
,
01010000
11000000
01010000
MMMMMMMM
,
10100000
01100000
01010000
01001000
,
00011000
00010100
00001100
MMMMMMMM
,
00000011
00000110
00001010
00010100
,
00011000
00101000
01010000
MMMMMMMM
,
00200000
00300000
01010000
MMMMMMMM
,
10100000
MMMMMMMM
10000000
01000000
,
00100000
00010000
00011000
MMMMMMMM
,
00010100
MMMMMMMM
00001000
00000010
,
00000100
00000001
00000011
MMMMMMMM
,
00001100
MMMMMMMM
00010000
00001000
,
01000000
00010000
10100000
MMMMMMMM
,
01010000
MMMMMMMM
01000000
00001000
,
00010000
00000100
00001001
MMMMMMMM
,
00000110
MMMMMMMM
00000001
00000100
,
00000010
00001000
00011000
MMMMMMMM
,
01010000
MMMMMMMM
00100000
10000000
,
00010000
00100000
00110000
MMMMMMMM
,
MMMMMMMM
01000000
10000000
00010000
,
01000000
MMMMMMMM
00011000
MMMMMMMM
,
MMMMMMMM
00000000
00001000
00000000
00000010
00000100
00000000
00001001
,
00000000
00000110
00000000
00000000
00022000
00000000
00000000
00000000
,
00000000
00000000
00000000
00000000
,
00000000
00000000
00000000
00000000
,
00000000
00033000
00000000
00000000
;
