#VERSION:0.83;
#TITLE:Maawrio Twinz;
#SUBTITLE:;
#ARTIST:7 Minutes Dead;
#TITLETRANSLIT:;
#SUBTITLETRANSLIT:;
#ARTISTTRANSLIT:;
#GENRE:;
#ORIGIN:;
#CREDIT:;
#BANNER:;
#BACKGROUND:;
#PREVIEWVID:;
#JACKET:;
#CDIMAGE:;
#DISCIMAGE:;
#LYRICSPATH:;
#CDTITLE:;
#MUSIC:Maawrio Twinz.ogg;
#OFFSET:-0.043000;
#SAMPLESTART:39.535000;
#SAMPLELENGTH:12.000000;
#SELECTABLE:YES;
#BPMS:0.000=103.350;
#STOPS:;
#DELAYS:;
#WARPS:;
#TIMESIGNATURES:0.000=4=4;
#TICKCOUNTS:0.000=4;
#COMBOS:0.000=1;
#SPEEDS:0.000=1.000=0.000=0;
#SCROLLS:0.000=1.000;
#FAKES:;
#LABELS:0.000=Song Start;
#BGCHANGES:;
#KEYSOUNDS:;
#ATTACKS:
;

//---------------dance-single - ----------------
#NOTEDATA:;
#CHARTNAME:;
#STEPSTYPE:dance-single;
#DESCRIPTION:;
#CHARTSTYLE:;
#DIFFICULTY:Challenge;
#METER:9;
#RADARVALUES:0.559260,0.654702,0.123626,0.339971,1.498965,380.000000,368.000000,12.000000,33.000000,102.000000,0.000000,0.000000,0.000000,0.000000,0.559260,0.654702,0.123626,0.339971,1.498965,380.000000,368.000000,12.000000,33.000000,102.000000,0.000000,0.000000,0.000000,0.000000;
#CREDIT:;
#NOTES:
// measure 0
0000
0000
0000
0000
,  // measure 1
0000
0000
0000
0000
,  // measure 2
0000
0000
0000
0000
,  // measure 3
0000
0000
0000
0000
,  // measure 4
0000
0000
0000
0000
,  // measure 5
0000
0000
0001
0000
0000
0000
0101
0000
0000
0100
0000
0020
0000
0000
0000
0000
0000
0000
1030
0000
1000
0100
0000
0100
,  // measure 6
0010
0000
0000
0000
0010
0000
0001
0000
0000
0000
1000
0000
0001
0000
0000
0000
0010
0000
0000
0000
0000
0000
0200
0000
0000
0000
M000
M000
M000
M000
M000
M000
M000
M000
M000
M000
M000
M000
M000
M000
M000
M000
M000
0000
0000
0000
0310
0000
,  // measure 7
0000
0000
0001
1000
0000
0001
0100
0000
0001
0000
0000
0010
0000
0000
0001
0100
0000
0100
0010
0000
0010
1000
0000
0002
,  // measure 8
0000
0000
0M00
0M00
0M00
0M00
0M00
0M00
0M00
0M00
0M00
0M00
0M00
0M00
0M00
0M00
0M00
0M00
0M03
0000
0000
0000
0000
0000
0000
0000
0000
0000
1000
0000
0000
0000
0100
0000
0000
0000
0010
0000
0000
0000
0100
0000
0000
0000
1000
0000
0000
0000
,  // measure 9
0000
0000
0001
0000
0000
0000
0011
0000
0000
0010
0000
0200
0000
0000
0000
0000
0000
0000
1300
0000
1000
0010
0000
0010
,  // measure 10
0100
0000
0000
0000
0100
0000
0001
0000
0000
0000
1000
0000
0001
0000
0000
0000
0100
0000
0000
0000
0000
0000
0020
0000
0000
0000
M000
M000
M000
M000
M000
M000
M000
M000
M000
M000
M000
M000
M000
M000
M000
M000
M000
0000
0000
0000
0130
0000
,  // measure 11
0000
0000
0001
1000
0000
0001
0010
0000
0001
0000
0000
0100
0000
0000
0001
0010
0000
0010
0100
0000
0100
1000
0000
0001
,  // measure 12
0000
0000
0000
0000
0000
0100
0001
0000
1000
0001
0000
0010
0000
0000
0000
0000
0000
2200
0000
0000
0000
3300
0000
1000
,  // measure 13
0000
0000
0010
0100
0000
0010
1000
0000
0010
0100
0000
0002
0000
0000
0000
0100
0000
0000
1000
0000
0000
0103
0000
0000
,  // measure 14
0001
0100
0001
1000
0000
1000
0100
0000
0100
0010
0000
0100
0000
0000
0000
0000
0000
1000
0001
0000
0000
0001
0000
0000
,  // measure 15
0000
0000
1000
0000
0000
0000
0010
0000
0000
0100
0000
0020
0000
0000
0000
1000
0000
0000
0100
0000
0000
1030
0000
0000
,  // measure 16
0010
0000
1000
0001
0000
1000
0010
0000
1000
0001
0000
0010
0001
0000
1000
0001
0000
0010
0100
0000
0010
0001
0000
0010
,  // measure 17
0100
0000
1000
0001
0000
0100
0000
0000
0001
1000
0000
0001
0010
0001
1000
0010
0000
2020
0000
0000
0000
3030
0000
0000
,  // measure 18
0010
0000
1000
0001
0000
0010
0000
0000
0001
1000
0000
0001
0100
0001
1000
0100
0000
2200
0000
0000
0000
3300
0000
1000
,  // measure 19
0010
0000
0010
0100
0000
0001
0000
0000
1000
0100
0000
0100
0010
0000
0010
0001
0000
1000
0000
0000
0001
0100
0000
0100
,  // measure 20
0010
0000
0010
1000
0000
0001
0000
0000
0001
0100
0000
0020
0000
0000
0000
0000
0000
0000
0000
0000
0000
0030
0000
0000
,  // measure 21
0000
0000
1000
0000
0000
0000
1010
0000
0000
0010
0000
0200
0000
0000
0000
0000
0000
0000
0301
0000
0001
0010
0000
0010
,  // measure 22
0100
0000
0000
0000
0100
0000
1000
0000
0000
0000
0001
0000
1000
0000
0000
0000
0100
0000
0000
0000
0000
0000
0020
0000
0000
0000
000M
000M
000M
000M
000M
000M
000M
000M
000M
000M
000M
000M
000M
000M
000M
000M
000M
0000
0000
0000
0130
0000
,  // measure 23
0000
0000
1000
0001
0000
1000
0010
0000
1000
0000
0000
0100
0000
0000
1000
0010
0000
0010
0100
0000
0100
0001
0000
2000
,  // measure 24
0000
0000
00M0
00M0
00M0
00M0
00M0
00M0
00M0
00M0
00M0
00M0
00M0
00M0
00M0
00M0
00M0
00M0
30M0
0000
0000
0000
0000
0000
0000
0000
0000
0000
0001
0000
0000
0000
0010
0000
0000
0000
0100
0000
0000
0000
0010
0000
0000
0000
0001
0000
0000
0000
,  // measure 25
0000
0000
1000
0000
0000
0000
1100
0000
0000
0100
0000
0020
0000
0000
0000
0000
0000
0000
0031
0000
0001
0100
0000
0100
,  // measure 26
0010
0000
0000
0000
0010
0000
1000
0000
0000
0000
0001
0000
1000
0000
0000
0000
0010
0000
0000
0000
0000
0000
0200
0000
0000
0000
000M
000M
000M
000M
000M
000M
000M
000M
000M
000M
000M
000M
000M
000M
000M
000M
000M
0000
0000
0000
0310
0000
,  // measure 27
0000
0000
1000
0001
0000
1000
0100
0000
1000
0000
0000
0010
0000
0000
1000
0100
0000
0100
0010
0000
0010
0001
0000
1000
,  // measure 28
0000
0000
0000
0000
0000
0010
1000
0000
0001
1000
0000
0100
0000
0000
0000
0000
0000
0022
0000
0000
0000
0033
0000
0001
,  // measure 29
0000
0000
0100
0010
0000
0100
0001
0000
0100
0010
0000
2000
0000
0000
0000
0010
0000
0000
0001
0000
0000
3010
0000
0000
,  // measure 30
1000
0010
1000
0001
0000
0001
0010
0000
0010
0100
0000
0010
0000
0000
0000
0000
0000
0001
1000
0000
0000
1000
0000
0000
,  // measure 31
0000
0000
0001
0000
0000
0000
0100
0000
0000
0010
0000
0200
0000
0000
0000
0001
0000
0000
0010
0000
0000
0301
0000
0000
,  // measure 32
0100
0000
0001
1000
0000
0001
0100
0000
0001
1000
0000
0100
1000
0000
0001
1000
0000
0100
0010
0000
0100
1000
0000
0100
,  // measure 33
0010
0000
0001
1000
0000
0010
0000
0000
1000
0001
0000
1000
0100
1000
0001
0100
0000
0202
0000
0000
0000
0303
0000
0000
,  // measure 34
0100
0000
0001
1000
0000
0100
0000
0000
1000
0001
0000
1000
0010
1000
0001
0010
0000
0022
0000
0000
0000
0033
0000
0001
,  // measure 35
0100
0000
0100
0010
0000
1000
0000
0000
0001
0010
0000
0010
0100
0000
0100
1000
0000
0001
0000
0000
1000
0010
0000
0010
,  // measure 36
0100
0000
0100
0001
0000
1000
0000
0000
1000
0010
0000
0200
0000
0000
0000
0000
0000
0000
0000
0000
0000
0300
0000
0000
,  // measure 37
0010
0000
1000
0001
0000
0010
0000
0000
0001
1000
0000
0001
0100
0001
1000
0100
0000
2200
0000
0000
0000
3300
0000
0000
,  // measure 38
0100
0000
1000
0001
0000
0100
0000
0000
0001
1000
0000
0001
0010
0001
1000
0010
0000
2020
0000
0000
0000
3030
0000
1000
,  // measure 39
0100
0000
0100
0010
0000
0001
0000
0000
1000
0010
0000
0010
0100
0000
0100
0001
0000
1000
0000
0000
0001
0010
0000
0010
,  // measure 40
0100
0000
0100
1000
0000
0001
0000
0000
0001
0010
0000
0200
0000
0000
0000
0000
0000
0000
0000
0000
0000
0000
0000
0000
,  // measure 41
0300
0000
0000
0000
;

//---------------dance-single - ----------------
#NOTEDATA:;
#CHARTNAME:;
#STEPSTYPE:dance-single;
#DESCRIPTION:;
#CHARTSTYLE:;
#DIFFICULTY:Beginner;
#METER:1;
#RADARVALUES:0.129513,0.147836,0.000000,0.010302,0.000000,88.000000,88.000000,0.000000,1.000000,0.000000,0.000000,0.000000,0.000000,0.000000,0.129513,0.147836,0.000000,0.010302,0.000000,88.000000,88.000000,0.000000,1.000000,0.000000,0.000000,0.000000,0.000000,0.000000;
#CREDIT:;
#NOTES:
// measure 0
0000
0000
0000
0000
,  // measure 1
0000
0000
0000
0000
,  // measure 2
0000
0000
0000
0000
,  // measure 3
0000
0000
0000
0000
,  // measure 4
0000
0000
0000
0000
,  // measure 5
0001
0001
0001
0000
,  // measure 6
1000
0000
1000
0000
,  // measure 7
0010
0010
0010
0000
,  // measure 8
0100
0000
0100
0000
,  // measure 9
0001
0001
0001
0000
,  // measure 10
1000
0000
1000
0000
,  // measure 11
0100
0100
0100
0000
,  // measure 12
0010
0000
0010
0000
,  // measure 13
0001
0001
0001
0001
,  // measure 14
0001
0000
0001
0000
,  // measure 15
1000
0000
0010
0000
,  // measure 16
1000
1000
1000
1000
,  // measure 17
1000
0000
1000
0000
,  // measure 18
0001
0000
0001
0000
,  // measure 19
0100
0000
0100
0000
,  // measure 20
0010
0000
0010
0000
,  // measure 21
1000
1000
1000
0000
,  // measure 22
0001
0000
0001
0000
,  // measure 23
0100
0100
0100
0000
,  // measure 24
0010
0000
0010
0000
,  // measure 25
1000
1000
1000
0000
,  // measure 26
0001
0000
0001
0000
,  // measure 27
0010
0010
0010
0000
,  // measure 28
0100
0000
0100
0000
,  // measure 29
1000
1000
1000
1000
,  // measure 30
1000
0000
1000
0000
,  // measure 31
0001
0000
0100
0000
,  // measure 32
0001
0001
0001
0001
,  // measure 33
0001
0000
0001
0000
,  // measure 34
1000
0000
1000
0000
,  // measure 35
0010
0000
0010
0000
,  // measure 36
0100
0000
0100
0000
,  // measure 37
0001
0000
0001
0000
,  // measure 38
1000
0000
1000
0000
,  // measure 39
0100
0000
0100
0000
,  // measure 40
0010
0000
0020
0000
,  // measure 41
0030
0000
0000
0000
;

//---------------dance-single - ----------------
#NOTEDATA:;
#CHARTNAME:;
#STEPSTYPE:dance-single;
#DESCRIPTION:;
#CHARTSTYLE:;
#DIFFICULTY:Hard;
#METER:7;
#RADARVALUES:0.390010,0.464628,0.144230,0.195741,0.334820,265.000000,251.000000,14.000000,19.000000,0.000000,0.000000,0.000000,0.000000,0.000000,0.390010,0.464628,0.144230,0.195741,0.334820,265.000000,251.000000,14.000000,19.000000,0.000000,0.000000,0.000000,0.000000,0.000000;
#CREDIT:;
#NOTES:
// measure 0
0000
0000
0000
0000
,  // measure 1
0000
0000
0000
0000
,  // measure 2
0000
0000
0000
0000
,  // measure 3
0000
0000
0000
0000
,  // measure 4
0000
0000
0000
0000
,  // measure 5
0001
0000
0000
1000
0000
0000
0010
0000
0000
1000
0000
0002
0000
0000
0000
0000
0000
0000
1003
0000
0000
1000
0000
0000
,  // measure 6
0100
0000
0000
0100
0000
0000
0010
0000
0001
0000
0000
1000
0000
0020
0000
0000
0000
0000
0000
0000
0000
0000
0000
0130
,  // measure 7
0000
0000
0000
0001
0000
0000
0001
0000
1000
0000
0000
1000
0000
0000
0000
0100
0000
0000
0100
0000
0000
0010
0000
0001
,  // measure 8
0000
2000
0000
0000
0000
0000
0000
0000
0000
0000
0000
0000
0000
0000
3001
0000
0100
0000
0001
0000
1000
0000
0100
0000
,  // measure 9
1000
0000
0000
0001
0000
0000
0100
0000
0000
0001
0000
2000
0000
0000
0000
0000
0000
0000
3001
0000
0000
0001
0000
0000
,  // measure 10
0010
0000
0000
0010
0000
0000
0100
0000
1000
0000
0000
0001
0000
0200
0000
0000
0000
0000
0000
0000
0000
0000
0000
0310
,  // measure 11
0000
0000
0000
1000
0000
0000
1000
0000
0001
0000
0000
0001
0000
0000
0000
0010
0000
0000
0010
0000
0000
0100
0000
0100
,  // measure 12
0000
0000
0000
0000
0000
0000
1000
0000
0000
0010
0000
0000
1000
0000
0000
0000
0000
2020
0000
0000
0000
3030
0000
0000
,  // measure 13
1000
0100
0010
0100
1000
0001
0001
0001
,  // measure 14
1010
0001
1000
0100
0020
0000
0100
0130
,  // measure 15
1000
0010
0100
0010
1000
0001
0001
0001
,  // measure 16
0101
1000
1100
0001
0101
1000
1010
0001
,  // measure 17
0011
0000
0000
0010
0000
0001
0000
0000
0000
1000
0000
0000
0010
0000
0000
0100
0000
0010
0000
0000
0000
0000
0000
0000
,  // measure 18
1000
0000
0000
0100
0000
1000
0000
0000
0000
0001
0000
0000
0010
0000
0000
0100
0000
0010
0000
0000
0000
0000
0000
0000
,  // measure 19
0001
0000
0000
0001
0000
0100
0000
0000
0000
0010
0000
0000
1000
0000
0000
1000
0000
0100
0000
0000
0000
0010
0000
0000
,  // measure 20
0001
0000
0000
0001
0000
1000
0000
0000
0000
0010
0000
0000
0020
0000
0000
0000
0000
0000
0000
0000
0000
0000
0000
0000
,  // measure 21
1030
0000
0000
0001
0000
0000
0100
0000
0000
0001
0000
2000
0000
0000
0000
0000
0000
0000
3001
0000
0000
0001
0000
0000
,  // measure 22
0010
0000
0000
0010
0000
0000
0100
0000
1000
0000
0000
0001
0000
0200
0000
0000
0000
0000
0000
0000
0000
0000
0000
0310
,  // measure 23
0000
0000
0000
1000
0000
0000
1000
0000
0001
0000
0000
0001
0000
0000
0000
0010
0000
0000
0010
0000
0000
0100
0000
1000
,  // measure 24
0000
0002
0000
0000
0000
0000
0000
0000
0000
0000
0000
0000
0000
0000
1003
0000
0010
0000
1000
0000
0001
0000
0010
0000
,  // measure 25
0001
0000
0000
1000
0000
0000
0010
0000
0000
1000
0000
0002
0000
0000
0000
0000
0000
0000
1003
0000
0000
1000
0000
0000
,  // measure 26
0100
0000
0000
0100
0000
0000
0010
0000
0001
0000
0000
1000
0000
0020
0000
0000
0000
0000
0000
0000
0000
0000
0000
0130
,  // measure 27
0000
0000
0000
0001
0000
0000
0001
0000
1000
0000
0000
1000
0000
0000
0000
0100
0000
0000
0100
0000
0000
0010
0000
0010
,  // measure 28
0000
0000
0000
0000
0000
0000
0001
0000
0000
0100
0000
0000
0001
0000
0000
0000
0000
0202
0000
0000
0000
0303
0000
0000
,  // measure 29
0001
0010
0100
0010
0001
1000
1000
1000
,  // measure 30
0101
1000
0001
0010
0200
0000
0010
0310
,  // measure 31
0001
0100
0010
0100
0001
1000
1000
1000
,  // measure 32
1010
0001
0011
1000
1010
0001
0101
1000
,  // measure 33
1100
0000
0000
0100
0000
1000
0000
0000
0000
0001
0000
0000
0100
0000
0000
0010
0000
0100
0000
0000
0000
0000
0000
0000
,  // measure 34
0001
0000
0000
0010
0000
0001
0000
0000
0000
1000
0000
0000
0100
0000
0000
0010
0000
0100
0000
0000
0000
0000
0000
0000
,  // measure 35
1000
0000
0000
1000
0000
0010
0000
0000
0000
0100
0000
0000
0001
0000
0000
0001
0000
0010
0000
0000
0000
0100
0000
0000
,  // measure 36
1000
0000
0000
1000
0000
0001
0000
0000
0000
0100
0000
0000
0200
0000
0000
0000
0000
0000
0300
0000
0000
0000
0000
0000
,  // measure 37
0001
0000
0000
0100
0000
0001
0000
0000
0000
1000
0000
0000
0100
0000
0000
0010
0000
0100
0000
0000
0000
0000
0000
0000
,  // measure 38
1000
0000
0000
0010
0000
1000
0000
0000
0000
0001
0000
0000
0100
0000
0000
0010
0000
0100
0000
0000
0000
0000
0000
0000
,  // measure 39
0001
0000
0000
0001
0000
0010
0000
0000
0000
0100
0000
0000
1000
0000
0000
1000
0000
0010
0000
0000
0000
0100
0000
0000
,  // measure 40
0001
0000
0000
0001
0000
1000
0000
0000
0000
0100
0000
0000
0200
0000
0000
0000
0000
0000
0000
0000
0000
0000
0000
0000
,  // measure 41
0300
0000
0000
0000
;

//---------------dance-single - ----------------
#NOTEDATA:;
#CHARTNAME:;
#STEPSTYPE:dance-single;
#DESCRIPTION:;
#CHARTSTYLE:;
#DIFFICULTY:Medium;
#METER:5;
#RADARVALUES:0.325254,0.359030,0.020604,0.092719,0.000000,221.000000,219.000000,2.000000,9.000000,0.000000,0.000000,0.000000,0.000000,0.000000,0.325254,0.359030,0.020604,0.092719,0.000000,221.000000,219.000000,2.000000,9.000000,0.000000,0.000000,0.000000,0.000000,0.000000;
#CREDIT:;
#NOTES:
// measure 0
0000
0000
0000
0000
,  // measure 1
0000
0000
0000
0000
,  // measure 2
0000
0000
0000
0000
,  // measure 3
0000
0000
0000
0000
,  // measure 4
0000
0000
0000
0000
,  // measure 5
0000
0001
0001
0100
0001
0000
1000
0100
,  // measure 6
0010
0010
0001
0001
2000
0000
0000
0000
,  // measure 7
3001
0100
0001
0100
0010
0000
1000
0100
,  // measure 8
2000
0000
0000
0000
3000
0001
0100
0001
,  // measure 9
0000
1000
1000
0100
1000
0000
0001
0100
,  // measure 10
0010
0010
1000
1000
0002
0000
0000
0000
,  // measure 11
1003
0100
1000
0100
0010
0000
0001
0100
,  // measure 12
0001
0000
1000
0100
1000
0000
1001
0000
,  // measure 13
0001
0010
0100
0010
0001
1000
1000
1000
,  // measure 14
0010
0100
0010
0100
0001
0000
1000
1000
,  // measure 15
0000
0001
0100
0010
0100
0001
0001
0001
,  // measure 16
1000
1000
0100
0100
0010
0010
0001
0001
,  // measure 17
1000
0100
1000
0000
0001
0100
0001
0000
,  // measure 18
1000
0010
1000
0000
0001
0010
0001
0000
,  // measure 19
1000
0100
0010
0000
0001
0100
0010
0000
,  // measure 20
1000
0010
0100
0010
2000
0000
0000
0000
,  // measure 21
3000
0001
0001
0010
0001
0000
1000
0010
,  // measure 22
0100
0100
0001
0001
2000
0000
0000
0000
,  // measure 23
3001
0010
0001
0010
0100
0000
1000
0010
,  // measure 24
2000
0000
0000
0000
3000
0001
0010
0001
,  // measure 25
0000
1000
1000
0010
1000
0000
0001
0010
,  // measure 26
0100
0100
1000
1000
0002
0000
0000
0000
,  // measure 27
1003
0010
1000
0010
0100
0000
0001
0010
,  // measure 28
0001
0000
1000
0010
1000
0000
1001
0000
,  // measure 29
0001
0100
0010
0100
0001
1000
1000
1000
,  // measure 30
0100
0010
0100
0010
0001
0000
1000
1000
,  // measure 31
0000
0001
0010
0100
0010
0001
0001
0001
,  // measure 32
1000
1000
0010
0010
0100
0100
0001
0001
,  // measure 33
1000
0010
1000
0000
0001
0010
0001
0000
,  // measure 34
1000
0100
1000
0000
0001
0100
0001
0000
,  // measure 35
1000
0010
0100
0000
0001
0010
0100
0000
,  // measure 36
1000
0100
0010
0100
2000
0000
0000
0000
,  // measure 37
3001
0100
0001
0000
1000
0100
1000
0000
,  // measure 38
0001
0010
0001
0000
1000
0010
1000
0000
,  // measure 39
0001
0100
0010
0000
1000
0100
0010
0000
,  // measure 40
0001
0010
0100
0010
0002
0000
0000
0000
,  // measure 41
0003
0000
0000
0000
;

//---------------dance-single - ----------------
#NOTEDATA:;
#CHARTNAME:;
#STEPSTYPE:dance-single;
#DESCRIPTION:;
#CHARTSTYLE:;
#DIFFICULTY:Easy;
#METER:2;
#RADARVALUES:0.183967,0.211194,0.020604,0.072115,0.000000,125.000000,123.000000,2.000000,7.000000,0.000000,0.000000,0.000000,0.000000,0.000000,0.183967,0.211194,0.020604,0.072115,0.000000,125.000000,123.000000,2.000000,7.000000,0.000000,0.000000,0.000000,0.000000,0.000000;
#CREDIT:;
#NOTES:
// measure 0
0000
0000
0000
0000
,  // measure 1
0000
0000
0000
0000
,  // measure 2
0000
0000
0000
0000
,  // measure 3
0000
0000
0000
0000
,  // measure 4
0000
0000
0000
0000
,  // measure 5
0001
0100
0001
0000
,  // measure 6
1000
0100
2000
0000
,  // measure 7
3001
0010
0001
0010
,  // measure 8
0002
0000
1000
1003
,  // measure 9
0001
0010
0001
0000
,  // measure 10
1000
0010
2000
0000
,  // measure 11
3001
0100
0001
0100
,  // measure 12
0001
1000
1000
1100
,  // measure 13
0100
0010
0100
0000
,  // measure 14
1000
0001
1000
0001
,  // measure 15
0100
0010
0100
0010
,  // measure 16
1000
1000
0100
0100
,  // measure 17
0010
0001
0100
0000
,  // measure 18
0010
1000
0100
0000
,  // measure 19
0010
0001
1000
0001
,  // measure 20
0010
0100
1000
0000
,  // measure 21
0001
0010
0001
0000
,  // measure 22
1000
0010
2000
0000
,  // measure 23
3001
0100
0001
0100
,  // measure 24
0002
0000
1000
1003
,  // measure 25
0001
0100
0001
0000
,  // measure 26
1000
0100
2000
0000
,  // measure 27
3001
0010
0001
0010
,  // measure 28
0001
1000
1000
1010
,  // measure 29
0010
0100
0010
0000
,  // measure 30
1000
0001
1000
0001
,  // measure 31
0010
0100
0010
0100
,  // measure 32
1000
1000
0010
0010
,  // measure 33
0100
0001
0010
0000
,  // measure 34
0100
1000
0010
0000
,  // measure 35
0100
0001
1000
0001
,  // measure 36
0100
0010
1000
0000
,  // measure 37
0010
1000
0100
0000
,  // measure 38
0010
0001
0100
0000
,  // measure 39
0010
1000
0001
1000
,  // measure 40
0010
0100
0002
0000
,  // measure 41
0003
0000
0000
0000
;
