#TITLE:MOVIN';
#SUBTITLE:(Loopin' Mix);
#ARTIST:NAKA;
#TITLETRANSLIT:;
#SUBTITLETRANSLIT:;
#ARTISTTRANSLIT:;
#CREDIT:;
#BANNER:MOVIN_ (Loopin_ Mix)-jacket.png;
#BACKGROUND:MOVIN_ (Loopin_ Mix)-bg.png;
#LYRICSPATH:;
#CDTITLE:;
#MUSIC:[Prime Time] - MOVIN_ (Loopin_ Mix).ogg;
#OFFSET:-7.930;
#SAMPLESTART:53.482;
#SAMPLELENGTH:12.000;
#SELECTABLE:YES;
#BPMS:0.000=129.000;
#STOPS:;
#BGCHANGES:;

//---------------dance-single - ----------------
#NOTES:
     dance-single:
     :
     Hard:
     7:
     0.427,0.401,0.035,0.000,0.158:
0000
0000
0000
0000
,
0000
0000
0000
0000
,
1000
0000
0000
0000
0100
0000
0000
0000
0010
0000
0000
0000
0001
0000
0000
0001
,
0000
1000
0001
0000
0100
0000
0001
0000
,
0001
0100
1000
0100
0001
0000
1000
1000
,
0100
0001
0100
1000
0100
0000
0010
0000
,
0001
0100
1000
0100
0001
0010
1000
0010
,
0001
0100
1000
0100
0001
0000
0100
0000
,
0001
0010
1000
0010
0001
0000
1000
0000
,
1000
0010
0001
0010
1000
0000
0001
0000
,
1000
0000
0100
0010
0000
0000
0000
0000
0001
0000
0010
0100
0000
0000
1000
0000
,
0010
0000
1000
0000
0100
0000
0010
0001
0000
0000
0001
0000
0100
0000
0010
0000
,
1010
0000
0000
1000
0100
0000
0000
0100
,
0010
0000
0001
0000
0100
0000
0010
1000
0000
0000
1000
0000
0100
0000
0010
0000
,
0001
0000
0000
0001
0100
0000
0000
0100
,
0010
0000
1000
0000
0100
0000
0010
0001
0000
0000
0001
0000
0100
0000
0010
0000
,
1010
0000
0010
1000
0100
0000
0100
0010
,
0001
0000
0100
0000
0010
0000
1000
0100
0000
0000
0010
0000
0001
0000
0100
0000
,
0010
0000
1000
0100
0010
0000
0001
0100
,
0110
0000
0000
0000
0010
0000
0000
0000
1000
0000
0000
0100
0000
0000
0001
0000
,
0000
0100
1000
0000
1000
0100
0001
1000
,
0010
0001
1000
0001
0000
0001
0100
0010
,
1000
1000
0001
0000
0001
0010
1000
0001
,
0100
1000
0001
1000
0000
1000
0010
0100
,
0001
0001
1000
0000
0001
0100
1000
0001
,
0010
1000
0001
1000
0000
1000
0010
0100
,
0001
0001
1000
0000
1000
0010
0001
1000
,
0100
0001
1000
0001
0000
0001
0010
0100
,
1000
1000
0001
0000
0100
0001
0010
0100
,
1000
0000
0010
0000
0100
0000
0010
0000
0000
0010
1000
0000
1000
0000
0000
0000
,
0100
0000
0000
0100
0000
0000
0100
0000
0010
0000
0001
0000
0100
0000
0010
0000
,
1000
0000
0100
0000
0010
0000
0100
0000
0000
0010
0001
0000
0001
0000
0000
0000
,
0010
0000
0000
0010
0000
0000
0010
0000
0100
0000
1000
0000
0010
0000
0100
0000
,
0001
0000
0010
0000
0100
0000
1000
0000
0000
0010
0100
0000
0100
0000
0000
0000
,
0001
0000
0000
0001
0000
0000
0001
0000
0010
0000
0001
0000
0100
0000
0010
0000
,
1000
0000
0100
0000
0010
0000
0001
0000
0000
0100
0010
0000
0010
0000
0000
0000
,
1000
0000
0000
1000
0000
0000
1000
0000
1000
0001
0000
0000
0001
0000
0000
0000
,
0010
0000
0000
0010
0000
0000
0010
0100
0000
1000
0100
0000
0010
0000
0000
0000
,
0010
0000
0000
0010
0000
0000
0010
0000
0001
0100
0000
0010
0100
0000
0000
0000
,
0010
0000
0000
0010
0000
0000
0010
1000
0000
0100
1000
0000
0001
0000
0000
0000
,
0100
0000
0000
0100
0000
0000
0100
0000
0000
0000
0000
0000
0000
0000
0000
0000
;

//---------------dance-double - ----------------
#NOTES:
     dance-double:
     :
     Hard:
     8:
     0.514,0.471,0.175,0.000,0.099:
00011000
00010000
01000000
00000000
01000000
10000000
00100000
00000000
,
00100000
00010000
00001000
00000000
00001000
00000100
00000001
00000000
,
00000001
00000010
00001000
00000000
00001000
00010000
01000000
00000000
,
10000000
00100000
01000000
00000000
01000000
00001000
00010000
00000000
,
00001000
00000100
00000001
00000100
00001000
00010000
00001000
00001000
,
00010000
01000000
10000000
01000000
00010000
00001000
00011000
00000000
,
00001000
00000010
00000001
00000010
00001000
00010000
00001000
00001000
,
00010000
00100000
10000000
00100000
00010000
00001000
00011000
00000000
,
00001000
01000000
00100000
10000000
00010000
00010000
01000000
00000000
,
00001000
00010000
00001000
00010000
00000100
00000000
00000010
00000000
00000001
00000000
00000001
00000000
00000100
00000000
00000000
00000000
,
00000001
00000000
00000100
00000010
00000000
00000100
00001000
00000000
00010000
00000000
00100000
01000000
00000000
00100000
10000000
00000000
,
01000000
00010000
00001000
00000100
00000001
00000010
00000001
00000100
,
00000101
00000000
00000001
00000010
00000100
00000000
00000100
00010000
,
00001000
00100000
00010000
01000000
00100000
10000000
01000000
00100000
,
00110000
00000000
00010000
10000000
00100000
00000000
00100000
01000000
,
00001000
00010000
00000100
00000010
00000001
00001000
00000010
00000100
,
00000101
00000000
00000001
00000100
00001000
00000000
00010000
01000000
,
10000000
01000000
00010000
00001000
00010000
01000000
10000000
00100000
,
10100000
00000000
10000000
00100000
00010000
00000000
00010000
00001000
,
00011000
00000000
00000000
00000000
,
00000000
00000000
00000000
00010000
00000000
00000000
00001000
00000000
00010000
01000000
00000000
00000000
10000000
00000000
00000000
01000000
00000000
00000000
00100000
00000000
00000000
00001000
00000000
00000000
,
00010000
00000010
00000100
00000001
00000010
00000100
00010000
00001000
,
00100000
00100000
00110000
00000000
00010000
10000000
00100000
01000000
,
00001000
00010000
00000100
00000010
00000001
00001000
00000010
00000100
,
00000001
00000001
00001001
00000000
00000011
00000010
00000100
00010000
,
00001000
00100000
00010000
01000000
00100000
10000000
01000000
00100000
,
00010000
00010000
10010000
00000000
10000000
00100000
01000000
00001000
,
00010000
00000100
00000010
00000001
00000100
00000010
00001000
00000100
,
00000010
00000001
00001000
00000000
00000101
00000001
00000100
00000010
,
00000100
00000000
00001000
00000000
00010000
00000000
01000000
00000000
00100000
00010000
10000000
00000000
00100000
00000000
00010000
00000000
,
00001000
00000100
00000010
00001000
00000100
00000001
00000100
00010000
,
00001000
00000000
00100000
00000000
00010000
00000000
01000000
00000000
00100000
10000000
00010000
00000000
10000000
00000000
01000000
00000000
,
00100000
00010000
01000000
10000000
01000000
00100000
10000000
01000000
,
00010000
00000000
00001000
00000000
00000100
00000000
00000001
00000000
00000010
00000001
00001000
00000000
00000100
00000000
00000010
00000000
,
00000100
00010000
01000000
10000000
00100000
00010000
00001000
00000100
,
00000001
00000000
00000010
00000000
00001000
00000000
00000010
00000000
00000001
00000100
00000010
00000000
00001000
00000000
00000100
00000000
,
00010000
00001000
00100000
00010000
10010000
00000000
10000000
00000000
,
00100000
00000000
00000000
00100000
00000000
00000000
00100000
00000000
00010000
00001000
00010000
00000000
00001000
00000000
00000000
00000000
,
00000100
00000000
00000000
00000100
00000000
00000000
00000100
00000000
00000001
00000000
00000000
00000000
00000010
00000000
00000000
00000000
,
00001000
00000000
00000000
00001000
00000000
00000000
00001000
00000000
00010000
00001000
00010000
00000000
01000000
00000000
00000000
00000000
,
10000000
00000000
00000000
10000000
00000000
00000000
10010000
00000000
00000000
00000000
00000000
00000000
00000000
00000000
00000000
00000000
;

//---------------dance-single - ----------------
#NOTES:
     dance-single:
     :
     Easy:
     5:
     0.265,0.330,0.128,0.000,0.023:
0000
0000
0000
0000
,
0000
0000
0000
0000
,
1000
0010
0100
0001
,
1000
0000
0000
0000
,
1001
0000
1000
0000
0100
0000
0001
0100
,
1000
0100
0001
0000
,
0001
0010
1000
0010
,
0001
0100
1000
0000
,
1000
0001
1000
0000
,
1000
0010
0001
0000
0010
0000
0000
0000
,
1010
0100
0011
0100
,
0010
1001
1001
0001
,
0110
0000
1000
0000
,
0001
0000
0100
0010
0100
0000
1000
0000
,
0100
0000
0001
0000
,
1000
0000
0100
0010
0100
0000
1000
0000
,
1001
0000
0100
0000
,
0001
0000
1000
0001
1000
0000
0001
0000
,
0010
0000
0100
0000
,
0110
0000
0000
0000
,
0000
0000
0010
0001
,
0100
0000
1000
0000
0100
0000
0001
0010
,
1000
0010
0001
0100
,
0010
0000
1000
0000
0100
0000
0001
0100
,
1000
0010
1001
0001
,
0100
0000
1000
0000
0100
0000
0010
1000
,
0100
0001
0100
0010
,
0001
0000
0100
0000
1000
0000
0100
0001
,
0010
1000
1001
1000
,
0010
0001
0100
1000
,
0010
1000
0100
0001
,
0010
1000
0100
1000
,
0010
0001
1000
0010
,
0001
0100
1000
0100
,
0001
0010
1000
0001
,
0010
0000
1000
0000
0100
0000
0001
0100
,
1000
0010
0110
0001
,
1000
0000
0000
1000
0000
0000
1000
0000
0100
0000
0000
0000
0010
0000
0000
0000
,
0001
0000
0000
0001
0000
0000
0001
0000
0100
0000
0000
0000
0010
0000
0000
0000
,
1000
0000
0000
1000
0000
0000
1000
0000
0100
0000
0000
0000
0010
0000
0000
0000
,
0001
0000
0000
0001
0000
0000
0001
0000
0000
0000
0000
0000
0000
0000
0000
0000
;

//---------------dance-single - ----------------
#NOTES:
     dance-single:
     :
     Medium:
     6:
     0.355,0.354,0.140,0.000,0.023:
0000
0000
0000
0000
,
0000
0000
0000
0000
,
1000
0100
0010
0001
,
1000
0001
0100
0001
,
0101
0001
1000
0000
0100
0000
0001
0100
,
1000
0000
1000
0001
1000
0000
0010
0000
,
0100
0001
1000
0000
0100
0000
0010
0000
,
0001
1000
0001
1000
0100
0000
0010
0000
,
0001
0100
1000
0000
1001
0000
0000
0000
,
1000
0100
0001
0000
1001
0000
0000
0000
,
0001
0100
0010
0000
0010
1000
0100
0000
,
0001
0100
1000
0100
1000
0000
0001
0010
,
0011
0000
0000
0001
0100
0000
0000
0100
,
0010
0000
1000
0000
0001
0000
0010
0001
,
0011
0000
0000
0010
0100
0000
0000
0100
,
1000
0000
0010
0000
0100
0000
0001
1000
,
1001
1000
1100
0001
,
0100
0010
0100
0010
1000
0000
0010
0100
,
0110
1000
1010
0001
,
0110
0000
0000
0000
,
0000
0000
0000
0000
0001
0100
0000
0100
,
0010
0000
0010
1000
0000
1000
0100
0010
,
0001
0000
1000
0000
1000
0010
0000
0010
,
0100
0000
0100
0001
0000
0001
0010
0100
,
1000
0000
0001
0000
1000
0100
0000
0100
,
0010
0000
0010
0001
0000
0001
0100
0010
,
1000
0000
0001
0000
0001
0010
0000
0010
,
0100
0000
0100
1000
0000
1000
0010
0100
,
0001
0000
1000
0000
1000
0100
0010
0000
,
0010
0001
1000
0000
1000
0010
0100
0000
,
0100
0001
1000
0000
1000
0010
0100
0000
,
0100
0001
1000
0000
1000
0100
0001
0000
,
0001
0100
1000
0000
1000
0001
0100
0000
,
0100
0010
1000
0000
1000
0001
0010
0000
,
0010
0100
1000
0000
1000
0001
0010
0000
,
0010
0001
1000
0000
1000
0010
0100
0000
,
0100
0001
0010
0000
0011
0001
0100
0000
,
1000
0000
0000
1000
0000
0000
1000
0000
0100
0000
0001
0000
1000
0000
0000
0000
,
0001
0000
0000
0001
0000
0000
0001
0000
1000
0000
0100
0000
0010
0000
0000
0000
,
0001
0000
0000
0001
0000
0000
0001
0000
0100
0000
0010
0000
1000
0000
0000
0000
,
0001
0000
0000
0001
0000
0000
1001
0000
0000
0000
0000
0000
0000
0000
0000
0000
;

//---------------dance-double - ----------------
#NOTES:
     dance-double:
     :
     Medium:
     7:
     0.369,0.377,0.058,0.000,0.029:
00000000
00000000
00000000
00000000
,
00000000
00000000
00000000
00000000
,
00010000
00000000
00000000
00000000
01000000
00000000
00000000
00000000
10000000
00000000
00000000
00000000
00100000
00000000
00000000
00010000
,
00000000
00001000
00000100
00000000
00000001
00000000
00001000
00000000
,
00000001
00000100
00001000
00000100
00000001
00000000
00001000
00000000
,
00010000
00100000
10000000
00100000
00010000
00000000
00000000
00000000
,
10000000
01000000
00010000
01000000
10000000
00000000
00010000
00000000
,
00001000
00000010
00000001
00000010
00001000
00000000
00000000
00000000
,
00000001
00000010
00001000
00010000
00100000
00000000
00000000
00000000
,
10000000
00100000
00010000
00001000
00000010
00000000
00000000
00000000
,
00000010
00000001
00001000
00000000
00010000
10000000
01000000
00000000
,
00100000
00010000
00001000
00000100
00001000
00010000
00100000
00001000
,
00011000
00000100
00000001
00000010
,
00010000
00000000
01000000
00000000
10000000
00000000
00100000
00010000
,
00001000
00000100
00000010
00010000
,
01000000
00000000
00100000
00000000
00001000
00000000
00000100
00000001
,
00001001
00000000
00000000
00001000
00010000
00000000
00000000
00010000
,
10000000
00010000
00001000
00000001
,
00000010
00000000
00000000
00000001
00001000
00000000
00000000
00001000
,
00011000
00000000
00000000
00000000
,
00000000
00010000
01000000
10000000
10000000
01000000
00000000
00010000
,
00001000
00000000
00000100
00000001
00000000
00000001
00000010
00000001
,
00000100
00001000
00010000
00000000
00010000
01000000
00000000
01000000
,
10000000
00000000
10000000
00010000
00000000
00010000
00001000
00000100
,
00010000
00001000
00100000
00000000
00100000
01000000
00000000
00010000
,
00001000
00000000
00000100
00000010
00000000
00000010
00001000
00000100
,
00000001
00000100
00010000
00000000
00100000
10000000
00000000
10000000
,
01000000
00000000
01000000
00010000
00000000
00010000
00000010
00010000
,
00001000
00000010
00000001
00000000
00000001
00000100
00000001
00000100
,
00001000
00000100
00001000
00010000
01000000
10000000
00100000
00000000
,
00010000
00001000
00000010
00000000
00000001
00000010
00000001
00000010
,
00001000
00000010
00001000
00010000
00100000
10000000
01000000
00000000
,
00010000
00001000
00000100
00001000
00010000
01000000
00010000
01000000
,
10000000
01000000
10000000
00100000
00010000
00001000
00000010
00000000
,
00000001
00000100
00010000
00000000
00100000
10000000
00100000
10000000
,
00100000
00001000
00100000
00001000
00000100
00000001
00000010
00000000
,
00000010
00001000
00010000
00000000
00011000
00000000
01000000
00000000
,
00100000
00000000
00000000
00100000
00000000
00000000
00100000
00000000
10000000
00000000
01000000
00000000
00010000
00000000
00000000
00000000
,
00001000
00000000
00000000
00001000
00000000
00000000
00001000
00000000
00000100
00000000
00000000
00000000
00000001
00000000
00000000
00000000
,
00000010
00000000
00000000
00000010
00000000
00000000
00000010
00000000
00000001
00000000
00000100
00000000
00001000
00000000
00000000
00000000
,
00010000
00000000
00000000
00010000
00000000
00000000
00011000
00000000
00000000
00000000
00000000
00000000
00000000
00000000
00000000
00000000
;

//---------------dance-double - ----------------
#NOTES:
     dance-double:
     :
     Easy:
     6:
     0.289,0.330,0.105,0.000,0.023:
00000000
00000000
00000000
00000000
,
00000000
00000000
00000000
00000000
,
00010000
01000000
10000000
00100000
,
00010000
00001000
00000100
00000001
,
00000110
00000000
00000001
00000100
00001000
00000000
00010000
00000000
,
01000000
00000000
10000000
01000000
00010000
00000000
00000000
00000000
,
00001000
00000010
00000001
00000000
00000001
00000100
00001000
00000000
,
00010000
01000000
10000000
00000000
10010000
00000000
00000000
00000000
,
10000000
00000000
00100000
00010000
00001000
00000000
00000000
00000000
,
00000010
00000000
00001000
00010000
00100000
00000000
00000000
00000000
,
10000000
01000000
00010000
00000000
00010000
01000000
10000000
00000000
,
10000000
00010000
00001000
00000000
00000001
00000000
00010000
00001000
,
00011000
00000000
01000000
00000000
,
00100000
10000000
00010000
00100000
,
00001000
00000000
00000100
00000000
,
00000010
00001000
00000100
00010000
,
00011000
00000000
01000000
00000000
,
00100000
10000000
01000000
00010000
,
00001000
00000000
00000100
00000000
,
00001001
00000000
00000000
00000000
,
00000000
00000000
00000011
00000001
,
00000100
00001000
00010000
01000000
,
10000000
00100000
00010000
00000000
00001000
00000000
00000010
00000000
,
00001000
00010000
00100000
10000000
,
01000000
00010000
00001000
00000000
00000110
00000000
00000001
00000000
,
00000100
00001000
00010000
00100000
,
10000000
01000000
00010000
00000000
00001000
00000000
00010000
00000000
,
01000000
00000000
10000000
00000000
00100000
00000000
00010000
00001000
,
00000010
00000001
00000101
00000100
,
00001000
00000000
00010000
00000000
00100000
10000000
01000000
00000000
,
01000000
10000000
00100000
00000000
00010000
00000000
00001000
00000000
,
00000100
00000000
00000001
00000000
00000010
00000001
00000100
00000000
,
00000100
00000001
00000010
00000000
00001000
00000000
00010000
00000000
,
00100000
00000000
10000000
00000000
01000000
00010000
00001000
00000000
,
00000100
00001000
00010000
00000000
00100000
00000000
10000000
00000000
,
01000000
00000000
00001000
00000000
00000100
00001000
00100000
00000000
,
01000000
00010000
00000010
00000000
00001001
00000000
00000001
00000000
,
00000010
00000000
00000000
00000010
00000000
00000000
00000010
00000000
00001000
00000000
00000000
00000000
00010000
00000000
00000000
00000000
,
10000000
00000000
00000000
10000000
00000000
00000000
10000000
00000000
00010000
00000000
00000000
00000000
00001000
00000000
00000000
00000000
,
00000010
00000000
00000000
00000010
00000000
00000000
00000010
00000000
00000100
00000000
00000000
00000000
00010000
00000000
00000000
00000000
,
00001000
00000000
00000000
00001000
00000000
00000000
00001000
00000000
00000000
00000000
00000000
00000000
00000000
00000000
00000000
00000000
;

//---------------dance-double - Copied from----------------
#NOTES:
     dance-double:
     Copied from:
     Edit:
     8:
     0.512,0.471,0.163,0.000,0.099:
00011000
00010000
01000000
00000000
01000000
10000000
00100000
00000000
,
00100000
00010000
00001000
00000000
00001000
00000100
00000001
00000000
,
00000001
00000010
00001000
00000000
00001000
00010000
01000000
00000000
,
10000000
00100000
01000000
00000000
01000000
00001000
00010000
00000000
,
00001000
00000100
00000001
00000100
00001000
00010000
00001000
00001000
,
00010000
01000000
10000000
01000000
00010000
00001000
00011000
00000000
,
00001000
00000010
00000001
00000010
00001000
00010000
00001000
00001000
,
00010000
00100000
10000000
00100000
00010000
00001000
00011000
00000000
,
00001000
01000000
00100000
10000000
00010000
00010000
01000000
00000000
,
00001000
00010000
00001000
00010000
00000100
00000000
00000010
00000000
00000001
00000000
00000001
00000000
00000100
00000000
00000000
00000000
,
00000001
00000000
00000100
00001000
00000000
00000100
00001000
00000000
00010000
00000000
00100000
10000000
00000000
10000000
01000000
00000000
,
01000000
00010000
00001000
00000100
00000001
00000010
00000001
00000100
,
00000101
00000000
00000001
00000010
00000100
00000000
00000100
00010000
,
00001000
00100000
00010000
01000000
00100000
10000000
01000000
00100000
,
00010000
00000000
00010000
10000000
10100000
00000000
00100000
01000000
,
00001000
00010000
00000100
00000010
00000001
00001000
00000010
00000100
,
00000101
00000000
00000001
00000100
00001000
00000000
00010000
01000000
,
10000000
01000000
00010000
00001000
00010000
01000000
10000000
00100000
,
10000000
00000000
10000000
00100000
00010000
00000000
00010000
00001000
,
00011000
00000000
00000000
00000000
,
00000000
00000000
00000000
00010000
00000000
00000000
00001000
00000000
00010000
01000000
00000000
00000000
10000000
00000000
00000000
01000000
00000000
00000000
00100000
00000000
00000000
00001000
00000000
00000000
,
00010000
00000010
00000100
00000001
00000010
00000100
00010000
00001000
,
00100000
00010000
00110000
00000000
00010000
10000000
00100000
01000000
,
00001000
00010000
00000100
00000010
00000001
00001000
00000010
00000100
,
00000001
00001000
00001001
00000000
00000011
00000010
00000100
00010000
,
00001000
00100000
00010000
01000000
00100000
10000000
01000000
00100000
,
00010000
10000000
11000000
00000000
10000000
00100000
01000000
00001000
,
00010000
00000100
00000010
00000001
00000100
00000010
00001000
00000100
,
00000010
00000001
00000100
00000000
00000101
00000001
00000100
00000010
,
00000100
00000000
00001000
00000000
00010000
00000000
01000000
00000000
00100000
00010000
10000000
00000000
00100000
00000000
00010000
00000000
,
00001000
00000100
00000010
00001000
00000100
00000001
00000100
00010000
,
00001000
00000000
00100000
00000000
00010000
00000000
01000000
00000000
00100000
10000000
00010000
00000000
10000000
00000000
01000000
00000000
,
00100000
00010000
01000000
10000000
01000000
00100000
10000000
01000000
,
00010000
00000000
00001000
00000000
00000100
00000000
00000001
00000000
00000010
00000001
00001000
00000000
00000100
00000000
00000010
00000000
,
00000100
00010000
01000000
10000000
00100000
00010000
00001000
00000100
,
00000001
00000000
00000010
00000000
00001000
00000000
00000010
00000000
00000001
00000100
00000010
00000000
00001000
00000000
00000100
00000000
,
00010000
00001000
00100000
00010000
10010000
00000000
10000000
00000000
,
00100000
00000000
00000000
00100000
00000000
00000000
00100000
00000000
00010000
00001000
00010000
00000000
00001000
00000000
00000000
00000000
,
00000100
00000000
00000000
00000100
00000000
00000000
00000100
00000000
00000001
00000000
00000000
00000000
00000010
00000000
00000000
00000000
,
00001000
00000000
00000000
00001000
00000000
00000000
00001000
00000000
00010000
00001000
00010000
00000000
01000000
00000000
00000000
00000000
,
10000000
00000000
00000000
10000000
00000000
00000000
10010000
00000000
00000000
00000000
00000000
00000000
00000000
00000000
00000000
00000000
;

//---------------dance-solo - ----------------
#NOTES:
     dance-solo:
     :
     Hard:
     7:
     0.440,0.448,0.222,0.000,0.181:
000000
000000
000000
000000
,
000000
000000
000000
000000
,
000000
000000
100000
000000
000100
000000
000000
000100
001000
000000
000001
000000
100000
000000
000000
000010
,
000000
000000
000010
000000
001000
000000
000000
001000
000001
000000
100000
000000
000001
000000
000000
000000
,
100000
100000
100000
001000
000010
000000
001000
001000
,
100000
000001
001000
000010
100000
000000
000000
000000
,
000010
000010
000010
100000
001000
001000
000100
000001
,
100000
000010
010000
000100
001000
000000
000000
000000
,
000001
000001
000001
001000
000100
000000
000000
000000
,
100000
000100
100000
000100
001000
000000
000001
000000
100000
000000
000000
000000
000000
000000
000000
000000
,
001000
000100
010010
000000
000100
001000
010010
000000
,
100000
000001
100000
001000
000100
000001
010000
010000
,
010010
000000
000000
000010
001000
000000
000000
001000
,
000001
100000
001000
000100
000001
100000
000001
001000
,
001100
000000
000000
000100
100000
000000
000000
100000
,
001000
000100
000001
001000
000001
000100
001000
100000
,
101000
000000
000000
100000
000001
000000
000000
000001
,
001000
001000
000100
100000
001000
000100
000001
100000
,
100001
000000
000000
000001
001000
000000
000000
001000
,
001100
000000
000000
000000
000100
000000
000000
000000
100000
000000
000000
001000
000000
000000
000001
000000
,
000000
000000
000000
000001
000000
000000
000001
000000
000001
001000
000000
000000
100000
000000
000000
001000
000000
000000
000000
000000
000000
010000
000000
000000
,
001000
000000
000100
001000
000000
100000
000100
001000
,
000010
000010
000010
000000
001000
000100
000000
001000
,
000010
000000
001000
000001
000000
000001
000100
001000
,
010000
010000
010000
000000
000001
001000
000000
000010
,
001000
000000
000100
001000
000000
000001
000100
001000
,
010000
010000
010000
000000
001000
000100
000000
001000
,
010000
000000
001000
100000
000000
100000
000100
001000
,
010000
000000
010000
000000
010000
000000
000000
000000
011000
000000
001000
000000
000100
000000
000000
000100
,
100000
000000
000100
000000
001000
000000
000000
000100
000000
000000
001100
000000
001000
000000
000000
001000
,
000001
000000
000001
000000
001000
000000
000000
000010
000000
000000
000100
000000
001000
000000
000000
100000
,
001000
000000
000100
000000
001000
000000
000000
100000
000000
000000
001100
000000
001000
000000
000000
001000
,
000001
000000
000100
000000
000001
000000
000000
010000
000000
000000
010100
000000
000100
000000
000000
000100
,
001000
000000
000001
000000
000100
000000
000000
000001
000000
000000
000101
000000
000001
000000
000000
000001
,
001000
000000
000100
000000
010000
000000
000000
000010
000000
000000
001010
000000
000010
000000
000000
001000
,
000100
000000
100000
000000
001000
000000
000000
000001
000000
000000
000001
000000
001000
000000
100000
000000
,
000100
000000
000001
000000
000100
000000
000000
000000
100000
000100
000000
100000
000100
000000
000000
000000
,
001000
000000
000000
001000
000000
000000
001000
000000
001000
000100
001000
000000
000001
000000
000000
000000
,
000011
000000
000000
000011
000000
000000
000011
000000
000001
001000
000000
000001
001000
000000
000000
000000
,
000100
000000
000000
000100
000000
000000
000100
000000
000100
001000
000100
000000
100000
000000
000000
000000
,
110000
000000
000000
100100
000000
000000
100010
000000
000000
000000
000000
000000
000000
000000
000000
000000
;

//---------------dance-solo - ----------------
#NOTES:
     dance-solo:
     :
     Medium:
     6:
     0.379,0.377,0.327,0.000,0.053:
000000
000000
000000
000000
,
000000
000000
000000
000000
,
100000
000000
000000
000000
001000
000000
000000
000000
000100
000000
000000
000000
000001
000000
000000
000010
,
000000
000000
000001
000000
001000
000001
001000
000000
,
000010
001000
000010
001000
000010
000000
000000
000000
,
010000
001000
010000
001000
010000
000000
000000
000000
,
000010
001000
000010
000000
010000
001000
010000
000000
,
000001
001000
000001
000000
001001
000000
000000
000000
,
100001
001100
100001
000000
,
010010
001100
010010
000000
,
010000
000010
010000
000000
000010
010000
000010
000000
,
100000
000001
100000
000001
100000
000000
100000
000001
,
100001
000000
000000
000001
100000
000000
000000
100000
,
000000
000000
001000
000000
000000
001000
000000
000000
000100
000000
000000
000000
000100
000000
000001
000000
,
010000
000000
000000
010000
001000
000000
000000
000100
,
000000
000000
000001
000000
000000
000001
000000
000000
100000
000000
000000
000000
000100
000000
001000
000000
,
000010
000000
001010
000010
100000
000000
100010
100000
,
000001
000000
000001
000000
000000
000001
000000
000000
000100
000000
000000
000000
001000
000000
100000
000000
,
101000
000000
100000
000001
001001
000000
001000
000100
,
010100
000000
000000
000000
010000
000000
000000
000000
000001
000000
000000
000100
000000
000000
001000
000000
,
000000
100000
001000
000000
001000
000100
000000
000100
,
000001
000000
000001
010000
000000
010000
000100
001000
,
000001
000000
001001
000000
000001
000100
000000
000100
,
001000
000000
001000
100000
000000
100000
000100
001000
,
000010
000000
001010
000000
000010
000100
000000
000100
,
001000
000000
001000
010000
000000
010000
000100
001000
,
000001
000000
000101
000000
000100
001000
000000
001000
,
010000
000000
010000
000010
000000
000000
000010
001000
,
000001
000000
001001
000000
000001
001000
000000
001000
,
100000
000000
100000
001000
000001
000000
100000
000000
,
100001
000000
100001
000000
100000
001000
000000
001000
,
000001
000000
000001
001000
100000
000000
000001
000000
,
100001
000000
100001
000000
100000
000100
000000
000100
,
000001
000000
000001
000100
100000
000000
000001
000000
,
100001
000000
100001
000000
000001
000100
000000
000100
,
100000
000000
100000
000100
000001
000000
100000
000001
,
100001
000000
100001
000000
100000
000100
001000
000000
,
000010
000000
000000
000010
000000
000000
000010
000000
000100
000000
001000
000000
100000
000000
000000
000000
,
100000
000000
000000
100000
000000
000000
100000
000000
000100
000000
001000
000000
000001
000000
000000
000000
,
010000
000000
000000
010000
000000
000000
010000
000000
001000
000000
000100
000000
000001
000000
000000
000000
,
100001
000000
000000
100001
000000
000000
100001
000000
000000
000000
000000
000000
000000
000000
000000
000000
;

//---------------dance-solo - ----------------
#NOTES:
     dance-solo:
     :
     Easy:
     5:
     0.274,0.306,0.093,0.000,0.035: // measure 1
000000
000000
000000
000000
,  // measure 2
000000
000000
000000
000000
,  // measure 3
100000
000000
000000
000000
001000
000000
000000
000000
000100
000000
000000
000000
000001
000000
000000
100001
,  // measure 4
000000
000000
000000
000000
,  // measure 5
000001
001000
000100
000000
,  // measure 6
100000
001000
000001
000000
,  // measure 7
001000
001000
100000
000000
100000
000000
000001
000000
,  // measure 8
000100
000100
001000
000000
001000
000000
000000
000000
,  // measure 9
100000
000100
000001
000000
,  // measure 10
000001
000100
100000
000000
,  // measure 11
000001
000011
100000
110000
,  // measure 12
100000
000000
000100
001000
000100
000000
100000
000001
,  // measure 13
100000
000000
100000
000000
,  // measure 14
001000
000000
000100
001000
000100
000000
000001
100000
,  // measure 15
000001
000000
001000
000000
,  // measure 16
000100
000000
001000
000100
001000
000000
000100
001000
,  // measure 17
001100
000000
000000
001000
000001
000000
000000
000000
,  // measure 18
100000
000000
001000
000000
000100
000000
000001
100000
,  // measure 19
000001
000000
000000
000001
001000
000000
000000
000000
,  // measure 20
001100
000000
000000
000000
000000
000000
000000
000000
000100
000000
000000
100000
000000
000000
001000
000000
,  // measure 21
000000
000000
000000
000000
001100
000000
000000
000100
,  // measure 22
000000
000001
000000
010000
,  // measure 23
000100
000000
001000
000000
000010
000000
000000
000100
,  // measure 24
000000
000000
001000
000000
000000
100000
000100
000100
,  // measure 25
100000
000000
001000
000000
000010
000000
000000
000001
,  // measure 26
000000
001000
000000
000100
,  // measure 27
100000
000000
000010
000000
000100
000000
000000
001000
,  // measure 28
000000
000000
010000
001000
000000
000000
000100
000100
,  // measure 29
000010
000010
001000
000000
011000
000000
001000
000000
,  // measure 30
000001
000000
000100
000000
001000
100000
001000
000000
,  // measure 31
001000
000001
001000
000000
100000
000000
000100
000000
,  // measure 32
001000
000000
000010
000000
010000
001000
010000
000000
,  // measure 33
001000
010000
001000
000000
000100
000000
100000
000000
,  // measure 34
000100
000000
000001
000000
000010
000001
000010
000000
,  // measure 35
000001
000010
000001
000000
001000
000000
000100
000000
,  // measure 36
100000
000000
001000
000000
000100
001000
000100
000000
,  // measure 37
001000
000100
001000
000000
001100
000000
100000
000000
,  // measure 38
000001
000000
000000
000001
000000
000000
000001
000000
001000
000000
000000
000000
000100
000000
000000
000000
,  // measure 39
100000
000000
000000
100000
000000
000000
100000
000000
001000
000000
000000
000000
000100
000000
000000
000000
,  // measure 40
000010
000000
000000
000010
000000
000000
000010
000000
001000
000000
000000
000000
000100
000000
000000
000000
,  // measure 41
010000
000000
000000
010000
000000
000000
010000
000000
000000
000000
000000
000000
000000
000000
000000
000000
;
