#VERSION:0.83;
#TITLE:Hey Ya!;
#SUBTITLE:;
#ARTIST:OutKast;
#TITLETRANSLIT:;
#SUBTITLETRANSLIT:;
#ARTISTTRANSLIT:;
#GENRE:;
#ORIGIN:;
#CREDIT:;
#BANNER:Hey Ya!.png;
#BACKGROUND:Hey Ya!-bg.png;
#PREVIEWVID:;
#JACKET:Hey Ya!-jacket.png;
#CDIMAGE:;
#DISCIMAGE:;
#LYRICSPATH:;
#CDTITLE:;
#MUSIC:Hey Ya!.ogg;
#OFFSET:-0.200000;
#SAMPLESTART:34.910160;
#SAMPLELENGTH:16.603771;
#SELECTABLE:YES;
#BPMS:0.000=159.000;
#STOPS:;
#DELAYS:;
#WARPS:;
#TIMESIGNATURES:0.000=4=4,
16.000=2=4,
18.000=4=4,
38.000=2=4,
40.000=4=4,
60.000=2=4,
62.000=4=4,
82.000=2=4,
84.000=4=4,
104.000=2=4,
106.000=4=4,
126.000=2=4,
128.000=4=4,
148.000=2=4,
150.000=4=4,
170.000=2=4,
172.000=4=4,
192.000=2=4,
194.000=4=4,
214.000=2=4,
216.000=4=4,
236.000=2=4,
238.000=4=4,
258.000=2=4,
260.000=4=4,
280.000=2=4,
282.000=4=4,
302.000=2=4,
304.000=4=4,
324.000=2=4,
326.000=4=4;
#TICKCOUNTS:0.000=4;
#COMBOS:0.000=1;
#SPEEDS:0.000=1.000=0.000=0;
#SCROLLS:0.000=1.000;
#FAKES:;
#LABELS:0.000=Song Start;
#BGCHANGES:;
#KEYSOUNDS:;
#ATTACKS:
;

//---------------dance-single - ----------------
#NOTEDATA:;
#CHARTNAME:;
#STEPSTYPE:dance-single;
#DESCRIPTION:;
#CHARTSTYLE:;
#DIFFICULTY:Challenge;
#METER:8;
#RADARVALUES:0.576009,0.648775,0.427763,0.491136,0.003961,509.000000,455.000000,54.000000,62.000000,0.000000,0.000000,0.000000,0.000000,0.000000,0.576009,0.648775,0.427763,0.491136,0.003961,509.000000,455.000000,54.000000,62.000000,0.000000,0.000000,0.000000,0.000000,0.000000;
#CREDIT:;
#NOTES:
// measure 0
0000
0000
0000
0000
,  // measure 1
1000
0000
0010
0000
1000
0100
0010
0000
,  // measure 2
0001
0000
0100
0000
0001
0010
0100
0000
,  // measure 3
0010
0000
0001
0010
0100
0000
0010
0001
,  // measure 4
1000
0000
0010
0000
0200
0000
0010
0010
,  // measure 5
0000
0001
0301
0000
0100
0000
0101
0010
,  // measure 6
0101
0010
0101
0000
0001
0000
0100
0000
,  // measure 7
0001
0010
0100
0000
1000
0000
0010
0000
,  // measure 8
1000
0100
0010
0000
0100
0000
1000
0100
,  // measure 9
0010
0000
0100
1000
0001
0000
0100
0000
,  // measure 10
0020
0000
0100
0100
0000
1000
1030
0000
,  // measure 11
0010
0000
1010
0100
1010
0100
1010
0000
,  // measure 12
1000
0000
0010
0000
0100
0010
0001
0000
,  // measure 13
0010
0000
0001
0010
0100
0000
0001
0010
,  // measure 14
0100
0000
0010
0100
1000
0000
1000
0010
,  // measure 15
0100
0000
0010
0000
0200
0000
0010
0010
,  // measure 16
0000
0001
0301
0000
0100
0000
0101
0010
,  // measure 17
0101
0010
0101
0000
0001
0000
0100
0000
,  // measure 18
0010
0100
1000
0000
0100
0000
1000
0100
,  // measure 19
0010
0000
1000
0100
0010
0000
0100
0010
,  // measure 20
0001
0000
0001
0100
0010
0000
0100
0000
,  // measure 21
0020
0000
0100
0100
0000
1000
1030
0000
,  // measure 22
0010
0000
1010
0100
1010
0100
1010
0000
,  // measure 23
1000
0000
0100
0000
2000
3020
0230
0302
,  // measure 24
0013
0000
0100
1000
0000
0001
0100
0000
,  // measure 25
0010
0000
0100
0000
0002
0023
0230
2300
,  // measure 26
3200
0320
0032
2003
3020
0230
0320
1030
,  // measure 27
0000
0001
0010
0000
0100
0000
0010
0001
,  // measure 28
0100
0001
0010
0100
1000
1000
0010
0000
,  // measure 29
2000
3200
0320
0032
0103
0000
0001
1000
,  // measure 30
0010
0100
0001
0010
0100
1000
0001
0000
,  // measure 31
0002
0203
0320
2030
3020
0230
0302
2003
,  // measure 32
3200
0320
0230
1300
0000
0001
0100
0000
,  // measure 33
0010
0000
0100
0001
0010
0001
0100
0010
,  // measure 34
1000
1000
0100
0000
2000
3020
0230
0302
,  // measure 35
0013
0000
0001
1000
0100
0010
0001
0100
,  // measure 36
0010
1000
0001
0000
0002
0023
0230
2300
,  // measure 37
3200
0320
0032
2003
3020
0230
0320
1030
,  // measure 38
0000
0001
0010
0000
0001
0010
1000
0001
,  // measure 39
0000
0110
0000
1001
1000
0010
0001
1000
,  // measure 40
0000
0002
2003
3200
0301
1000
0100
0010
,  // measure 41
0000
0110
0000
1001
1000
0010
0001
1000
,  // measure 42
0000
0002
2003
3200
0302
2003
3200
0320
,  // measure 43
0032
2003
3020
0130
0000
0010
1000
0000
,  // measure 44
0001
0000
0010
0100
0000
0010
0001
1000
,  // measure 45
0001
0000
0100
0010
0000
0100
1000
0000
,  // measure 46
1000
0000
0100
0010
0000
0100
0001
0001
,  // measure 47
1000
0000
0100
0010
0000
0100
0001
0000
,  // measure 48
0101
0000
0010
0000
0011
0000
0010
0100
,  // measure 49
0000
0010
0001
0000
0011
0000
0001
1000
,  // measure 50
0000
0100
0010
0001
1000
0000
0010
0100
,  // measure 51
0000
0010
0001
0000
0001
0000
0010
0100
,  // measure 52
0000
0010
1000
0100
0010
0001
0100
0010
,  // measure 53
1000
0100
0010
0001
0100
0010
1000
0100
,  // measure 54
0010
0001
0100
0010
1000
0100
0010
1000
,  // measure 55
0010
0100
1000
0100
0010
0001
1000
0000
,  // measure 56
1000
0000
0010
0100
0000
0010
0001
0000
,  // measure 57
0001
0000
0010
0100
0000
0010
1000
1000
,  // measure 58
0001
0000
0010
0100
0000
0010
1000
0000
,  // measure 59
1010
0000
0100
0000
1100
0000
0100
0010
,  // measure 60
0000
0100
1000
0000
1100
0000
1000
0001
,  // measure 61
0000
0010
0100
1000
0001
0000
0100
0010
,  // measure 62
0000
0100
1000
0000
1000
0000
0100
0010
,  // measure 63
0000
0100
0001
0001
1000
0000
0100
0010
,  // measure 64
0000
0100
0001
0000
0101
0000
0010
0000
,  // measure 65
0011
0000
0010
0100
0000
0010
0001
0000
,  // measure 66
0011
0000
0000
0000
0001
0000
1000
0000
0000
0000
0100
0010
0100
0000
1000
0000
,  // measure 67
1100
1000
0001
1001
0000
1010
0100
0000
,  // measure 68
1010
0010
0100
0110
0000
1001
0000
0000
,  // measure 69
1010
1000
0001
1001
0000
1100
0010
0000
,  // measure 70
1100
0000
0011
0000
1100
0100
0010
0110
,  // measure 71
0000
1001
0000
0000
0010
0001
0100
1000
,  // measure 72
0100
0001
0010
0000
0011
0001
1000
1001
,  // measure 73
0000
0101
0010
0000
0101
0001
1000
1001
,  // measure 74
0000
0011
0100
0000
0011
0001
1000
1001
,  // measure 75
0000
0101
0010
0000
0101
0000
1010
0000
,  // measure 76
0101
0001
1000
1001
0000
0011
0100
0010
,  // measure 77
0001
0100
1000
0010
0001
0100
0010
0000
,  // measure 78
1001
0000
0000
0000
;
