#TITLE:Green Light (Chromeo Remix);
#SUBTITLE:;
#ARTIST:Lorde;
#TITLETRANSLIT:;
#SUBTITLETRANSLIT:;
#ARTISTTRANSLIT:;
#GENRE:;
#CREDIT:;
#BANNER:[Prime Time] - Green Light (Chromeo Remix)-bn.png;
#BACKGROUND:[Prime Time] - Green Light (Chromeo Remix)-bg.png;
#LYRICSPATH:;
#CDTITLE:;
#MUSIC:[Prime Time] - Green Light (Chromeo Remix).ogg;
#OFFSET:-0.000000;
#SAMPLESTART:90.000000;
#SAMPLELENGTH:15.124000;
#SELECTABLE:YES;
#BPMS:0.000000=121.000000
;
#STOPS:
;
#BGCHANGES:;
#KEYSOUNDS:;
#ATTACKS:;

//---------------dance-single - ----------------
#NOTES:
     dance-single:
     :
     Hard:
     8:
     0.363166,0.427793,0.050554,0.570541,0.202217,352.000000,345.000000,7.000000,79.000000,0.000000,0.000000,0.363166,0.427793,0.050554,0.570541,0.202217,352.000000,345.000000,7.000000,79.000000,0.000000,0.000000:
// measure 0
0000
0000
0000
0000
,  // measure 1
0000
0000
0000
0000
,  // measure 2
0000
0000
0000
0000
,  // measure 3
0000
0000
0000
0000
,  // measure 4
0000
0010
0100
1000
0100
0001
0010
0000
,  // measure 5
0000
0100
1000
0100
0001
0100
1000
0000
,  // measure 6
0100
0000
0000
0001
0000
0000
0100
0000
0010
0000
2000
0000
0000
0000
3000
0000
,  // measure 7
0010
0000
0000
1000
0000
0000
0010
0000
0001
0000
0100
0000
0010
0000
0100
0000
,  // measure 8
0020
0000
0000
1030
0100
0010
0100
0001
,  // measure 9
0200
0300
0010
0001
0200
0300
0002
0003
,  // measure 10
1000
0000
0000
0001
0000
0000
1000
0000
0100
0000
0020
0000
0000
0000
0000
0000
,  // measure 11
0031
0000
0000
1000
0000
0000
0001
0000
0010
0000
0100
0000
1000
0000
0100
0000
,  // measure 12
0010
0100
1000
0010
0100
0001
0010
0100
,  // measure 13
0010
0001
1000
0100
0010
0001
0200
0300
,  // measure 14
0010
0000
0000
0001
0000
0000
0010
0000
1000
0000
0020
0000
0000
0000
0000
0000
,  // measure 15
0031
0000
0000
1000
0000
0000
0001
0000
0010
0000
0100
0000
1000
0000
0100
0000
,  // measure 16
0020
0000
0000
0130
1000
0100
0010
0100
,  // measure 17
0001
0100
0010
0100
2002
3003
1001
0000
,  // measure 18
1000
0000
0000
0001
0000
0000
1000
0000
0100
0000
0020
0000
0000
0000
0000
0000
,  // measure 19
0031
0000
0000
1000
0000
0000
0001
0000
0010
0000
0200
0000
0000
0000
0000
0000
,  // measure 20
0300
0010
0010
0000
0100
0000
1000
0000
,  // measure 21
1001
0110
0011
1100
,  // measure 22
0110
0000
0000
0000
0000
0000
1000
0010
0001
0000
0000
0000
0010
0000
0000
0000
,  // measure 23
0000
0000
0100
1000
0100
0000
0010
0001
0010
0000
0100
1000
0100
0000
0010
0000
,  // measure 24
0001
0000
0000
0000
0000
0000
0000
0000
0000
0000
1000
0100
1000
0000
0001
0000
,  // measure 25
0100
0020
0230
0302
,  // measure 26
1003
0000
0000
0000
0000
0000
0001
0100
1000
0000
0000
0000
0100
0000
0000
0000
,  // measure 27
0000
0000
0010
1000
0010
0000
0100
0001
0100
0000
0010
1000
0010
0000
0100
0000
,  // measure 28
0001
0000
0000
0000
0000
0000
0000
0000
0000
0000
1000
0100
1000
0000
0001
0000
,  // measure 29
0100
0000
0000
0000
0000
0000
0010
0100
0010
0100
0000
0000
,  // measure 30
0000
0000
0000
0000
0000
0000
1000
0000
0100
0000
0000
0001
0000
0000
0000
2000
,  // measure 31
0000
0000
0000
3000
0001
0010
0000
0000
,  // measure 32
1000
0000
0000
0010
0001
0010
1000
0001
,  // measure 33
0100
0000
0000
1000
0000
0000
0010
0000
1000
0000
0100
0000
1000
0000
0010
0000
,  // measure 34
0200
0000
0000
0000
0000
0000
0300
0000
0100
0000
0000
0001
0000
0000
0000
2000
,  // measure 35
0000
0000
0000
3000
0001
0010
0000
0000
,  // measure 36
1000
0000
0000
0010
0001
0010
1000
0001
,  // measure 37
0100
0000
0000
1000
0000
0000
0100
0000
0001
0000
0000
0100
0000
0000
2000
0000
,  // measure 38
0000
0000
0000
0000
3000
0000
0010
0000
0100
0000
0000
0010
0000
0000
0002
0000
,  // measure 39
0000
0000
0003
0010
1000
0100
1000
0010
,  // measure 40
0000
0000
0000
1000
0001
0010
0001
1000
,  // measure 41
0010
0000
0000
0100
0000
0000
1000
0000
0001
0000
0000
1000
0000
0000
0002
0000
,  // measure 42
0000
0000
0000
0000
0003
0000
1000
0000
0100
0000
0000
0010
0000
0000
0002
0000
,  // measure 43
0000
0000
0003
0010
1000
0000
0100
0010
,  // measure 44
0000
0000
0100
0000
0100
0000
1000
0000
0002
0000
0003
0020
0000
0030
2000
3000
,  // measure 45
0020
0000
0030
0002
0000
0003
2000
3000
0002
0000
0003
0200
0000
0300
0002
0000
,  // measure 46
0000
0000
0000
0000
0003
0000
1000
0000
0100
0000
0000
0010
0000
0000
1000
0000
,  // measure 47
0000
0000
0000
0000
0010
0000
0100
0000
1000
0000
0000
0010
0000
0000
0001
0000
,  // measure 48
0000
0000
0010
0000
0100
0000
0001
0000
2000
0000
3000
0020
0000
0030
2000
3000
,  // measure 49
0200
0000
0300
0002
0000
0003
0200
0300
0001
0000
0000
0100
0000
0000
2000
0000
,  // measure 50
0000
0000
0000
0000
3000
0000
0001
0000
0100
0000
0000
0010
0000
0000
0002
0000
,  // measure 51
0000
0003
0010
0010
1000
0000
0100
0010
,  // measure 52
0000
0000
0100
0000
0100
0000
1000
0000
0002
0000
0003
0020
0000
0030
2000
3000
,  // measure 53
0020
0000
0000
0000
0000
0000
0030
0000
0000
0002
0000
0000
0000
0000
0000
0003
0000
0000
2000
0000
0000
3000
0000
0000
0001
0000
0000
0000
1000
0000
0000
0000
0100
0000
0000
0000
0010
0000
0000
0000
0000
0000
0002
0000
0000
0000
0000
0000
,  // measure 54
0000
0000
0000
0000
0003
0000
1000
0000
0100
0000
0000
0010
0000
0000
2000
0000
,  // measure 55
0000
0000
3000
0000
0010
0000
0100
0000
2000
0000
3000
0020
0000
0030
0002
0003
,  // measure 56
0000
0000
0010
0000
0100
0000
0001
0000
2000
0000
3000
0020
0000
0030
2000
3000
,  // measure 57
0200
0000
0300
0002
0000
0003
0200
0300
0001
0000
0000
0100
0000
0000
2000
0000
,  // measure 58
0000
0000
0000
0000
3000
0000
0001
0000
0010
0000
0000
0100
0000
0000
0002
0000
,  // measure 59
0000
0000
0003
0100
1000
0000
0010
0200
,  // measure 60
0300
0000
0010
0000
0010
0000
1000
0000
0002
0000
0003
0200
0000
0300
2000
3000
,  // measure 61
0200
0000
0300
0002
0000
0003
2000
3000
0002
0000
0003
0020
0000
0030
0000
0000
,  // measure 62
0002
0000
0000
0000
,  // measure 63
0203
0000
0000
0000
,  // measure 64
0320
0000
0000
0000
,  // measure 65
2030
0000
0000
3000
0100
1000
0100
0000
,  // measure 66
2000
0000
3000
0100
0010
0100
0001
0100
,  // measure 67
0020
0000
0030
0001
1000
0001
0100
0001
,  // measure 68
1000
0000
0100
0000
0001
0000
0100
0000
2000
0000
3000
0020
0000
0030
0100
0000
,  // measure 69
0002
0000
0003
0020
0000
0030
0100
0000
0002
0000
0003
0100
0000
0000
0000
0000
;
