#TITLE:FIVE#05;
#SUBTITLE:;
#ARTIST:Ras;
#TITLETRANSLIT:;
#SUBTITLETRANSLIT:;
#ARTISTTRANSLIT:;
#GENRE:;
#CREDIT:;
#BANNER:[Prime Time] - FIVE#05.png;
#BACKGROUND:[Prime Time] - FIVE#05-bg.png;
#LYRICSPATH:;
#CDTITLE:;
#MUSIC:[Prime Time] - FIVE#05.ogg;
#OFFSET:-1.253000;
#SAMPLESTART:43.102016;
#SAMPLELENGTH:15.000000;
#SELECTABLE:YES;
#BPMS:0.000000=149.000000
;
#STOPS:
;
#BGCHANGES:;
#KEYSOUNDS:;
#ATTACKS:;

//---------------dance-single - ----------------
#NOTES:
     dance-single:
     :
     Hard:
     8:
     0.557490,0.534043,0.101667,0.430128,0.273718,431.000000,13.000000,55.000000,0.000000,0.000000,0.000000,0.557490,0.534043,0.101667,0.430128,0.273718,431.000000,13.000000,55.000000,0.000000,0.000000,0.000000:
0000
0000
0000
0000
,
0000
0000
0000
0000
,
0000
0000
0000
0000
,
0000
0000
0000
0000
,
1000
0000
0100
0000
1000
0000
0000
0000
0100
0000
0000
0010
0000
0000
0010
0000
,
0001
0000
0100
0000
0001
0000
0000
0100
0000
0000
0010
0000
0000
0000
0010
0000
,
1000
0000
0001
0000
0010
0000
0000
0000
0100
0000
0000
1000
0000
0000
1000
0000
,
0001
0000
1000
0000
0010
0000
0000
0100
0000
0000
0010
0000
0000
0000
0010
0000
,
0220
0000
0000
0300
,
1000
0000
0001
0000
1000
0000
0130
0100
,
0001
0100
0010
0100
0001
0100
0010
0100
,
0001
1000
0100
1000
0001
1000
0100
1000
,
0100
0010
0100
1000
0100
0010
0100
1000
,
0010
1000
0010
0100
0001
0100
0010
0010
,
1000
0100
0001
0100
1000
0100
0001
0100
,
0010
0001
0010
0100
0010
0001
0010
0100
,
0010
0001
0100
0010
1000
0100
0010
0001
,
0100
1000
0100
0001
0100
0010
2000
0000
,
3002
0000
0000
0000
0103
0000
0000
0000
0001
0000
0000
0001
0010
0000
0100
0000
,
2000
0000
0000
0000
3100
0000
0000
0000
1000
0000
0000
1000
0010
1000
0000
0000
,
0020
0000
0000
0000
0130
0000
0000
0000
0010
0000
0000
0010
1000
0000
0001
0000
,
0020
0000
0000
0000
0130
0000
0000
0000
0010
0000
0000
0010
0001
0010
0000
0000
,
0001
0000
0000
0001
1000
0000
0000
0000
0100
0000
0000
0100
1000
0000
0001
0000
,
1000
0000
0000
1000
0001
0000
0000
0000
0100
0000
0000
0100
0001
0000
1000
0000
,
0010
0100
0010
0100
0001
1000
0001
1000
,
0200
0001
1000
0300
,
1000
0000
0000
1000
0100
0000
0000
0100
1000
0000
0000
1000
0001
0000
1000
0000
,
0001
0000
0000
0001
0100
0000
0000
0100
0010
0000
0000
0010
1000
0000
0001
0000
,
1000
0000
0000
1000
0010
0000
0000
0010
1000
0000
0000
1000
0001
0000
1000
0000
,
0001
0000
0000
0001
1000
0000
0000
1000
0100
0000
0010
0000
0100
0000
0010
0000
,
0001
0000
0000
0001
0100
0000
0000
0100
0001
0000
0000
0001
1000
0000
0010
0000
,
1000
0000
0000
1000
0100
0000
0000
0100
0010
0000
0000
0010
0001
0000
0100
0000
,
0001
0000
0000
0001
0100
0000
0000
1000
0100
0000
0000
0001
0100
0000
0100
0000
,
0020
0000
0000
0030
,
2000
0000
0000
0000
3002
0000
0000
0000
0013
0000
0000
0011
0000
0000
0001
0000
,
1000
0000
0000
1010
0000
0000
0010
0100
0000
0100
0010
0000
0100
0000
0001
0000
,
1000
1000
0100
0010
0001
0100
0001
0010
,
0001
0000
0000
0100
0000
0000
0010
0000
1000
0000
0000
0100
0000
0000
0000
0000
,
0020
0000
0000
0000
0230
0000
0000
0000
1300
0000
0000
1100
0000
0000
1000
0000
,
0001
0000
0000
0101
0000
0000
0100
0010
0000
0010
0100
0000
0010
0000
1000
0000
,
0001
0000
0001
0000
0100
0000
0010
0000
1000
0000
0000
0100
0000
0000
0010
0000
,
0000
0001
0000
0000
0100
0000
0000
0010
0000
0000
1000
0000
0002
0000
0000
0000
,
0023
0000
0000
0000
,
0000
0000
0000
0030
,
0002
0003
0002
0000
0020
0030
0023
0000
,
0200
0300
0230
0000
2000
3000
2300
0000
,
3100
0000
0000
1000
0000
0000
0012
0000
0000
0000
0000
0000
0003
0000
0100
0000
,
0100
0000
0000
0001
0000
0000
2010
0000
0000
0000
0000
0000
3000
0000
0100
0000
,
2000
3000
2000
0000
0020
0030
3020
0000
,
0200
0300
0230
0000
0301
0000
1001
0000
,
1000
0000
0000
0100
1000
0000
0001
0000
1000
0000
0000
0100
1000
0000
0001
0000
,
0010
0000
0000
0001
1000
0000
0001
0000
0010
0000
0000
0001
1000
0000
0010
0000
,
0100
0000
0000
0100
0000
0000
0001
0000
0000
0001
0000
0000
0010
0000
0100
0000
,
0000
0100
0000
0000
1000
0000
0000
1000
0000
0000
1000
0000
0010
0000
0100
0000
,
0001
0000
0000
0100
0001
0000
1000
0000
0001
0000
0000
0100
0001
0000
1000
0000
,
0010
0000
0000
1000
0001
0000
1000
0000
0010
1000
0000
1000
0001
0000
0010
0000
,
0100
0000
0000
0100
0000
0000
1000
0000
0000
1000
0000
0000
0010
0000
0100
0000
,
0000
0100
0000
0000
0001
0000
0000
0001
0000
0000
0100
0000
0020
0000
0000
0000
,
0130
0001
1000
0200
0000
1300
0001
0020
,
0000
0000
0130
0000
0000
0000
0100
0000
0010
0000
0000
1100
0000
0000
0001
0000
,
0010
0001
0100
0020
0000
0130
0001
2000
,
0000
3100
0000
0100
1000
0001
1000
0100
,
0010
0000
0000
0000
0010
0000
0001
0000
1000
0000
0000
0100
1000
0000
1000
0000
,
0010
0000
1000
0001
0200
0302
2003
3020
,
1030
0000
0001
0020
0000
0031
1000
0200
,
0000
2300
0000
3002
0000
0023
0000
0031
,
0100
0010
1000
0010
0100
0001
1000
0020
,
0000
0000
0100
0000
0000
0000
0100
0000
1030
0000
0000
1000
0100
0000
1000
0000
,
0010
0100
0001
0100
0010
1000
0001
0020
,
0000
0001
0000
0100
0031
0001
1000
0001
,
0100
0000
0100
0002
0000
0103
0010
2000
,
0000
0000
3002
0000
0000
0000
1003
0000
0100
0000
0000
1000
0000
0000
0001
0000
,
2000
0000
0000
3200
0000
1300
0001
0020
,
0000
0000
0000
0200
0000
0000
0330
0000
,
1001
0000
0000
0000
,
1100
0000
0101
0000
1100
0000
0002
0013
;

//---------------dance-single - ----------------
#NOTES:
     dance-single:
     :
     Challenge:
     9:
     0.739596,0.771395,0.226795,0.430128,0.656922,578.000000,29.000000,55.000000,0.000000,0.000000,0.000000,0.739596,0.771395,0.226795,0.430128,0.656922,578.000000,29.000000,55.000000,0.000000,0.000000,0.000000:
// measure 0
0000
0000
0000
0000
,  // measure 1
0000
0000
0000
0000
,  // measure 2
0000
0000
0000
0000
,  // measure 3
0000
0000
0000
0000
,  // measure 4
1000
0000
0000
0100
1000
0000
0001
0000
0010
0000
0000
1001
0000
0000
1000
0000
,  // measure 5
0001
0000
0000
0100
0001
0000
0000
0101
0000
0000
1010
0000
0000
0000
0001
0000
,  // measure 6
1000
0000
0000
0010
0100
0000
0100
0000
0001
0000
0000
0110
0000
0000
1000
0000
,  // measure 7
0001
0000
0000
1000
0100
1000
0000
0001
0010
0000
0100
0000
1000
0001
1000
0001
,  // measure 8
0020
0000
0000
0000
0000
0000
0030
0001
,  // measure 9
2002
0000
3003
0000
0220
0000
0330
0000
2002
3003
0000
0001
1000
0001
1000
0001
,  // measure 10
0100
0001
0010
0001
0100
0001
0010
0001
,  // measure 11
1000
0100
1000
0010
1000
0100
1000
0010
,  // measure 12
0100
0001
0100
0010
0100
0001
0100
0010
,  // measure 13
1000
0000
0100
0000
0010
0000
0100
0000
1000
0000
0100
0000
0010
0000
0010
0001
,  // measure 14
0010
0100
1000
0100
0001
0100
1000
0001
,  // measure 15
0100
0010
0001
0010
1000
0010
0001
0010
,  // measure 16
0100
0001
1000
0001
0010
0100
1000
0001
,  // measure 17
1000
0010
0100
0010
1000
0001
0201
0000
,  // measure 18
0310
0000
0000
1000
0010
0000
0100
0000
0010
0000
0000
1000
0001
1000
0000
0000
,  // measure 19
0100
0000
0000
0010
0001
0000
0010
0000
0100
0000
1000
0000
0001
0010
0000
0010
,  // measure 20
0001
0000
0000
0100
0010
0000
0100
0000
0001
0000
0000
1000
0001
1000
0000
0000
,  // measure 21
0010
0000
0000
0100
0010
0000
1000
0000
0001
0000
0001
0000
1000
0100
1000
0100
,  // measure 22
0010
0000
0000
0010
0001
0000
0000
0001
0100
0000
0000
0100
0001
0000
1000
0000
,  // measure 23
0010
0000
0000
0010
1000
0000
0000
1000
0100
0000
0000
0100
1000
0000
0001
0000
,  // measure 24
0010
0001
1000
0100
1000
0010
0100
0001
,  // measure 25
2000
0100
3001
0110
,  // measure 26
0001
0000
1000
0010
0000
0010
1000
0000
0001
0100
0000
0010
0000
0100
0001
0000
,  // measure 27
1000
0000
0100
0010
0000
0010
0100
0000
1000
0001
0000
0010
0000
0010
0100
0000
,  // measure 28
1000
0000
0001
0100
0000
0100
0001
0000
1000
0010
0000
0100
0000
0010
1000
0000
,  // measure 29
0001
0000
0010
0100
0000
0100
0010
0000
0001
1000
0001
0100
0001
1000
0001
0100
,  // measure 30
0010
0000
1000
0010
0000
0010
0100
0000
0001
1000
0000
0001
0000
0010
0100
0000
,  // measure 31
0010
0000
0001
1000
0000
1000
0100
0000
1000
0001
0000
0100
0000
0100
0010
0000
,  // measure 32
0100
0000
0001
0010
0000
0010
0001
0000
0010
0100
0000
1000
0000
0001
0100
0000
,  // measure 33
0001
0000
1000
0001
0000
0001
0010
0100
0000
0100
1000
0001
1000
0010
0100
0001
,  // measure 34
2000
0000
0000
0000
3020
0000
0000
0000
1030
0000
0000
0001
0000
1000
0001
1000
,  // measure 35
0100
0000
0000
0010
0000
0010
0100
1000
0000
1000
0100
1000
0002
0000
0203
0000
,  // measure 36
0301
0000
0001
0000
1000
0000
1000
0000
0010
1000
0010
1000
0001
0100
0001
0100
,  // measure 37
0010
0000
1000
0010
0000
0010
0100
0000
0001
0000
0001
0010
0000
0000
0000
0000
,  // measure 38
1002
0000
0000
0000
0203
0000
0000
0000
0301
0000
0000
1000
0000
0001
1000
0001
,  // measure 39
0100
0000
0000
0010
0000
0010
0100
0001
0000
0001
0100
0001
1000
0100
1000
0100
,  // measure 40
0010
0000
0001
0000
1000
0000
0010
0000
1000
0010
1000
0001
0100
0001
1000
0100
,  // measure 41
1000
0001
0000
1000
0001
0000
0100
0001
1000
0001
0010
0100
0020
0000
0032
0000
,  // measure 42
2003
0000
0000
0100
0000
0000
0010
0000
0000
0000
0000
0000
3000
0000
0001
0000
,  // measure 43
0002
0000
0000
0100
0000
0000
0010
0000
0000
0000
0000
0000
0003
0000
1000
0000
,  // measure 44
1000
0200
0310
0200
0301
0200
0310
0200
,  // measure 45
1300
0020
0130
0020
0031
0020
0130
0020
,  // measure 46
2030
0000
0000
0100
0000
0000
0010
0000
0000
0000
0000
0000
3000
0000
0001
0000
,  // measure 47
0002
0000
0000
0100
0000
0000
0010
0000
0000
0000
0000
0000
0003
0000
1000
0000
,  // measure 48
1000
0200
0301
0200
1300
0020
0031
0020
,  // measure 49
1030
0000
0000
0001
0000
0000
0000
0000
0000
0001
0000
0000
1000
0000
0000
0000
0000
0000
1000
0000
0000
0100
0000
0000
1000
0000
0000
0000
0100
0000
0000
0000
0010
0000
0000
0000
0002
0000
0000
0000
0000
0000
0000
0000
0000
0000
0000
0000
,  // measure 50
1003
0000
0000
1000
0100
0000
0000
0100
1000
0000
0000
1000
0001
0000
1000
0000
,  // measure 51
0001
0000
0000
0001
0100
0000
0000
0100
0001
0000
0000
0001
0100
0000
0010
0000
,  // measure 52
1000
0000
0000
1100
0000
0000
1001
0000
0000
1100
0000
0000
0001
0000
0100
0000
,  // measure 53
0000
0101
0000
0000
1001
0000
0000
0101
0000
0000
0100
0000
0010
0000
0100
0000
,  // measure 54
0001
0000
0000
0001
0010
0000
0000
0010
0001
0000
0000
0001
1000
0000
0001
0000
,  // measure 55
1000
0000
0000
1000
0010
0000
0000
0010
1000
0000
0000
1000
0010
0000
0100
0000
,  // measure 56
0001
0000
0000
0011
0000
0000
1001
0000
0000
0011
0000
0000
1000
0000
0010
0000
,  // measure 57
0000
1010
0000
0000
0110
0000
0000
0010
0100
0000
0000
1001
0000
0000
1001
0000
,  // measure 58
1000
0000
0000
0100
0010
0000
0100
0000
1000
0000
0000
0010
0100
0000
0010
0000
,  // measure 59
1000
0000
0000
0100
0010
0000
0100
0000
1000
0001
0000
0001
1000
0000
1000
0000
,  // measure 60
0001
0000
0000
0100
0010
0000
0100
0000
0001
0000
0000
0010
0100
0000
0010
0000
,  // measure 61
0001
0000
0000
0100
0010
0000
0100
0000
0002
0000
0203
0000
0320
0000
2030
0000
,  // measure 62
3010
0000
0000
1000
0001
0000
0001
0000
0010
0000
0000
0001
1000
0000
1000
0000
,  // measure 63
0010
0000
0000
1000
0001
0000
0001
0000
0200
0000
0302
0000
2003
0000
3200
0000
,  // measure 64
0310
0000
0001
0010
0001
0000
2000
0000
0000
0000
3010
0000
0100
0000
0001
0000
,  // measure 65
0000
1100
0000
0102
0000
1003
0000
0001
,  // measure 66
0100
0000
0010
1000
0010
0000
0100
0001
0100
0000
0010
1000
0010
0000
0100
0001
,  // measure 67
0100
0000
0010
0000
0010
0000
1000
0000
0002
0000
0000
2003
0000
0000
3100
0000
,  // measure 68
0100
0000
0010
0001
0010
0000
0100
1000
0100
0000
0010
0001
0010
0000
0100
1000
,  // measure 69
0100
0100
1000
1000
0002
2003
3002
0203
,  // measure 70
0310
0000
1000
0010
0100
0000
0001
0100
0010
0000
1000
0010
0100
0000
0001
0100
,  // measure 71
0010
0000
1000
0001
0010
0000
0001
1000
0100
0000
1000
0001
0010
0000
0001
0000
,  // measure 72
2000
0000
0000
3002
0000
0103
0001
0020
,  // measure 73
0000
0000
0000
0200
0000
0000
0330
0000
,  // measure 74
1001
0000
0000
0000
,  // measure 75
0101
1000
1100
0001
0101
1000
0200
0310
;

//---------------dance-single - ----------------
#NOTES:
     dance-single:
     :
     Beginner:
     1:
     0.099432,0.148101,0.062564,0.000000,0.000000,81.000000,8.000000,0.000000,0.000000,0.000000,0.000000,0.099432,0.148101,0.062564,0.000000,0.000000,81.000000,8.000000,0.000000,0.000000,0.000000,0.000000:
0000
0000
0000
0000
,
0000
0000
0000
0000
,
0000
0000
0000
0000
,
0000
0000
0000
0000
,
0000
0000
0000
0000
,
0000
0000
0000
0000
,
0000
0000
0000
0000
,
0000
0000
0000
0000
,
1001
0000
0000
0000
,
0100
0100
0100
0000
,
1000
0000
0000
0000
,
0100
0000
0000
0000
,
1000
0000
0000
0000
,
0100
0000
0000
0000
,
0001
0000
0000
0000
,
0100
0000
0000
0000
,
0001
0000
0000
0000
,
0100
0000
0000
0000
,
1000
0000
0000
0000
,
0010
0000
0000
0000
,
0001
0000
0000
0000
,
0010
0000
0000
0000
,
1000
0000
0000
0000
,
0001
0000
0000
0000
,
1000
0000
0001
0000
,
0100
0100
0100
0000
,
0001
0000
0000
0000
,
0100
0000
0000
0000
,
0010
0000
0000
0000
,
0001
0000
0001
0000
,
1000
0000
0000
0000
,
0100
0000
0000
0000
,
0010
0000
0000
0000
,
1001
0000
0000
0000
,
0100
0000
0000
0000
,
0100
0000
0000
0000
,
0010
0010
0000
0000
,
0010
0000
0000
0000
,
0100
0000
0000
0000
,
0100
0000
0000
0000
,
0010
0010
0000
0000
,
0010
0000
0000
0000
,
1001
0000
0000
0000
,
0000
0000
0000
0000
,
0110
0000
0000
0000
,
0000
0000
0000
0000
,
1001
0000
0000
0000
,
0000
0000
0000
0000
,
0110
0000
0000
0000
,
0000
0000
0000
0000
,
1000
0000
0000
0000
,
0001
0000
0000
0000
,
0100
0000
0100
0000
,
0100
0000
0000
0000
,
0001
0000
0000
0000
,
1000
0000
0000
0000
,
0100
0000
0100
0000
,
0100
0000
0000
0000
,
1000
0000
1000
0000
,
0010
0000
0000
0000
,
1000
0000
1000
0000
,
0001
0000
0000
0000
,
0010
0000
0010
0000
,
0001
0000
0000
0000
,
1000
0000
0000
0000
,
1001
0000
0000
0000
,
0001
0000
0001
0000
,
0100
0000
0000
0000
,
0001
0000
0001
0000
,
1000
0000
0000
0000
,
0010
0000
0010
0000
,
0100
0000
0000
0000
,
0001
0000
0000
0000
,
1000
0000
0000
0000
,
1001
0000
0000
0000
,
0100
0000
0000
0010
;

//---------------dance-single - ----------------
#NOTES:
     dance-single:
     :
     Easy:
     3:
     0.223443,0.236961,0.031282,0.258077,0.000000,163.000000,4.000000,33.000000,0.000000,0.000000,0.000000,0.223443,0.236961,0.031282,0.258077,0.000000,163.000000,4.000000,33.000000,0.000000,0.000000,0.000000:
0000
0000
0000
0000
,
0000
0000
0000
0000
,
0000
0000
0000
0000
,
0000
0000
0000
0000
,
1000
0000
1000
0000
,
0001
0000
0001
0000
,
1000
0000
0001
0000
,
0100
0000
0010
0000
,
1001
0000
0000
0000
,
0100
0100
0100
0000
,
0001
0000
0100
0000
,
0010
0000
0100
0000
,
0001
0000
1000
0000
,
0010
0000
1000
0000
,
0001
0000
0010
0000
,
0100
0000
0010
0000
,
0001
0000
1000
0000
,
0010
0010
0010
0000
,
1000
0000
0100
0000
,
0010
0000
0100
0000
,
1000
0000
0001
0000
,
0010
0000
0001
0000
,
1000
0000
0010
0000
,
0100
0000
0010
0000
,
1000
0000
0001
0000
,
0010
0100
0020
0030
,
0001
0000
0100
0100
,
0001
0000
1000
1000
,
0001
0000
0010
0010
,
0002
0003
2000
3000
,
1000
0000
0100
0100
,
1000
0000
0001
0001
,
1000
0000
0010
0000
,
2002
0000
0000
3003
,
1000
0001
0200
0300
,
0200
0300
0200
0300
,
0001
0000
0001
0000
,
1000
0000
1000
0000
,
0001
1000
0200
0300
,
0200
0300
0200
0300
,
1000
0000
1000
0000
,
0001
1000
0001
0000
,
0110
0000
0000
0000
,
0000
0000
0000
0000
,
1000
0000
1000
0000
,
0001
0000
0001
0000
,
1000
0000
0100
0000
,
0010
0000
0001
0000
,
1000
0000
0010
0000
,
0100
0000
0001
0000
,
1000
0100
1000
0000
,
0001
0100
0001
0000
,
0010
0000
0100
0000
,
0100
0000
0010
0000
,
0001
0100
0001
0000
,
1000
0100
1000
0000
,
0100
0000
0010
0000
,
0010
0000
0100
0000
,
2000
3000
0001
0010
,
0002
0003
2000
3000
,
0002
0003
1000
0010
,
2000
3000
0200
0300
,
0020
0030
0010
0001
,
2000
3000
2000
3000
,
0020
0030
0010
1000
,
0002
0003
2000
3000
,
0002
0003
0100
0010
,
0200
0300
0002
0003
,
2000
3000
0100
0010
,
0002
0003
0020
0030
,
0200
0300
1000
0001
,
0200
0300
0001
1000
,
0020
0030
1000
0001
,
0020
0000
0000
0030
,
1001
0000
0000
0000
,
0100
0100
0100
0010
;

//---------------dance-single - ----------------
#NOTES:
     dance-single:
     :
     Medium:
     6:
     0.480402,0.474705,0.156410,0.813332,0.070385,306.000000,20.000000,104.000000,0.000000,0.000000,0.000000,0.480402,0.474705,0.156410,0.813332,0.070385,306.000000,20.000000,104.000000,0.000000,0.000000,0.000000:
0000
0000
0000
0000
,
0000
0000
0000
0000
,
0000
0000
0000
0000
,
0000
0000
0000
0000
,
1000
0000
0000
0000
0100
0000
0000
0000
1000
0000
0000
0010
0000
0000
1000
0000
,
0001
0000
0000
0000
0100
0000
0000
0001
0000
0000
0010
0000
0000
0000
0001
0000
,
1000
0000
0000
0000
0100
0000
0000
0000
1000
0000
0000
0010
0000
0000
0100
0000
,
0002
0103
2000
3100
,
2002
0000
0000
3003
,
1001
0110
2002
3003
,
2000
3200
0320
0230
,
2300
3200
0320
0230
,
2300
3002
0203
0302
,
2003
3002
0023
0031
,
0002
0203
0320
0230
,
0302
0203
0320
0230
,
0302
2003
3200
2300
,
3002
2003
3010
1002
,
0023
0031
0200
1300
,
0020
0000
0031
0000
0200
0000
1300
0001
,
2000
3010
0002
0103
,
2000
0000
3010
0000
0002
0000
0013
0100
,
0020
0031
0200
1300
,
2000
3010
0002
0103
,
1000
1100
1001
0101
,
0110
1001
0220
0330
,
0001
0000
0001
0000
0100
0001
0100
0000
,
0010
0000
0010
0000
0100
0001
1000
0000
,
0100
0000
0100
0000
0010
0100
1000
0000
,
0001
0000
0001
0000
0010
0100
0010
0100
,
1000
0000
1000
0000
0100
1000
0100
0000
,
0010
0000
0010
0000
0100
1000
0001
0000
,
0100
0100
0010
0010
,
2002
0000
0000
3003
,
2000
0000
0000
0000
0001
0000
0000
0000
3100
0000
0000
0100
0000
0000
0100
0000
,
0010
0000
0000
0010
0000
0000
0010
0000
0000
0000
0001
0000
1000
0000
0001
0000
,
0200
0302
2003
3020
,
1030
0000
0000
0000
0001
0000
0000
0000
0100
0000
0000
0100
0000
0000
0000
0000
,
0002
0000
0000
0000
1000
0000
0000
0000
0103
0000
0000
0100
0000
0000
0100
0000
,
0010
0000
0000
0010
0000
0000
0010
0000
0000
0000
1000
0000
0001
0000
1000
0000
,
0200
2300
3002
0023
,
0130
0100
0020
0130
,
2002
0000
0000
0000
,
3003
0000
0000
0000
,
2000
3200
2300
3002
,
0203
0302
2003
3020
,
0130
0000
0000
0100
0000
0000
0101
0000
0000
0000
0000
0000
0000
0000
1000
0000
,
0100
0000
0000
0100
0000
0000
1100
0000
0000
0000
0000
0000
0000
0000
0100
0000
,
0020
0032
0023
0230
,
2300
3200
0320
0031
,
1000
0000
0000
1000
0100
0000
0010
0000
0100
0000
0000
0000
0100
0000
0010
0000
,
0001
0000
0000
0001
0100
0000
0010
0000
0100
0000
0000
0000
0010
0000
1000
0000
,
0001
0001
0100
0100
,
1000
1000
0100
0100
,
0001
0000
0000
0001
0010
0000
0100
0000
0010
0000
0000
0000
0010
0000
0110
0000
,
1000
0000
0000
1000
0010
0000
0100
0000
0010
0000
0000
0000
0100
0000
0001
0000
,
1000
1000
0100
0100
,
0001
0000
0001
0000
0100
0000
0100
1000
,
0020
0000
0000
2030
0000
0000
3001
0020
,
0000
0000
0000
0000
0030
0000
0001
0000
0010
0000
0000
0100
0000
0000
0100
0000
,
2000
0000
0000
3002
0000
0000
1003
0020
,
0000
0000
0030
1000
0001
1000
0010
0100
,
0002
0000
0000
0000
0000
0000
0013
0000
0001
0000
0000
1000
0000
0000
0200
0000
,
0000
0000
0300
1000
0100
1000
0001
0010
,
0200
0000
0000
2300
0000
3001
1000
0020
,
0000
1000
0000
0001
0000
1000
0030
0000
,
0002
0000
0000
0203
0300
0100
0001
0020
,
0000
0000
0000
0000
0030
0000
0001
0000
1000
0000
0000
0100
0000
0000
1000
0000
,
0020
0000
0000
0230
0000
0310
1000
0002
,
0000
0000
0003
1000
0001
0010
0100
0010
,
0002
0000
0000
2003
0000
3100
1000
0002
,
0000
0000
0000
0000
0003
0000
1000
0000
0100
0000
0000
0010
0000
0000
0100
0000
,
2000
0000
0000
3200
0000
1300
0001
0020
,
0000
0000
0000
0030
,
1001
0000
0000
0000
,
1001
0000
0110
0000
1001
0000
0200
0310
;
